#TITLE:Revolution;
#SUBTITLE:;
#ARTIST:Fastway;
#TITLETRANSLIT:;
#SUBTITLETRANSLIT:;
#ARTISTTRANSLIT:;
#CREDIT:;
#BANNER:revolution-bn.png;
#BACKGROUND:revolution-bg.png;
#LYRICSPATH:;
#CDTITLE:!ExigeTitle.png;
#MUSIC:Fastway - Revolution.mp3;
#OFFSET:-6.495;
#SAMPLESTART:39.789;
#SAMPLELENGTH:15.500;
#SELECTABLE:YES;
#BPMS:0.000=155.000;
#STOPS:;
#BGCHANGES:;
// cache tags:
#FIRSTBEAT:0.000;
#LASTBEAT:300.000;
#SONGFILENAME:Songs/Fabulously Fresh Flock of Fantastic Files F5/(exige) Revolution/revolution.sm;
#HASMUSIC:1;
#HASBANNER:1;
#MUSICLENGTH:135.627;
// end cache tags

//---------------dance-single - ----------------
#NOTES:
     dance-single:
     :
     Hard:
     11:
     1.000,1.000,1.000,0.280,0.925,779.000,203.000,38.000,0.000,0.000:
0100
0010
0100
0001
1000
0001
0100
1000
0100
0001
0010
0001
0100
0001
0100
0010
,
1000
0010
0001
0010
0001
0100
0010
0100
0001
0010
0001
1000
0100
1000
0001
0100
,
0001
1000
0100
1000
0001
1000
0001
1000
0010
1000
0010
0100
0010
1000
0010
1000
,
0100
1000
0010
0100
0010
1000
0001
1000
0100
0001
0100
0010
1001
0000
1001
0000
,
0000
0000
0000
0000
,
0001
0000
0001
0010
0000
0010
0100
0000
0100
1000
0001
0010
0001
1000
0100
0010
,
0100
0000
0100
0010
0000
0010
0001
0000
0001
0010
1000
0100
1000
0010
0001
1000
,
0100
0000
0100
1000
0000
1000
0010
0000
0010
1000
0100
1000
0010
0100
0001
0100
,
0010
1000
0010
2000
0000
3000
0010
1000
0010
2000
0000
3000
0100
1000
0010
0001
,
0110
0100
1100
1000
1001
0001
0101
0100
,
0101
0101
0001
1001
1000
1100
0100
0101
,
0001
1001
1000
1010
0010
1010
1000
1100
,
0100
0000
0101
0000
0001
0000
1001
0000
1000
0000
1001
0000
0100
0010
0001
1000
,
0001
0010
0001
0100
0001
0010
0001
1000
0001
0010
0001
0100
0001
0010
0001
0100
,
0010
1000
0010
0100
0010
0001
0010
0100
0010
1000
0010
0100
0010
0001
0010
0100
,
1000
0010
1000
0100
1000
0001
1000
0100
1000
0010
1000
0100
1000
0001
1000
0100
,
1001
0000
0000
0000
,
0010
0000
0010
0100
0000
0100
0001
0000
0001
0100
0010
0100
0001
1000
0100
1000
,
0001
0000
1000
0100
0000
0100
1000
0000
0010
1000
0001
1000
0100
1000
0001
0010
,
0100
0000
0100
0010
0000
0010
0001
0000
0001
1000
0100
0001
0100
1000
0001
0010
,
0100
0010
0001
2000
0000
3000
0100
0010
0001
2000
0000
3000
0100
0010
0001
1000
,
0001
0000
0001
0010
0000
0010
0100
0000
0001
0100
0001
0010
1000
0010
0001
0100
,
0010
0000
0010
0100
0000
0100
1000
0000
1000
0100
1000
0001
0010
0100
0001
0100
,
1000
0000
0001
1000
0000
1000
0010
0000
0010
1000
0001
0010
0001
1000
0100
0010
,
0100
0001
0100
0020
0000
0030
0100
0001
0100
0002
0000
0000
0000
0000
0000
0003
,
0011
1001
1100
1010
0011
0001
0101
0110
,
1010
1100
1001
0001
0010
1001
1100
1001
,
0110
0101
1100
1001
1010
0001
1010
0001
,
1010
0110
0101
0011
1000
0101
1000
0100
,
1001
1100
1001
0011
0101
0001
1010
0110
,
1100
0000
0101
0000
0011
0000
1000
0000
0100
0000
2200
3300
0220
0330
0022
0033
,
0110
1010
1100
1001
0110
0001
1010
0001
,
1001
0000
1100
0000
1001
0000
0022
0000
0033
0000
0110
0000
0001
1000
0001
1000
,
0210
0010
0310
2001
3001
0210
0310
2010
,
3010
0001
0010
0101
1010
1100
1010
0101
,
0011
0000
1000
0000
0100
0000
1001
0000
0100
0000
0001
0100
0010
0000
0001
0000
,
1001
0000
0010
0000
0100
0000
1001
0000
0001
0000
0001
1000
0001
1000
0001
0010
,
1100
0010
0001
0110
1000
0110
1000
0110
,
1000
0100
0010
0110
0011
1001
1100
0110
,
0001
0010
1000
0100
0001
0010
0100
0010
0100
0010
0001
0100
0010
0100
0010
0100
,
1001
1001
1001
1001
0000
1001
0000
0000
,
0120
0130
0210
0310
0120
0130
0210
0310
,
0010
1001
1100
1001
0011
0110
1100
0110
,
1100
0000
1001
0001
0000
0001
1000
0000
0001
1000
0001
0000
0010
0000
1001
0000
,
0010
0000
1010
0000
0110
0000
0101
0000
0110
0001
0100
0001
0100
0001
0100
0001
,
1020
1030
2010
3010
1020
1030
2010
3010
,
0001
0110
1001
0101
0011
1100
0110
1100
,
0001
1100
0110
1100
0001
1100
0110
0011
,
0110
0000
0011
0000
0110
0000
1100
0000
1001
0000
0011
0000
0001
0010
0001
0010
,
2100
3100
0120
0130
0012
0013
2001
3001
,
0010
0101
1010
0110
0101
1010
1100
1001
,
0011
0000
0110
0010
0000
0010
0100
0000
0010
0100
0010
0000
0100
0000
0110
0000
,
1000
0000
0110
0000
0011
0000
0110
0000
1001
0000
1010
1000
0010
1000
0010
1000
,
0120
0130
0201
0301
0120
0130
2010
3010
,
0001
0101
0110
1001
0110
0110
0101
1010
,
0001
1010
0110
0101
0001
1100
0101
0110
,
1001
1010
1001
0011
1001
1100
1001
0110
,
1001
1001
0000
0000
,
1000
0000
1000
0100
0000
0100
1000
0000
1000
0100
1000
0100
0001
0010
0001
0010
,
0100
0000
0100
0010
0000
0010
0001
0000
0001
0100
0001
0100
0010
0100
1001
0100
,
1001
0000
0001
0010
0000
0100
1000
0000
1000
0100
1000
0010
0100
0010
1000
0100
,
0001
0010
0001
1000
0000
0000
0010
0100
1001
0110
1001
0110
1001
0110
1001
0110
,
1001
0000
0001
1000
0000
1000
0010
0000
0010
1000
0010
0100
0001
0010
0100
0010
,
0001
0000
0100
0010
0000
0010
0100
0000
0001
0010
0100
0010
0001
1000
0011
0100
,
0011
0000
1000
0001
0000
0001
0010
0000
0010
0100
1000
0010
0100
0001
0010
0100
,
0010
0001
1000
0100
0000
0000
0100
0010
1100
0011
1100
0011
1100
0011
1100
0011
,
1100
0000
0100
0010
0000
0010
0100
0000
0001
0100
0001
0010
0001
1000
0100
1000
,
0001
0000
0001
0010
0000
0010
0001
0000
1000
0100
0010
1000
0010
0100
1000
0001
,
0010
0000
0010
0100
0000
0100
1000
0000
1000
0100
1000
0010
0100
0001
0010
0001
,
1000
0100
0010
2000
0000
3000
1000
0100
0010
2000
0000
3000
1000
0100
1000
0010
,
0100
0000
0010
0100
0000
0100
1000
0000
1000
0100
0010
1000
0100
1000
0001
0010
,
0100
0000
0100
0010
0000
0010
1000
0000
1000
0010
0100
0010
1000
0001
0100
0010
,
0001
0000
0010
0100
0000
0100
1000
0000
0001
1000
0001
1000
0100
0010
0001
1000
,
0001
1000
0001
2000
0000
3000
1000
0001
1000
0002
0000
0000
0000
0000
0000
0000
,
0000
0000
0000
0000
,
0003
0000
0000
0000
;
