#TITLE:TWILIGHT ZONE;
#SUBTITLE:;
#ARTIST:2 UNLIMITED;
#TITLETRANSLIT:;
#SUBTITLETRANSLIT:;
#ARTISTTRANSLIT:;
#CREDIT:;
#BANNER:;
#BACKGROUND:;
#LYRICSPATH:;
#CDTITLE:;
#MUSIC:TWILIGHT ZONE~R-C Extended Club Mix~.mp3;
#OFFSET:1.739;
#SAMPLESTART:41.739;
#SAMPLELENGTH:12.000;
#SELECTABLE:YES;
#BPMS:0.000=138.000;
#STOPS:;
#BGCHANGES:;
// cache tags:
#FIRSTBEAT:8.000;
#LASTBEAT:197.750;
#SONGFILENAME:Songs/toune 2/TWILIGHT ZONE(R-C Extended Club Mix)/TWILIGHT ZONE(R-C Extended Club Mix).sm;
#HASMUSIC:1;
#HASBANNER:0;
#MUSICLENGTH:86.395;
// end cache tags

//---------------iidx-single7 - r-c extended club mi----------------
#NOTES:
     iidx-single7:
     r-c extended club mi:
     Hard:
     9:
     1.000,1.000,1.000,0.000,0.833,497.000,205.000,0.000,0.000,32.000:  // measure 1
00000000
00000000
00000000
00000000
,  // measure 2
00000000
00000000
00000000
00000000
,  // measure 3
10000000
00000010
10000000
00000010
10000000
00000010
10000000
00000010
,  // measure 4
10000000
00000010
10000000
00000010
10000000
00000010
10000000
00000010
,  // measure 5
10000000
00000010
10000000
00000010
10000000
00000010
10000000
00000010
,  // measure 6
10001000
00010010
10100000
00001010
00010000
00000000
00001000
00000000
,  // measure 7
00000101
00000100
00000000
00000100
00000100
00000000
00000100
00000100
00000000
00000100
00000100
00000000
00000010
00000000
00000100
00000000
,  // measure 8
00000100
00000100
00000000
00000100
00000100
00000000
00000100
00000100
00000000
00000100
00000100
00000000
00000010
00000000
00000100
00000000
,  // measure 9
00000100
00000100
00000000
00000100
00000100
00000000
00000100
00000100
00000000
00000100
00000100
00000000
00000010
00000000
00000100
00000000
,  // measure 10
00001000
00000000
00010000
00000000
00100000
00000000
01000000
10000000
00000000
00000000
00000000
00000000
00000010
00000000
00000000
00000000
,  // measure 11
10001001
00000100
01000000
00100000
10000100
00000000
01010000
00000100
10000000
00010000
01100000
00000000
10010000
00000000
01001000
00000000
,  // measure 12
10001000
00100000
01000000
00010000
10100000
00000000
01000100
00100000
10000000
00000100
01010000
00000000
10000100
00000000
01001000
00000000
,  // measure 13
10001000
00000100
01000000
00100000
10000100
00000000
01010000
00000100
10000000
00010000
01100000
00000000
10010000
00000000
01001000
00000000
,  // measure 14
10000010
00000000
01000100
00000000
10100000
00000000
01001000
00100000
10000000
00000000
01000000
00000000
10000000
00000000
01000000
00000000
,  // measure 15
10001001
00000100
01000000
00100000
10000100
00000000
01010000
00000100
10000000
00010000
01100000
00000000
10010000
00000000
01001000
00000000
,  // measure 16
10001000
00100000
01000000
00010000
10100000
00000000
01000010
00100000
10000000
00000010
01010000
00000000
10000010
00000000
01001000
00000000
,  // measure 17
10001000
00000010
01000000
00100000
10000010
00000000
01010000
00000010
10000000
00010000
01100000
00000000
10010000
00000000
01001000
00000000
,  // measure 18
10000010
00000000
01000100
00000000
10100000
00000000
01001000
00100000
10000000
00000000
01000000
00000000
10000001
00000000
01000000
00000000
,  // measure 19
10000101
00000000
00001000
00001000
10100000
00000000
00000100
00000000
10001000
00001000
00100000
00000000
10000100
00000000
00010000
01000000
,  // measure 20
10000100
00000000
00001000
00001000
10100000
00000000
00000100
00000000
10001000
00001000
00100000
00010000
11000010
00000000
00000000
00000000
,  // measure 21
10000100
00000000
00001000
00001000
10100000
00000000
00000100
00000000
10001000
00001000
00100000
00000000
10000100
00000000
00010000
01000000
,  // measure 22
10000101
00000000
00000001
00000001
00000001
00000001
00000001
00000000
00000010
00000000
00001000
00000000
00100000
00000000
00000000
00000000
,  // measure 23
10001001
00000100
01000000
00001000
10010000
00000000
01001000
00000100
10000000
00001000
01000010
00000000
10010000
00000000
01100000
00000000
,  // measure 24
10001000
00000100
01000000
00001000
10010000
00000000
01001000
00000100
10000000
00001000
01000010
00000000
10010000
00000000
01100000
00000000
,  // measure 25
10001000
00000100
01000000
00001000
10010000
00000000
01001000
00000100
10000000
00001000
01000010
00000000
10010000
00000000
01100000
00000000
,  // measure 26
10000010
00000000
01000100
00000000
10001000
00000000
01010000
00100000
10000000
00000000
01000000
00000000
10000010
00000000
01000000
00000000
,  // measure 27
10001001
00010000
01000000
00001000
10000100
00000000
01001000
00010000
10000000
00001000
01100000
00000000
10000100
00000000
01000010
00000000
,  // measure 28
10001000
00010000
01000000
00001000
10000100
00000000
01001000
00010000
10000000
00001000
01100000
00000000
10000100
00000000
01000010
00000000
,  // measure 29
10001000
00010000
01000000
00001000
10000100
00000000
01001000
00010000
10000000
00001000
01100000
00000000
10000100
00000000
01000010
00000000
,  // measure 30
10100000
00000000
01010000
00000000
10001000
00000000
01000100
00000010
10000000
00000000
01000000
00000000
10100001
00000000
01000000
00000000
,  // measure 31
10001000
00000110
10000000
00001010
10010000
00000010
10001000
00000110
10000000
00001010
10010000
00000010
10100000
00000010
11000000
00000010
,  // measure 32
10001000
00000110
10000000
00001010
10010000
00000010
10001000
00000110
10000000
00001010
10010000
00000010
10100000
00000010
11000000
00000010
,  // measure 33
10001000
00000110
10000000
00001010
10010000
00000010
10001000
00000110
10000000
00001010
10010000
00000010
10100000
00000010
11000000
00000010
,  // measure 34
10000100
00000010
10001000
00000010
10010000
00000010
10100000
01000010
10000000
00000010
10000000
00000010
10000000
00000010
10000000
00000010
,  // measure 35
10000001
00000000
00001000
00000000
10000000
00000000
00001000
00100000
10000000
00000000
00001000
00000000
10000000
00000000
00001000
00000000
,  // measure 36
01000000
00000000
00000100
00000000
01000000
00000000
00000100
00010000
01000000
00000000
00000100
00000000
01000000
00000000
00000100
00000000
,  // measure 37
00100000
00000000
00000010
00000000
00100000
00000000
00000010
00001000
00100000
00000000
00000010
00000000
00100000
00000000
00000010
00000000
,  // measure 38
01000000
00000100
00000000
01000000
00010000
00000000
01000000
00000100
00000000
01000000
00010000
00000000
00100000
00000000
00100000
00000000
,  // measure 39
10000001
00000000
00001000
00000000
10000000
00000000
00001000
00100000
10000000
00000000
00001000
00000000
10000000
00000000
00001000
00000000
,  // measure 40
01000000
00000000
00000100
00000000
01000000
00000000
00000100
00010000
01000000
00000000
00000100
00000000
01000000
00000000
00000100
00000000
,  // measure 41
00100000
00000000
00000010
00000000
00100000
00000000
00000010
00001000
00100000
00000000
00000010
00000000
00100000
00000000
00000010
00000000
,  // measure 42
01000001
00000000
00000000
00000001
,  // measure 43
00100011
01000000
00000100
00001000
01000010
00000000
00010100
01000000
00000010
00010000
00001100
00000000
00010010
00000000
00100100
00000000
,  // measure 44
00100010
00001000
00000100
00010000
00001010
00000000
01000100
00001000
00000010
01000000
00010100
00000000
01000010
00000000
00100100
00000000
,  // measure 45
00100010
01000000
00000100
00001000
01000010
00000000
00010100
01000000
00000010
00010000
00001100
00000000
00010010
00000000
00100100
00000000
,  // measure 46
10000010
00000000
01000100
00000000
00001010
00000000
00100100
00001000
00000010
00000000
00000100
00000000
00000011
00000000
00000100
00000000
,  // measure 47
01000101
00010101
00000000
01000101
00010101
00000000
01000101
00010101
00000000
01000101
00010101
00000000
10001010
00000000
10010000
00000000
,  // measure 48
00101001
00001001
00000000
00101001
00001001
00000000
00101001
00001001
00000000
00101001
00001001
00000000
10000110
00000000
10100000
00000000
,  // measure 49
01000101
00010101
00000000
01000101
00010101
00000000
01000101
00010101
00000000
01000101
00010101
00000000
10001010
00000000
10000100
00000000
,  // measure 50
00001001
00000000
00010001
00000000
00100001
00000000
01000001
10000001
00000000
00000000
00000000
00000000
00000000
00000000
00000000
00000000
;
