#TITLE:Dokudenpa;
#SUBTITLE:(Poison Air Wave);
#ARTIST:DJ Sharpnel;
#TITLETRANSLIT:;
#SUBTITLETRANSLIT:;
#ARTISTTRANSLIT:;
#CREDIT:;
#BANNER:doku bn.png;
#BACKGROUND:doku bg.png;
#LYRICSPATH:;
#CDTITLE:;
#MUSIC:Poison Air Wave.ogg;
#OFFSET:2.516;
#SAMPLESTART:175.447;
#SAMPLELENGTH:20.409;
#SELECTABLE:YES;
#DISPLAYBPM:188.000;
#BPMS:0.000=188.139;
#STOPS:;
#BGCHANGES:;
// cache tags:
#FIRSTBEAT:8.000;
#LASTBEAT:818.250;
#SONGFILENAME:Songs/SHARPNELSTREAMZ v2/Dokudenpa/dokudenpa.sm;
#HASMUSIC:1;
#HASBANNER:1;
#MUSICLENGTH:259.575;
// end cache tags

//---------------dance-single - STREAMZ----------------
#NOTES:
     dance-single:
     STREAMZ:
     Edit:
     17:
     1.000,1.000,0.050,0.431,1.000,2854.000,13.000,112.000,7.000,0.000:
0000
0000
0000
0000
,
0000
0000
0000
0000
,
1001
0001
0010
0100
0100
1000
0001
0001
,
0100
0000
0010
0000
0010
0000
1000
0000
0001
0010
0100
0000
1100
0000
1000
0000
,
1001
0001
0100
0010
0010
1000
1001
0001
,
0011
0000
0010
0000
0100
0000
1000
0000
0001
0100
0010
0000
0010
0000
0010
0000
,
1010
1000
0001
0010
0010
0100
1000
1000
,
0010
0000
0100
0000
0100
0000
0001
0000
1000
0100
0010
0000
0011
0000
0001
0000
,
1001
1000
0010
0100
0100
0001
1001
1000
,
1100
0100
0100
0010
1001
0000
0000
0000
,
1001
0000
1000
0000
0100
0000
1000
0000
1000
0000
0001
0000
0100
0010
1000
0000
,
0001
0000
0001
0000
0010
0000
0001
1000
0001
1000
0010
0000
0100
0001
0100
0001
,
0010
0000
0010
0000
0100
0000
0010
0000
0010
0000
0001
0000
1000
0010
0100
0000
,
0001
0000
0001
0000
1000
0000
0100
1000
0100
1000
0010
0000
0100
0001
0100
0001
,
1000
0000
1000
0000
0100
0000
1000
0000
1000
0000
0001
0000
1000
0010
0100
0000
,
0001
0000
0001
0000
1000
0000
0001
0010
0001
0010
0100
0000
1000
0001
1000
0001
,
0100
0000
0100
0000
0010
0000
1000
0000
1000
0000
0001
0000
0010
0100
1000
0000
,
0001
0000
0001
0000
0100
0000
0010
1000
0010
1000
0001
0000
0010
0100
0010
0100
,
1000
0000
0000
0000
0000
0000
0000
0000
0002
0003
0000
0000
0000
0000
0000
0000
0100
0000
0000
0000
0000
0000
0000
0000
0002
0003
0000
0000
0000
0000
0000
0000
0010
0000
0000
0000
0000
0000
0000
0000
0200
0300
0000
0000
0000
0000
0000
0000
1000
0000
0000
0000
0001
0000
0000
0000
0200
0300
0000
0000
0000
0000
0000
0000
,
0010
0000
0000
0000
0000
0000
0000
0000
2000
3000
0000
0000
0000
0000
0000
0000
0100
0000
0000
0000
0000
0000
0000
0000
2000
3000
0000
0000
0001
0000
0000
0000
0100
0000
0000
0000
0001
0000
0000
0000
0020
0030
0000
0000
0000
0000
0000
0000
0001
0000
0000
0000
1000
0000
0000
0000
0020
0030
0000
0000
1000
0000
0000
0000
,
0001
0000
0000
0000
0000
0000
0000
0000
0020
0030
0000
0000
0000
0000
0000
0000
0100
0000
0000
0000
0000
0000
0000
0000
0020
0030
0000
0000
0000
0000
0000
0000
0001
0000
0000
0000
0000
0000
0000
0000
0200
0300
0000
0000
0000
0000
0000
0000
0001
0000
0000
0000
1000
0000
0000
0000
0200
0300
0000
0000
0000
0000
0000
0000
,
0010
0000
0000
0000
0000
0000
0000
0000
0002
0003
0000
0000
0000
0000
0000
0000
1000
0000
0000
0000
0000
0000
0000
0000
0002
0003
0000
0000
0010
0000
0000
0000
0100
0000
0000
0000
1000
0000
0000
0000
0020
0030
0000
0000
0000
0000
0000
0000
1000
0000
0000
0000
0001
0000
0000
0000
0020
0030
0000
0000
0100
0000
0000
0000
,
1000
0000
0000
0000
0000
0000
0000
0000
0002
0003
0000
0000
0000
0000
0000
0000
0100
0000
0000
0000
0000
0000
0000
0000
0002
0003
0000
0000
0000
0000
0000
0000
1000
0000
0000
0000
0000
0000
0000
0000
0200
0300
0000
0000
0000
0000
0000
0000
1000
0000
0000
0000
0001
0000
0000
0000
0200
0300
0000
0000
0000
0000
0000
0000
,
0001
0000
0000
0000
0000
0000
0000
0000
0020
0030
0000
0000
0000
0000
0000
0000
0100
0000
0000
0000
0000
0000
0000
0000
0020
0030
0000
0000
0001
0000
0000
0000
1000
0000
0000
0000
0010
0000
0000
0000
0200
0300
0000
0000
0000
0000
0000
0000
0001
0000
0000
0000
0100
0000
0000
0000
0020
0030
0000
0000
1000
0000
0000
0000
,
0001
0000
0000
0M00
0000
0000
00M0
0000
0000
0000
0000
M000
0000
0000
0000
0000
0000
0000
000M
0000
0000
0000
0000
0000
,
0000
0000
0000
0000
0000
00M0
0000
0000
0000
0000
0000
0000
0000
0000
0000
0000
0000
0000
0000
0000
0000
0000
0000
0000
0000
0000
0000
0000
0000
0000
0000
0000
0000
0000
0000
0000
0200
0000
0000
0000
0000
0000
0000
0000
0000
0000
0000
0000
,
0000
0300
0000
0000
,
0000
0000
0000
0000
1001
0000
0000
0000
0001
0010
0001
1000
0010
0100
0001
1000
,
0001
0010
0100
0010
0001
1000
0100
1000
0001
1000
0010
0100
0001
0100
0010
1000
,
0001
0010
0100
1000
0001
1000
0001
0100
0010
1000
0001
1000
0100
0010
0001
1000
,
0001
0100
0010
0100
0001
1000
0010
1000
0001
1000
0001
0010
0100
1000
0001
0010
,
0001
1000
0010
0100
0001
1000
0001
0010
0100
1000
0001
1000
0010
0100
0001
1000
,
0001
0010
0100
0010
0001
1000
0100
1000
0001
1000
0010
0100
0001
0100
0010
1000
,
0001
0010
0100
1000
0001
1000
0001
0100
0010
1000
0001
1000
0100
0010
0001
1000
,
0001
0100
0010
0100
0001
1000
0010
1000
0001
1000
0001
0010
0100
1000
0001
0010
,
0001
1000
0010
0100
0001
1000
0001
0010
0100
1000
0001
1000
0010
0100
0001
1000
,
0001
0010
0100
0010
0001
1000
0100
1000
0001
1000
0010
0100
0001
0100
0010
1000
,
0001
0010
0100
1000
0001
1000
0001
0100
0010
1000
0001
1000
0100
0010
0001
1000
,
0001
0100
0010
0100
0001
1000
0010
1000
0001
1000
0001
0010
0100
1000
0001
0010
,
0001
1000
0010
0100
0001
1000
0001
0010
0100
1000
0001
1000
0010
0100
0001
1000
,
0001
0010
0100
0010
0001
1000
0100
1000
0001
1000
0010
0100
0001
0100
0010
1000
,
0001
0010
0100
1000
0001
1000
0001
0100
0010
1000
0001
1000
0100
0010
0001
1000
,
0001
0100
0010
0100
0001
1000
0010
1000
0001
1000
0001
0010
0100
1000
0001
1000
,
0001
0100
0010
1000
0100
0010
0001
1000
0001
0100
0001
0100
0001
1000
0010
0100
,
0010
1000
0001
0100
0001
0100
0001
1000
0100
0010
0100
0010
0100
1000
0001
0010
,
0001
1000
0100
0010
0100
0010
0100
1000
0001
1000
0001
1000
0001
0100
0010
1000
,
0010
0100
0001
1000
0001
1000
0001
0010
0100
1000
0100
1000
0100
0010
0001
1000
,
0001
0010
0100
1000
0100
1000
0100
1000
0001
0100
0001
0100
0001
1000
0010
0100
,
0010
1000
0001
0100
0001
0100
0001
0010
0100
1000
0100
1000
0100
0010
0001
1000
,
0001
0010
0100
1000
0001
1000
0001
1000
0010
0100
0010
0100
0010
1000
0001
0100
,
0001
1000
0010
0100
0010
0100
0010
1000
0100
1000
0100
1000
0100
0010
0001
1000
,
0001
0010
0100
1000
0100
1000
0100
1000
0001
0100
0001
0100
0001
1000
0010
0100
,
0010
1000
0001
0100
0001
0100
0001
1000
0100
0010
0100
0010
0100
1000
0001
0010
,
0001
1000
0100
0010
0100
0010
0100
1000
0001
1000
0001
1000
0001
0100
0010
1000
,
0010
0100
0001
1000
0001
1000
0001
0010
0100
1000
0100
1000
0100
0010
0001
1000
,
0001
0010
0100
1000
0100
1000
0100
1000
0001
0100
0001
0100
0001
1000
0010
0100
,
0010
1000
0001
0100
0001
0100
0001
0010
0100
1000
0100
1000
0100
0010
0001
1000
,
0001
0010
0100
1000
0001
1000
0001
1000
0010
0100
0010
0100
0010
1000
0001
0100
,
0001
1000
0010
0100
0010
0100
0010
1000
0100
1000
0100
1000
0100
0010
0001
1000
,
0001
0010
0100
1000
0100
1000
0100
1000
0010
0100
0010
1000
0010
0100
0001
0010
,
0001
0100
0010
1000
0010
0100
0001
1000
0100
0010
0100
1000
0100
0010
0001
0100
,
0001
0010
0100
1000
0100
0010
0001
1000
0010
0100
0001
0100
0010
1000
0001
0010
,
0001
0010
0001
1000
0010
0100
0010
1000
0100
0010
0100
1000
0100
0010
0001
1000
,
0001
0010
0100
1000
0001
1000
0100
1000
0010
0100
0010
1000
0010
0100
0001
0010
,
0001
0100
0010
1000
0010
0100
0001
1000
0100
0010
0100
1000
0100
0010
0001
0100
,
0001
0010
0100
1000
0100
0010
0001
1000
0010
0100
0001
0100
0010
1000
0001
0010
,
0001
1000
0001
0010
0100
0010
0001
0100
0010
1000
0010
0100
0010
1000
0100
0010
,
0001
1000
0100
1000
0001
1000
0001
0100
0010
0100
0010
1000
0010
0100
0001
0010
,
0001
0100
0010
1000
0010
0100
0001
1000
0100
0010
0100
1000
0100
0010
0001
0100
,
0001
0010
0100
1000
0100
0010
0001
1000
0010
0100
0001
0100
0010
1000
0001
0010
,
0001
0010
0001
1000
0010
0100
0010
1000
0100
0010
0100
1000
0100
0010
0001
1000
,
0001
0010
0100
1000
0001
1000
0100
1000
0010
0100
0010
1000
0010
0100
0001
0010
,
0001
0100
0010
1000
0010
0100
0001
1000
0100
0010
0100
1000
0100
0010
0001
0100
,
0001
0010
0100
1000
0100
0010
0001
1000
0010
0100
0001
0100
0010
1000
0001
0010
,
0001
1000
0001
0010
0100
0010
0001
0100
0010
1000
0010
0100
0010
0000
0000
1000
,
0000
0000
0000
0000
0001
0000
0000
0000
0001
0000
0000
0000
0001
0000
0000
0000
MM20
0000
0000
0000
0030
0000
0000
0000
0002
0003
0000
0000
0000
0000
0000
0000
,
0002
0003
0000
0000
0000
0000
0000
0000
2000
3000
0000
0000
0002
0003
0000
0000
0200
0300
0000
0000
0000
0000
0000
0000
0020
0030
0000
0000
0000
0000
0000
0000
,
2000
3000
0000
0000
0000
0000
0000
0000
0020
0030
0000
0000
0000
0000
0000
0000
0200
0300
0000
0000
0002
0003
0000
0000
2000
3000
0000
0000
0000
0000
0000
0000
,
0200
0300
0000
0000
0000
0000
0000
0000
0020
0030
0000
0000
0000
0000
0000
0000
0002
0003
0000
0000
0020
0030
0000
0000
0200
0300
0000
0000
2000
3000
0000
0000
,
0002
0003
0000
0000
0000
0000
0000
0000
2000
3000
0000
0000
0000
0000
0000
0000
0200
0000
0000
0000
0300
0000
0000
0000
0020
0030
0000
0000
0002
0003
0000
0000
,
0200
0300
0000
0000
0000
0000
0000
0000
0002
0003
0000
0000
2000
3000
0000
0000
0200
0300
0000
0000
0020
0030
0000
0000
0002
0003
0000
0000
0020
0030
0000
0000
,
0200
0300
0000
0000
0000
0000
0000
0000
2000
3000
0000
0000
0000
0000
0000
0000
0002
0000
0000
0000
0003
0000
0000
0000
0200
0300
0000
0000
0000
0000
0000
0000
,
0020
0030
0000
0000
0000
0000
0000
0000
2000
3000
0000
0000
0000
0000
0000
0000
0002
0003
0000
0000
0000
0000
0000
0000
2000
3000
0000
0000
0020
0030
0000
0000
,
0200
0300
0000
0000
0000
0000
0000
0000
0002
0003
0000
0000
0000
0000
0000
0000
2000
0000
0000
0000
3000
0000
0000
0000
0200
0300
0000
0000
0000
0000
0000
0000
,
0200
0300
0000
0000
0000
0000
0000
0000
2000
3000
0000
0000
0000
0000
0000
0000
0020
0030
0000
0000
0000
0000
0000
0000
0200
0300
0000
0000
0002
0003
0000
0000
,
0020
0030
0000
0000
0200
0300
0000
0000
2000
3000
0000
0000
0002
0003
0000
0000
0200
0000
0000
0000
0300
0000
0000
0000
0020
0030
0000
0000
0000
0000
0000
0000
,
2000
3000
0000
0000
0000
0000
0000
0000
0020
0030
0000
0000
0000
0000
0000
0000
0200
0300
0000
0000
0000
0000
0000
0000
0002
0003
0000
0000
0000
0000
0000
0000
,
2000
3000
0000
0000
0000
0000
0000
0000
0200
0300
0000
0000
0000
0000
0000
0000
2000
0000
0000
0000
3000
0000
0000
0000
0002
0003
0000
0000
0000
0000
0000
0000
,
0200
0300
0000
0000
0000
0000
0000
0000
0020
0030
0000
0000
0000
0000
0000
0000
2000
0000
0000
0000
3000
0000
0000
0000
0002
0003
0000
0000
0000
0000
0000
0000
,
0200
0300
0000
0000
0000
0000
0000
0000
0020
0030
0000
0000
0000
0000
0000
0000
2000
0000
0000
0000
3000
0000
0000
0000
0020
0030
0000
0000
0000
0000
0000
0000
,
0200
0300
0000
0000
0000
0000
0000
0000
0002
0003
0000
0000
0000
0000
0000
0000
0020
0030
0000
0000
0000
0000
0000
0000
0002
0003
0000
0000
2000
3000
0000
0000
,
0200
0300
2000
3000
0200
0300
2000
3000
0002
0003
0000
0000
0200
0300
0000
0000
0001
0000
1000
0000
0001
0000
0010
0000
0100
0000
1000
0000
0001
0000
0100
0000
,
0010
1000
0010
0100
0001
1000
0010
0100
0010
1000
0001
1000
0100
0010
0001
1000
,
0010
0100
0010
1000
0001
0100
0001
1000
0100
0010
0001
1000
0001
0100
0010
1000
,
0001
1000
0010
0100
0001
1000
0001
0010
0100
1000
0100
0010
0001
1000
0010
0100
,
0001
1000
0001
0100
0010
1000
0001
1000
0100
0010
0100
1000
0001
0100
0010
1000
,
0001
0010
0001
1000
0010
0100
0001
0100
0010
1000
0001
0010
0100
0010
0001
1000
,
0001
0100
0001
1000
0100
0010
0100
1000
0001
0100
0001
1000
0010
0100
0010
1000
,
0001
0010
0001
1000
0010
0100
0010
1000
0001
0010
0001
1000
0010
0100
0001
0100
,
0010
1000
0001
1000
0100
0010
0100
1000
0001
0100
0001
1000
0100
0010
0100
1000
,
0001
0100
0010
1000
0100
0010
0100
1000
0001
0100
0010
1000
0001
1000
0010
0100
,
0001
1000
0100
0010
0001
0010
0100
1000
0001
0100
0001
1000
0100
0010
0100
1000
,
0001
0100
0010
1000
0100
0010
0100
1000
0001
0100
0010
1000
0001
1000
0010
0100
,
0001
1000
0100
0010
0001
0010
0100
1000
0001
0100
0001
1000
0100
0010
0100
1000
,
0001
0100
0010
1000
0100
1000
0010
0100
0001
0100
0001
1000
0100
0010
0100
1000
,
0001
0100
0010
1000
0100
1000
0010
0100
0001
1000
0001
0010
0100
1000
0100
0010
,
0001
1000
0001
0100
0010
1000
0001
1000
0100
0010
0100
1000
0001
0100
0010
1000
,
0100
0010
0100
1000
0001
0100
0010
1000
0001
0010
0001
1000
0100
1000
0001
0100
,
0010
1000
0010
0100
0001
1000
0010
0100
0010
1000
0001
1000
0100
0010
0001
1000
,
0010
0100
0010
1000
0001
0100
0001
1000
0100
0010
0001
1000
0001
0100
0010
1000
,
0001
1000
0010
0100
0001
1000
0001
0010
0100
1000
0100
0010
0001
1000
0010
0100
,
0001
1000
0001
0100
0010
1000
0001
1000
0100
0010
0100
1000
0001
0100
0010
1000
,
0001
0010
0001
1000
0010
0100
0001
0100
0010
1000
0001
0010
0100
0010
0001
1000
,
0001
0100
0001
1000
0100
0010
0100
1000
0001
0100
0001
1000
0010
0100
0010
1000
,
0001
0010
0001
1000
0010
0100
0010
1000
0001
0010
0001
1000
0010
0100
0001
0100
,
0010
1000
0001
1000
0100
0010
0100
1000
0001
0100
0001
1000
0100
0010
0100
1000
,
0001
0100
0010
1000
0100
0010
0100
1000
0001
0100
0010
1000
0001
1000
0010
0100
,
0001
1000
0100
0010
0001
0010
0100
1000
0001
0100
0001
1000
0100
0010
0100
1000
,
0001
0100
0010
1000
0100
0010
0100
1000
0001
0100
0010
1000
0001
1000
0010
0100
,
0001
1000
0100
0010
0001
0010
0100
1000
0001
0100
0001
1000
0100
0010
0100
1000
,
0001
0100
0010
1000
0100
1000
0010
0100
0001
0100
0001
1000
0100
0010
0100
1000
,
0001
0100
0010
1000
0100
1000
0010
0100
0001
1000
0001
0010
0100
1000
0100
0010
,
0001
1000
0001
0100
0010
1000
0001
1000
0100
0010
0100
1000
0001
0100
0010
1000
,
0100
0010
0100
1000
0001
0100
0010
1000
0001
0010
0001
0010
0100
0010
0001
0010
,
0100
1000
0100
1000
0001
1000
0100
1000
0001
0100
0001
0100
0010
1000
0001
0010
,
0100
1000
0100
1000
0001
1000
0100
0010
0001
1000
0001
1000
0010
0100
0001
0100
,
0010
1000
0010
1000
0001
0010
0100
1000
0001
1000
0001
1000
0010
0100
0001
1000
,
0100
0010
0100
0010
0001
0010
0100
1000
0001
1000
0001
1000
0010
0100
0001
1000
,
0100
0010
0100
0010
0001
0010
0100
1000
0001
0100
0001
0100
0010
1000
0001
0010
,
0100
1000
0100
1000
0001
1000
0100
0010
0001
1000
0001
1000
0010
0100
0001
0100
,
0010
1000
0010
1000
0001
0010
0100
1000
0001
1000
0001
1000
0100
0010
0001
1000
,
0010
0100
0010
0100
0001
0100
0010
1000
0001
0010
0001
0010
0100
1000
0001
1000
,
0100
0010
0100
0010
0001
0010
0100
1000
0001
1000
0001
1000
0010
0100
0001
0100
,
0010
1000
0010
1000
0001
1000
0010
0100
0001
0100
0001
0100
0010
1000
0001
0010
,
0100
1000
0100
1000
0001
1000
0100
0010
0001
1000
0001
1000
0100
1000
0001
0100
,
0010
1000
0010
1000
0001
1000
0010
0100
0001
1000
0001
1000
0100
1000
0001
0100
,
0010
1000
0010
1000
0001
1000
0010
0100
0001
1000
0001
1000
0100
1000
0001
0010
,
0100
0010
0100
0010
0001
1000
0010
0100
0001
0100
0001
0100
0010
1000
0001
0010
,
0100
1000
0100
1000
0001
0100
0010
0100
0001
1000
0001
1000
0001
1000
0001
1000
,
0001
1000
0001
1000
0001
1000
0001
1000
0001
0010
0100
1000
0001
0010
0100
1000
,
0010
0100
0001
0010
0100
1000
0001
1000
0001
0010
0100
1000
0001
0010
0100
1000
,
0010
0100
0001
0010
0100
1000
0001
1000
0001
0100
0010
1000
0001
0100
0010
1000
,
0100
0010
0001
0100
0010
1000
0001
1000
0001
0100
0010
1000
0001
0100
0010
1000
,
0100
0010
0001
0100
0010
1000
0001
1000
0100
0010
0001
1000
0100
0010
0001
0100
,
0010
1000
0100
0010
0001
1000
0100
1000
0100
0010
0001
1000
0100
0010
0001
0100
,
0010
1000
0100
0010
0001
1000
0100
1000
0100
0010
0001
1000
0100
0010
0001
0100
,
0010
1000
0100
0010
0001
1000
0100
1000
0100
0010
0001
1000
0100
0010
0001
0100
,
0010
1000
0100
0010
0001
1000
0100
1000
0010
0100
0001
1000
0010
0100
0001
0010
,
0100
1000
0010
0100
0001
1000
0010
1000
0010
0100
0001
1000
0010
0100
0001
0010
,
0100
1000
0010
0100
0001
1000
0010
1000
0001
0010
0100
1000
0001
0010
0100
1000
,
0010
0100
0001
0010
0100
1000
0001
1000
0001
0010
0100
1000
0001
0010
0100
1000
,
0010
0100
0001
0010
0100
1000
0001
1000
0010
0100
0001
1000
0010
0100
0001
0010
,
0100
1000
0010
0100
0001
1000
0010
1000
0010
0100
0001
1000
0010
0100
0001
0010
,
0100
1000
0010
0100
0001
1000
0010
1000
0100
0010
0001
1000
0100
0010
0001
0100
,
0010
1000
0100
0010
0001
1000
0100
1000
0010
0100
0001
1000
0010
0100
0001
0010
,
0100
1000
0010
0100
0001
1000
0010
1000
0100
1000
0001
1000
0100
0010
0001
0100
,
0010
1000
0100
1000
0001
1000
0100
1000
0100
1000
0001
1000
0100
1000
0010
0100
,
0001
0010
0100
1000
0001
1000
0100
1000
0010
0100
0001
0100
0010
1000
0100
0010
,
0001
0100
0010
1000
0100
1000
0010
1000
0010
0100
0001
0100
0010
1000
0100
0010
,
0001
0100
0010
0100
0001
1000
0010
1000
0100
0010
0001
1000
0100
1000
0010
0100
,
0001
0010
0100
0010
0001
1000
0100
1000
0100
0010
0001
1000
0100
0010
0001
0100
,
0010
1000
0100
0010
0001
0010
0100
1000
0100
1000
0001
0010
0100
1000
0010
0100
,
0001
0010
0100
1000
0010
1000
0100
1000
0010
0100
0001
1000
0010
0100
0001
0010
,
0100
1000
0010
0100
0001
0100
0010
1000
0100
0010
0001
1000
0100
0010
0001
0100
,
0010
1000
0100
0010
0001
1000
0100
1000
0100
0010
0001
1000
0100
0010
0001
0100
,
0010
1000
0100
0010
0001
1000
0100
1000
0100
0010
0001
1000
0100
0010
0001
0100
,
0010
1000
0100
0010
0001
1000
0100
1000
0100
0010
0001
1000
0100
0010
0001
0100
,
0010
1000
0100
0010
0001
1000
0100
1000
0010
0100
0001
1000
0010
0100
0001
0010
,
0100
1000
0010
0100
0001
1000
0010
1000
0010
0100
0001
1000
0010
0100
0001
0010
,
0100
1000
0010
0100
0001
1000
0010
1000
0100
0010
0001
1000
0100
0010
0001
0100
,
0010
1000
0100
0010
0001
1000
0100
1000
0010
0100
0001
0010
0100
1000
0010
1000
,
0100
0010
0001
0100
0010
0100
0001
0010
0100
1000
0001
1000
0010
0100
0001
1000
,
0001
0010
0100
0010
0001
1000
0100
1000
0001
1000
0010
0100
0001
0100
0010
1000
,
0001
0010
0100
1000
0001
1000
0001
0100
0010
1000
0001
1000
0100
0010
0001
1000
,
0001
0100
0010
0100
0001
1000
0010
1000
0001
1000
0001
0010
0100
1000
0001
0010
,
0001
1000
0010
0100
0001
1000
0001
0010
0100
1000
0001
1000
0010
0100
0001
1000
,
0001
0010
0100
0010
0001
1000
0100
1000
0001
1000
0010
0100
0001
0100
0010
1000
,
0001
0010
0100
1000
0001
1000
0001
0100
0010
1000
0001
1000
0100
0010
0001
1000
,
0001
0100
0010
0100
0001
1000
0010
1000
0001
1000
0001
0010
0100
1000
0001
0010
,
0001
1000
0010
0100
0001
1000
0001
0010
0100
1000
0001
1000
0010
0100
0001
1000
,
0001
0010
0100
0010
0001
1000
0100
1000
0001
1000
0010
0100
0001
0100
0010
1000
,
0001
0010
0100
1000
0001
1000
0001
0100
0010
1000
0001
1000
0100
0010
0001
1000
,
0001
0100
0010
0100
0001
1000
0010
1000
0001
1000
0001
0010
0100
1000
0001
0010
,
0001
1000
0010
0100
0001
1000
0001
0010
0100
1000
0001
1000
0010
0100
0001
1000
,
0001
0010
0100
0010
0001
1000
0100
1000
0001
1000
0010
0100
0001
0100
0010
1000
,
0001
0010
0100
1000
0001
1000
0001
0100
0010
1000
0001
1000
0100
0010
0001
1000
,
0001
0100
0010
0100
0001
1000
0010
1000
0001
1000
0001
0010
0100
1000
0001
1000
,
0001
0100
0010
1000
0100
0010
0001
1000
0001
0100
0010
1000
0100
0010
0001
1000
,
0001
0100
0010
0100
0001
1000
0010
1000
0001
1000
0100
0010
0001
0010
0100
1000
,
0001
0100
0010
1000
0001
1000
0001
0010
0100
1000
0001
1000
0010
0100
0001
1000
,
0001
0010
0100
0010
0001
1000
0100
1000
0001
1000
0001
0100
0010
1000
0001
0100
,
0001
1000
0100
0010
0001
1000
0001
0100
0010
1000
0001
1000
0100
0010
0001
1000
,
0001
0100
0010
0100
0001
1000
0010
1000
0001
1000
0100
0010
0001
0010
0100
1000
,
0001
0100
0010
1000
0001
1000
0001
0010
0100
1000
0001
1000
0010
0100
0001
1000
,
0001
0010
0100
0010
0001
1000
0100
1000
0001
1000
0001
0100
0010
1000
0001
0100
,
0001
1000
0100
0010
0001
1000
0001
0100
0010
1000
0001
1000
0100
0010
0001
1000
,
0001
0100
0010
0100
0001
1000
0010
1000
0001
1000
0100
0010
0001
0010
0100
1000
,
0001
0100
0010
1000
0001
1000
0001
0010
0100
1000
0001
1000
0010
0100
0001
1000
,
0001
0010
0100
0010
0001
1000
0100
1000
0001
1000
0001
0100
0010
1000
0001
0100
,
0001
1000
0100
0010
0001
1000
0001
0100
0010
1000
0001
1000
0100
0010
0001
1000
,
0001
0100
0010
0100
0001
1000
0010
1000
0001
1000
0100
0010
0001
0010
0100
1000
,
0001
0100
0010
1000
0001
1000
0001
0010
0100
1000
0001
1000
0010
0100
0001
1000
,
0001
0010
0100
0010
0001
1000
0100
1000
0001
1000
0001
0100
0010
1000
0100
0010
,
0001
1000
0001
0100
0010
1000
0100
0010
0002
0003
0000
0000
0200
0300
0000
0000
,
0200
0300
0000
0000
0020
0030
2000
3000
0200
0300
0000
0000
0000
0000
0000
0000
;

//---------------dance-single - 14 (TYLR)----------------
#NOTES:
     dance-single:
     14 (TYLR):
     Hard:
     14:
     1.000,1.000,0.050,0.027,1.000,2114.000,13.000,7.000,5.000,0.000:
0000
0000
0000
0000
,
0000
0000
0000
0000
,
1001
1000
0100
0010
0010
0001
1000
1000
,
0010
0000
0100
0000
0100
0000
0001
0000
1000
0100
0010
0000
0011
0000
0001
0000
,
1001
1000
0010
0100
0100
0001
1001
1000
,
1100
0000
0100
0000
0010
0000
0001
0000
1000
0010
0100
0000
0100
0000
0100
0000
,
0101
0001
1000
0100
0100
0010
0001
0001
,
0100
0000
0010
0000
0010
0000
1000
0000
0001
0010
0100
0000
1100
0000
1000
0000
,
1001
0001
0100
0010
0010
1000
1001
0001
,
0011
0010
0010
0100
1001
0000
0000
0000
,
1001
0000
0001
0000
0010
0000
0001
0000
0001
0000
1000
0000
0010
0100
0001
0000
,
1000
0000
1000
0000
0100
0000
1000
0001
1000
0001
0100
0000
0010
1000
0010
1000
,
0100
0000
0100
0000
0010
0000
0100
0000
0100
0000
1000
0000
0001
0100
0010
0000
,
1000
0000
1000
0000
0001
0000
0010
0001
0010
0001
0100
0000
0010
1000
0010
1000
,
0001
0000
0001
0000
0010
0000
0001
0000
0001
0000
1000
0000
0001
0100
0010
0000
,
1000
0000
1000
0000
0001
0000
1000
0100
1000
0100
0010
0000
0001
1000
0001
1000
,
0010
0000
0010
0000
0100
0000
0001
0000
0001
0000
1000
0000
0100
0010
0001
0000
,
1000
0000
1000
0000
0010
0000
0100
0001
0100
0001
1000
0000
0100
0010
0100
0010
,
0001
1000
0000
0010
0000
0100
0000
0001
,
0000
1000
0000
0100
0000
0010
0000
0001
,
1000
0010
0000
0100
0000
0001
0000
1000
,
0000
0100
0000
0010
0000
0001
0000
1000
,
0010
0100
0000
0001
0000
0010
0000
0100
,
0000
1000
0000
0001
0000
0100
0000
0010
,
1000
0000
0000
00M0
0000
0000
0M00
0000
0000
0000
0000
000M
0000
0000
0000
0000
0000
0000
M000
0000
0000
0000
0000
0000
,
0000
0000
0000
0000
0000
0M00
0000
0000
0000
0000
0000
0000
0000
0000
0000
0000
0000
0000
0000
0000
0000
0000
0000
0000
0000
0000
0000
0000
0000
0000
0000
0000
0000
0000
0000
0000
0020
0000
0000
0000
0000
0000
0000
0000
0000
0000
0000
0000
,
0000
0030
0000
0000
,
0000
0000
0100
0000
1001
0001
0100
0001
,
1000
0100
1000
0000
0001
0010
0001
0000
1000
0000
0010
0000
0100
0000
0010
1000
,
0010
0100
0001
0000
1000
0001
0100
0010
1000
0000
0001
0000
0010
0000
0001
0000
,
1000
0100
1000
0000
0001
0010
0001
0000
1000
0000
0010
0000
0100
0000
0010
1000
,
0001
1000
0100
0000
0010
0100
1000
0001
0100
0000
0010
0000
1000
0000
0010
0000
,
0100
0001
1000
0000
0100
1000
0001
0000
0010
0000
0001
0000
0100
0000
0001
1000
,
0100
0010
0001
0000
0010
0100
1000
0001
0100
0000
0010
0000
1000
0000
0010
0000
,
0100
0001
1000
0000
0100
1000
0001
0000
0100
0000
0010
0000
1000
0000
0010
0100
,
0001
1000
0100
0000
0010
0100
1000
0001
0100
0000
0010
0000
1000
0000
0010
0000
,
0100
0001
1000
0000
0100
0010
0001
0000
0100
0000
0001
0000
0010
0000
0100
1000
,
0001
0100
0010
0000
1000
0010
0100
0001
1000
0000
0100
0000
0010
0000
0100
0000
,
1000
0001
0100
0000
0010
1000
0001
0000
1000
0000
0010
0000
0100
0000
0001
1000
,
0100
0010
0001
0000
0010
0100
1000
0001
0100
0000
0010
0000
1000
0000
0010
0000
,
0100
0001
1000
0000
0100
0010
0001
0000
1000
0000
0001
0000
0010
0000
0100
1000
,
0001
0100
0010
0000
1000
0010
0100
0001
1000
0000
0100
0000
0010
0000
0100
0000
,
1000
0001
0100
0000
0010
1000
0001
0000
1000
0010
0100
0001
1000
0001
0100
0010
,
1000
0001
0010
0100
1000
0010
0100
0001
1000
0000
0100
0000
1000
0001
0000
1000
,
0000
0000
0100
0000
1000
0001
1000
0000
0010
0000
0100
0000
0001
0100
0000
0010
,
0000
0000
0100
0000
0001
0100
0010
0000
1000
0000
0001
0000
1000
0010
0000
1000
,
0000
0000
0001
0000
1000
0010
1000
0000
0100
0000
1000
0000
0100
0000
0000
0100
,
0000
0000
1000
0000
0100
0000
1000
0000
0001
0000
0010
0000
0100
0010
0000
0001
,
0000
0000
0010
0000
0100
0010
0100
0000
1000
0000
0001
0000
0010
0001
0000
1000
,
0000
0000
0001
0000
0010
0001
1000
0000
0100
0000
1000
0000
0001
1000
0000
0100
,
0000
0000
1000
0000
0001
1000
0001
0000
0100
0000
0001
0000
0100
0000
0000
0100
,
0000
0000
0001
0000
0100
0000
0001
0000
1000
0000
0100
0000
0010
0100
0000
1000
,
0000
0000
0100
0000
0010
0100
1000
0000
0001
0010
0001
0000
1000
0001
0000
0010
,
0000
0000
0001
0000
1000
0001
1000
0000
0010
0000
1000
0000
0001
1000
0000
0010
,
0000
0000
1000
0000
0001
1000
0010
0000
0100
0000
0001
0000
0100
0000
0000
0100
,
0000
0000
0001
0000
0100
0000
0001
0000
1000
0000
0001
0000
0010
0001
0000
1000
,
0000
0000
0001
0000
0010
0001
1000
0000
0010
0100
0010
0000
1000
0010
0000
0100
,
0000
0000
0010
0000
1000
0010
0100
0000
0001
0000
1000
0000
0001
0100
0000
0001
,
0000
0000
1000
0000
0001
0100
0001
0000
1000
0000
0001
0000
1000
0000
0000
1000
,
0000
0000
0001
0000
1000
0000
0001
0000
0010
0000
0100
1000
0001
1000
0000
0100
,
0000
0000
0010
0000
0001
1000
0001
0000
0100
0000
0010
1000
0001
1000
0000
0010
,
0000
0000
0100
0000
0001
1000
0001
0000
0010
0000
0001
1000
0100
1000
0000
0001
,
0000
0000
1000
0000
0001
0010
0001
0000
0100
0000
0010
1000
0001
1000
0000
0010
,
0000
0000
0100
0000
0001
1000
0001
0000
0010
0000
0100
1000
0001
1000
0000
0100
,
0000
0000
0010
0000
0001
1000
0001
0000
0100
0000
0010
1000
0001
1000
0000
0010
,
0000
0000
0100
0000
0001
1000
0001
0000
0010
0000
0001
1000
0100
1000
0000
0001
,
0000
0000
1000
0000
0001
0010
0001
0000
0100
0000
0001
0000
0100
0010
0000
0010
,
1000
0000
0001
0000
1000
0001
1000
0000
0010
0000
0100
0001
1000
0001
0000
0100
,
0000
0000
0010
0000
1000
0001
1000
0000
0100
0000
0010
0001
1000
0001
0000
0010
,
0000
0000
0100
0000
1000
0001
1000
0000
0010
0000
1000
0001
0100
0001
0000
1000
,
0000
0000
0001
0000
1000
0010
1000
0000
0100
0000
0010
0001
1000
0001
0000
0010
,
0000
0000
0100
0000
1000
0001
1000
0000
0010
0000
0100
0001
1000
0001
0000
0100
,
0000
0000
0010
0000
1000
0001
1000
0000
0100
0000
0010
0001
1000
0001
0000
0010
,
0000
0000
0100
0000
1000
0001
1000
0000
0010
0000
1000
0001
0100
0001
0000
1000
,
0000
0000
0001
0000
1000
0010
1000
0000
0100
0010
0001
0000
1000
0001
0000
0010
,
0000
0100
0100
0100
1000
0000
0001
0000
,
0001
0000
1000
0001
0100
0000
0010
0000
,
1000
0000
0010
0000
0100
0001
1000
0000
,
0100
0000
0010
0000
0001
0010
0100
1000
,
0001
0000
1000
0000
0100
0000
0010
0001
,
0100
0000
0001
1000
0100
0010
0001
0010
,
0100
1000
0001
0100
,
0010
0000
1000
0000
0001
0000
1000
0010
,
0100
0001
1000
0100
,
0100
0000
1000
0000
0010
0000
0100
0001
,
0010
0100
1000
0001
0100
0000
0010
0000
,
1000
0010
0100
0001
,
1000
0100
1000
0001
,
0100
0010
1000
0001
,
0100
0010
1000
0010
,
0100
0000
0001
0000
0010
0000
0001
1000
,
0100
1000
0100
1000
0001
0000
0100
0000
0010
1000
0010
0000
0100
0001
0100
0000
,
0001
0010
0001
0000
1000
0100
0010
0000
0001
0010
0001
0000
1000
0010
1000
0000
,
0100
0010
0100
0000
1000
0100
1000
0000
0001
0100
0010
0000
1000
0010
1000
0000
,
0010
0100
0010
0000
0100
0001
0100
0000
0001
0010
0100
0000
1000
0001
0100
0000
,
0010
1000
0010
0000
0100
0001
0100
0000
0001
0010
0001
0000
1000
0100
0010
0000
,
0001
0010
0001
0000
0010
0100
1000
0000
0001
0100
0010
0000
1000
0001
0010
0000
,
0100
1000
0100
0000
1000
0001
1000
0000
0001
0100
0001
0000
0100
0010
0100
0000
,
0001
0010
0001
0000
1000
0100
1000
0000
0010
1000
0010
0000
0100
0001
1000
0000
,
0100
0010
0100
0000
1000
0001
1000
0000
0010
0100
0010
0000
1000
0010
1000
0000
,
0001
0010
0001
0000
1000
0100
1000
0000
0010
0100
0010
0000
1000
0001
0010
0000
,
0100
1000
0001
0000
0100
0010
1000
0000
0001
0010
0001
0000
1000
0010
1000
0000
,
0100
0010
0100
0000
1000
0001
1000
0000
0001
0100
0010
0000
1000
0100
0010
0000
,
0001
0010
0001
0000
1000
0010
1000
0000
0100
0010
0100
0000
1000
0001
1000
0000
,
0010
0100
0001
0000
1000
0100
0010
0000
0001
0010
0001
0000
1000
0010
1000
0000
,
0100
0010
0001
0000
1000
0010
0100
0000
0001
0010
0001
0000
0100
0010
1000
0000
,
0001
0010
0100
0000
1000
0001
0100
0000
0010
1000
0001
1000
0010
0000
0100
0000
,
0001
1000
0001
1000
0100
0000
0010
0000
0001
0010
0001
0010
0100
1000
0100
1000
,
0001
1000
0001
1000
0100
1000
0100
1000
0010
1000
0010
1000
0001
0100
0001
0100
,
0010
0100
0010
0100
0001
0100
0001
0100
0001
1000
0001
1000
0100
1000
0100
1000
,
0100
0010
0100
0010
0100
1000
0100
1000
0010
1000
0010
1000
0001
0100
0001
0100
,
0001
1000
0001
1000
0100
1000
0100
1000
0001
0010
0001
0010
0100
1000
0100
1000
,
0010
1000
0010
1000
0001
0100
0001
0100
0010
1000
0010
1000
0100
1000
0100
1000
,
0001
0010
0001
0010
0100
1000
0100
1000
0010
1000
0010
1000
0001
0010
0001
0010
,
0100
1000
0100
1000
0001
0100
0001
0100
0010
0100
0010
0100
0001
0100
0001
0100
,
0001
1000
0001
1000
0100
1000
0100
1000
0001
0010
0001
0010
0100
1000
0100
1000
,
0010
1000
0010
1000
0001
0100
0001
0100
0001
1000
0001
1000
0100
0010
0100
0010
,
0001
0010
0001
0010
0100
0010
0100
0010
0100
1000
0100
1000
0001
0100
0001
0100
,
0010
1000
0010
1000
0100
1000
0100
1000
0001
0100
0001
0100
0010
1000
0010
1000
,
0001
0010
0001
0010
0100
1000
0100
1000
0010
0100
0010
0100
0001
0100
0001
0100
,
0001
1000
0001
1000
0100
1000
0100
1000
0010
0100
0010
0100
0001
0100
0001
0100
,
0001
1000
0001
1000
0100
1000
0100
1000
0010
1000
0010
1000
0100
1000
0100
1000
,
0100
0010
0100
0010
0001
0010
0001
0010
0100
1000
0100
1000
0001
0000
1000
0000
,
0010
0100
0010
0100
0001
0000
1000
0000
0001
0010
0001
0010
0100
0010
0001
0010
,
0100
1000
0100
1000
0001
1000
0100
1000
0001
0100
0001
0100
0010
1000
0001
0010
,
0100
1000
0100
1000
0001
1000
0100
0010
0001
1000
0001
1000
0010
0100
0001
0100
,
0010
1000
0010
1000
0001
0010
0100
1000
0001
1000
0001
1000
0010
0100
0001
1000
,
0100
0010
0100
0010
0001
0010
0100
1000
0001
1000
0001
1000
0010
0100
0001
1000
,
0100
0010
0100
0010
0001
0010
0100
1000
0001
0100
0001
0100
0010
1000
0001
0010
,
0100
1000
0100
1000
0001
1000
0100
0010
0001
1000
0001
1000
0010
0100
0001
0100
,
0010
1000
0010
1000
0001
0010
0100
1000
0001
1000
0001
1000
0100
0010
0001
1000
,
0010
0100
0010
0100
0001
0100
0010
1000
0001
0010
0001
0010
0100
1000
0001
1000
,
0100
0010
0100
0010
0001
0010
0100
1000
0001
1000
0001
1000
0010
0100
0001
0100
,
0010
1000
0010
1000
0001
1000
0010
0100
0001
0100
0001
0100
0010
1000
0001
0010
,
0100
1000
0100
1000
0001
1000
0100
0010
0001
1000
0001
1000
0100
1000
0001
0100
,
0010
1000
0010
1000
0001
1000
0010
0100
0001
1000
0001
1000
0100
1000
0001
0100
,
0010
1000
0010
1000
0001
1000
0010
0100
0001
1000
0001
1000
0100
1000
0001
0010
,
0100
0010
0100
0010
0001
1000
0010
0100
0001
0100
0001
0100
0010
1000
0001
0010
,
0100
1000
0100
1000
0001
0100
0010
0100
0001
1000
0001
1000
0100
0010
0001
1000
,
0010
1000
0001
1000
0100
0010
0001
0100
0010
1000
0000
0001
1000
0000
0010
1000
,
0000
0001
1000
0000
0100
0000
1000
0000
0010
1000
0000
0001
1000
0000
0010
1000
,
0000
0001
1000
0000
0100
0000
0010
0000
0001
1000
0000
0001
0100
0000
0001
1000
,
0000
0001
0100
0000
0001
0000
0010
0000
0001
1000
0000
0001
0100
0000
0001
1000
,
0000
0001
0100
0000
0001
0000
0010
0000
0100
1000
0000
0100
0010
0000
0100
1000
,
0000
0100
0010
0000
0001
0000
0010
0000
0100
1000
0000
0100
0010
0000
0100
1000
,
0000
0100
0010
0000
0001
0000
0010
0000
0100
1000
0000
0100
0010
0000
0100
1000
,
0000
0100
0010
0000
0001
0000
0010
0000
0100
1000
0000
0100
0010
0000
0100
1000
,
0000
0100
0010
0000
0001
0000
1000
0000
0010
0100
0000
0001
0100
0000
0010
0100
,
0000
0001
0100
0000
0010
0000
1000
0000
0010
0100
0000
0001
0100
0000
0010
0100
,
0000
0001
0100
0000
0010
0000
1000
0000
0001
0010
0000
0001
1000
0000
0001
0010
,
0000
0001
1000
0000
0100
0000
1000
0000
0001
0010
0000
0001
1000
0000
0001
0010
,
0000
0001
1000
0000
0100
0000
1000
0000
0001
0100
0000
0010
0100
0000
0001
0100
,
0000
0010
0100
0000
0001
0000
1000
0000
0001
0100
0000
0010
0100
0000
0001
0100
,
0000
0010
0100
0000
0001
0000
1000
0000
0100
0010
0000
0001
0010
0000
0100
0010
,
0000
0001
0010
0000
0100
0000
1000
0000
0010
0100
0000
0010
1000
0000
0010
0100
,
0000
0010
1000
0000
0010
0000
1000
0000
0100
1000
0000
0001
1000
0000
0100
1000
,
0000
0001
1000
0000
0010
0000
1000
0000
0100
1000
0000
0001
1000
0000
0100
1000
,
0000
0001
1000
0000
0010
0000
0100
0000
0001
1000
0000
0001
0010
0000
0001
1000
,
0000
0001
0010
0000
0001
0000
0100
0000
0001
1000
0000
0001
0010
0000
0001
1000
,
0000
0001
0010
0000
0001
0000
0100
0000
0010
1000
0000
0010
0100
0000
0010
1000
,
0000
0010
0100
0000
0001
0000
0100
0000
0010
1000
0000
0010
0100
0000
0010
1000
,
0000
0010
0100
0000
0001
0000
0100
0000
0010
1000
0000
0010
0100
0000
0010
1000
,
0000
0010
0100
0000
0001
0000
1000
0000
0100
1000
0000
0100
0010
0000
0100
1000
,
0000
0100
0010
0000
0100
0000
1000
0000
0001
0100
0000
0001
1000
0000
0001
0100
,
0000
0001
1000
0000
0010
0000
1000
0000
0001
0100
0000
0001
1000
0000
0001
0100
,
0000
0001
1000
0000
0010
0000
1000
0000
0001
0100
0000
0001
1000
0000
0001
0100
,
0000
0001
1000
0000
0010
0000
1000
0000
0001
0100
0000
0001
1000
0000
0001
0100
,
0000
0001
1000
0000
0010
0000
1000
0000
0001
0010
0000
0100
0010
0000
0001
0010
,
0000
0100
0010
0000
0001
0000
1000
0000
0001
0010
0000
0100
0010
0000
0001
0010
,
0000
0100
0010
0000
0001
0000
1000
0000
0010
0100
0001
0100
0010
1000
0001
1000
,
0010
0100
0001
1000
0100
1000
0001
0010
0001
1000
0001
0100
0010
1000
0001
0010
,
0100
1000
0010
0100
0001
0010
0100
1000
0001
0000
0100
0000
0010
0000
1000
0000
,
1000
0000
0001
0000
0100
0010
1000
0000
0001
0000
0001
0000
0010
0000
0001
1000
,
0001
1000
0010
0000
0100
0001
0100
0001
1000
0000
1000
0000
0100
0000
0010
0000
,
0010
0000
0001
0000
1000
0010
0100
0000
0001
0000
0001
0000
1000
0000
0100
1000
,
0100
1000
0010
0000
0100
0001
0100
0001
1000
0000
1000
0000
0100
0000
1000
0000
,
1000
0000
0001
0000
1000
0010
0100
0000
0001
0000
0001
0000
1000
0000
0001
0010
,
0001
0010
0100
0000
1000
0001
1000
0001
0100
0000
0100
0000
0010
0000
1000
0000
,
1000
0000
0001
0000
0010
0100
1000
0000
0001
0000
0001
0000
0100
0000
0010
1000
,
0100
1000
0100
0000
0010
0001
0010
0001
0100
0000
0010
0000
1000
0000
0001
0000
,
0001
0000
1000
0000
0010
0100
0001
0000
1000
0000
1000
0000
0100
0000
1000
0001
,
1000
0001
0100
0000
0010
1000
0010
1000
0001
0000
0001
0000
0010
0000
0100
0000
,
0100
0000
1000
0000
0001
0100
0010
0000
1000
0000
1000
0000
0001
0000
0010
0001
,
0010
0001
1000
0000
0010
0100
0010
0100
0001
0000
0001
0000
0010
0000
0001
0000
,
0001
0000
1000
0000
0001
0100
0010
0000
1000
0000
1000
0000
0001
0000
1000
0100
,
1000
0100
0010
0000
0001
1000
0001
1000
0010
0000
0010
0000
0100
0000
0001
0000
,
0001
0000
1000
0000
0100
0010
0001
0000
1000
0000
1000
0000
0010
0000
0100
0001
,
0010
0001
0010
0000
0100
1000
0100
1000
0001
0000
0100
0000
0010
0000
1000
0000
,
1000
0000
0001
0000
0100
0010
1000
0000
0001
0000
0001
0000
0010
0000
0001
1000
,
0001
1000
0010
0000
0100
0001
0100
0001
1000
0000
1000
0000
0100
0000
0010
0000
,
0010
0000
0001
0000
1000
0010
0100
0000
0001
0000
0001
0000
1000
0000
0100
1000
,
0100
1000
0010
0000
0100
0001
0100
0001
1000
0000
1000
0000
0100
0000
1000
0000
,
1000
0000
0001
0000
1000
0010
0100
0000
0001
0000
0001
0000
1000
0000
0001
0010
,
0001
0010
0100
0000
1000
0001
1000
0001
0100
0000
0100
0000
0010
0000
1000
0000
,
1000
0000
0001
0000
0010
0100
1000
0000
0001
0000
0001
0000
0100
0000
0010
1000
,
0100
1000
0100
0000
0010
0001
0010
0001
0100
0000
0010
0000
1000
0000
0001
0000
,
0001
0000
1000
0000
0010
0100
0001
0000
1000
0000
1000
0000
0100
0000
1000
0001
,
1000
0001
0100
0000
0010
1000
0010
1000
0001
0000
0001
0000
0010
0000
0100
0000
,
0100
0000
1000
0000
0001
0100
0010
0000
1000
0000
1000
0000
0001
0000
0010
0001
,
0010
0001
1000
0000
0010
0100
0010
0100
0001
0000
0001
0000
1000
0000
0100
0000
,
0100
0000
0010
0000
0001
1000
0010
0000
0100
0000
0100
0000
0001
0000
1000
0100
,
1000
0100
0010
0000
0001
1000
0001
1000
0010
0000
0010
0000
0100
0000
0001
0000
,
0001
0000
1000
0000
0100
0010
0001
0000
1000
0001
1000
0010
0100
0001
0100
0010
,
1000
0001
1000
0100
0010
0001
0100
0010
2000
3000
0000
0000
0200
0300
0000
0000
,
0200
0300
0000
0000
0020
0030
0002
0003
2000
3000
0000
0000
0000
0000
0000
0000
;

//---------------dance-single - 15 (TYLR)----------------
#NOTES:
     dance-single:
     15 (TYLR):
     Challenge:
     15:
     1.000,1.000,0.050,0.116,1.000,2329.000,13.000,30.000,5.000,0.000:
0000
0000
0000
0000
,
0000
0000
0000
0000
,
1001
1000
0100
0010
0010
0001
1000
1000
,
0010
0000
0100
0000
0100
0000
0001
0000
1000
0100
0010
0000
0011
0000
0001
0000
,
1001
1000
0010
0100
0100
0001
1001
1000
,
1100
0000
0100
0000
0010
0000
0001
0000
1000
0010
0100
0000
0100
0000
0100
0000
,
0101
0001
1000
0100
0100
0010
0001
0001
,
0100
0000
0010
0000
0010
0000
1000
0000
0001
0010
0100
0000
1100
0000
1000
0000
,
1001
0001
0100
0010
0010
1000
1001
0001
,
0011
0010
0010
0100
1001
0000
0000
0000
,
1001
0000
0001
0000
0010
0000
0001
0000
0001
0000
1000
0000
0010
0100
0001
0000
,
1000
0000
1000
0000
0100
0000
1000
0001
1000
0001
0100
0000
0010
1000
0010
1000
,
0100
0000
0100
0000
0010
0000
0100
0000
0100
0000
1000
0000
0001
0100
0010
0000
,
1000
0000
1000
0000
0001
0000
0010
0001
0010
0001
0100
0000
0010
1000
0010
1000
,
0001
0000
0001
0000
0010
0000
0001
0000
0001
0000
1000
0000
0001
0100
0010
0000
,
1000
0000
1000
0000
0001
0000
1000
0100
1000
0100
0010
0000
0001
1000
0001
1000
,
0010
0000
0010
0000
0100
0000
0001
0000
0001
0000
1000
0000
0100
0010
0001
0000
,
1000
0000
1000
0000
0010
0000
0100
0001
0100
0001
1000
0000
0100
0010
0100
0010
,
0001
0000
0000
0000
0000
0000
0000
0000
2000
3000
0000
0000
0000
0000
0000
0000
0010
0000
0000
0000
0000
0000
0000
0000
2000
3000
0000
0000
0000
0000
0000
0000
0100
0000
0000
0000
0000
0000
0000
0000
0020
0030
0000
0000
0000
0000
0000
0000
0001
0000
0000
0000
1000
0000
0000
0000
0020
0030
0000
0000
0000
0000
0000
0000
,
0100
0000
0000
0000
0000
0000
0000
0000
0002
0003
0000
0000
0000
0000
0000
0000
0010
0000
0000
0000
0000
0000
0000
0000
0002
0003
0000
0000
1000
0000
0000
0000
0010
0000
0000
0000
1000
0000
0000
0000
0200
0300
0000
0000
0000
0000
0000
0000
1000
0000
0000
0000
0001
0000
0000
0000
0200
0300
0000
0000
0001
0000
0000
0000
,
1000
0000
0000
0000
0000
0000
0000
0000
0200
0300
0000
0000
0000
0000
0000
0000
0010
0000
0000
0000
0000
0000
0000
0000
0200
0300
0000
0000
0000
0000
0000
0000
1000
0000
0000
0000
0000
0000
0000
0000
0020
0030
0000
0000
0000
0000
0000
0000
1000
0000
0000
0000
0001
0000
0000
0000
0020
0030
0000
0000
0000
0000
0000
0000
,
0100
0000
0000
0000
0000
0000
0000
0000
2000
3000
0000
0000
0000
0000
0000
0000
0001
0000
0000
0000
0000
0000
0000
0000
2000
3000
0000
0000
0100
0000
0000
0000
0010
0000
0000
0000
0001
0000
0000
0000
0200
0300
0000
0000
0000
0000
0000
0000
0001
0000
0000
0000
1000
0000
0000
0000
0200
0300
0000
0000
0010
0000
0000
0000
,
0001
0000
0000
0000
0000
0000
0000
0000
2000
3000
0000
0000
0000
0000
0000
0000
0010
0000
0000
0000
0000
0000
0000
0000
2000
3000
0000
0000
0000
0000
0000
0000
0001
0000
0000
0000
0000
0000
0000
0000
0020
0030
0000
0000
0000
0000
0000
0000
0001
0000
0000
0000
1000
0000
0000
0000
0020
0030
0000
0000
0000
0000
0000
0000
,
1000
0000
0000
0000
0000
0000
0000
0000
0200
0300
0000
0000
0000
0000
0000
0000
0010
0000
0000
0000
0000
0000
0000
0000
0200
0300
0000
0000
1000
0000
0000
0000
0001
0000
0000
0000
0100
0000
0000
0000
0020
0030
0000
0000
0000
0000
0000
0000
1000
0000
0000
0000
0010
0000
0000
0000
0200
0300
0000
0000
0001
0000
0000
0000
,
1000
0000
0000
00M0
0000
0000
0M00
0000
0000
0000
0000
000M
0000
0000
0000
0000
0000
0000
M000
0000
0000
0000
0000
0000
,
0000
0000
0000
0000
0000
0M00
0000
0000
0000
0000
0000
0000
0000
0000
0000
0000
0000
0000
0000
0000
0000
0000
0000
0000
0000
0000
0000
0000
0000
0000
0000
0000
0000
0000
0000
0000
0020
0000
0000
0000
0000
0000
0000
0000
0000
0000
0000
0000
,
0000
0030
0000
0000
,
0000
0000
0100
0000
1001
0001
0100
0001
,
1000
0100
1000
0000
0001
0010
0001
0000
1000
0000
0010
0000
0100
0000
0010
1000
,
0010
0100
0001
0000
1000
0001
0100
0010
1000
0000
0001
0000
0010
0000
0001
0000
,
1000
0100
1000
0000
0001
0010
0001
0000
1000
0000
0010
0000
0100
0000
0010
1000
,
0001
1000
0100
0000
0010
0100
1000
0001
0100
0000
0010
0000
1000
0000
0010
0000
,
0100
0001
1000
0000
0100
1000
0001
0000
0010
0000
0001
0000
0100
0000
0001
1000
,
0100
0010
0001
0000
0010
0100
1000
0001
0100
0000
0010
0000
1000
0000
0010
0000
,
0100
0001
1000
0000
0100
1000
0001
0000
0100
0000
0010
0000
1000
0000
0010
0100
,
0001
1000
0100
0000
0010
0100
1000
0001
0100
0000
0010
0000
1000
0000
0010
0000
,
0100
0001
1000
0000
0100
0010
0001
0000
0100
0000
0001
0000
0010
0000
0100
1000
,
0001
0100
0010
0000
1000
0010
0100
0001
1000
0000
0100
0000
0010
0000
0100
0000
,
1000
0001
0100
0000
0010
1000
0001
0000
1000
0000
0010
0000
0100
0000
0001
1000
,
0100
0010
0001
0000
0010
0100
1000
0001
0100
0000
0010
0000
1000
0000
0010
0000
,
0100
0001
1000
0000
0100
0010
0001
0000
1000
0000
0001
0000
0010
0000
0100
1000
,
0001
0100
0010
0000
1000
0010
0100
0001
1000
0000
0100
0000
0010
0000
0100
0000
,
1000
0001
0100
0000
0010
1000
0001
0000
1000
0010
0100
0001
1000
0001
0100
0010
,
1000
0001
0010
0100
1000
0010
0100
0001
1000
0000
0100
0000
1000
0001
0000
1000
,
0000
0000
0100
0000
1000
0001
1000
0000
0010
0000
0100
0000
0001
0100
0000
0010
,
0000
0000
0100
0000
0001
0100
0010
0000
1000
0000
0001
0000
1000
0010
0000
1000
,
0000
0000
0001
0000
1000
0010
1000
0000
0100
0000
1000
0000
0100
0000
0000
0100
,
0000
0000
1000
0000
0100
0000
1000
0000
0001
0000
0010
0000
0100
0010
0000
0001
,
0000
0000
0010
0000
0100
0010
0100
0000
1000
0000
0001
0000
0010
0001
0000
1000
,
0000
0000
0001
0000
0010
0001
1000
0000
0100
0000
1000
0000
0001
1000
0000
0100
,
0000
0000
1000
0000
0001
1000
0001
0000
0100
0000
0001
0000
0100
0000
0000
0100
,
0000
0000
0001
0000
0100
0000
0001
0000
1000
0000
0100
0000
0010
0100
0000
1000
,
0000
0000
0100
0000
0010
0100
1000
0000
0001
0010
0001
0000
1000
0001
0000
0010
,
0000
0000
0001
0000
1000
0001
1000
0000
0010
0000
1000
0000
0001
1000
0000
0010
,
0000
0000
1000
0000
0001
1000
0010
0000
0100
0000
0001
0000
0100
0000
0000
0100
,
0000
0000
0001
0000
0100
0000
0001
0000
1000
0000
0001
0000
0010
0001
0000
1000
,
0000
0000
0001
0000
0010
0001
1000
0000
0010
0100
0010
0000
1000
0010
0000
0100
,
0000
0000
0010
0000
1000
0010
0100
0000
0001
0000
1000
0000
0001
0100
0000
0001
,
0000
0000
1000
0000
0001
0100
0001
0000
1000
0000
0001
0000
1000
0000
0000
1000
,
0000
0000
0001
0000
1000
0000
0001
0000
0010
0000
0100
1000
0001
1000
0000
0100
,
0000
0000
0010
0000
0001
1000
0001
0000
0100
0000
0010
1000
0001
1000
0000
0010
,
0000
0000
0100
0000
0001
1000
0001
0000
0010
0000
0001
1000
0100
1000
0000
0001
,
0000
0000
1000
0000
0001
0010
0001
0000
0100
0000
0010
1000
0001
1000
0000
0010
,
0000
0000
0100
0000
0001
1000
0001
0000
0010
0000
0100
1000
0001
1000
0000
0100
,
0000
0000
0010
0000
0001
1000
0001
0000
0100
0000
0010
1000
0001
1000
0000
0010
,
0000
0000
0100
0000
0001
1000
0001
0000
0010
0000
0001
1000
0100
1000
0000
0001
,
0000
0000
1000
0000
0001
0010
0001
0000
0100
0000
0001
0000
0100
0010
0000
0010
,
1000
0000
0001
0000
1000
0001
1000
0000
0010
0000
0100
0001
1000
0001
0000
0100
,
0000
0000
0010
0000
1000
0001
1000
0000
0100
0000
0010
0001
1000
0001
0000
0010
,
0000
0000
0100
0000
1000
0001
1000
0000
0010
0000
1000
0001
0100
0001
0000
1000
,
0000
0000
0001
0000
1000
0010
1000
0000
0100
0000
0010
0001
1000
0001
0000
0010
,
0000
0000
0100
0000
1000
0001
1000
0000
0010
0000
0100
0001
1000
0001
0000
0100
,
0000
0000
0010
0000
1000
0001
1000
0000
0100
0000
0010
0001
1000
0001
0000
0010
,
0000
0000
0100
0000
1000
0001
1000
0000
0010
0000
1000
0001
0100
0001
0000
1000
,
0000
0000
0001
0000
1000
0010
1000
0000
0100
0010
0001
0000
1000
0001
0000
0010
,
0000
0100
0100
0100
1000
0000
0001
0000
,
0001
0000
1000
0001
0100
0000
0010
0000
,
1000
0000
0010
0000
0100
0001
1000
0000
,
0100
0000
0010
0000
0001
0010
0100
1000
,
0001
0000
1000
0000
0100
0000
0010
0001
,
0100
0000
0001
1000
0100
0010
0001
0010
,
0100
1000
0001
0100
,
0010
0000
1000
0000
0001
0000
1000
0010
,
0100
0001
1000
0100
,
0100
0000
1000
0000
0010
0000
0100
0001
,
0010
0100
1000
0001
0100
0000
0010
0000
,
1000
0010
0100
0001
,
1000
0100
1000
0001
,
0100
0010
1000
0001
,
0100
0010
1000
0010
,
0100
0000
0001
0000
0010
0000
0001
1000
,
0100
1000
0100
1000
0001
0000
0100
0000
0010
1000
0010
0000
0100
0001
0100
0000
,
0001
0010
0001
0000
1000
0100
0010
0000
0001
0010
0001
0000
1000
0010
1000
0000
,
0100
0010
0100
0000
1000
0100
1000
0000
0001
0100
0010
0000
1000
0010
1000
0000
,
0010
0100
0010
0000
0100
0001
0100
0000
0001
0010
0100
0000
1000
0001
0100
0000
,
0010
1000
0010
0000
0100
0001
0100
0000
0001
0010
0001
0000
1000
0100
0010
0000
,
0001
0010
0001
0000
0010
0100
1000
0000
0001
0100
0010
0000
1000
0001
0010
0000
,
0100
1000
0100
0000
1000
0001
1000
0000
0001
0100
0001
0000
0100
0010
0100
0000
,
0001
0010
0001
0000
1000
0100
1000
0000
0010
1000
0010
0000
0100
0001
1000
0000
,
0100
0010
0100
0000
1000
0001
1000
0000
0010
0100
0010
0000
1000
0010
1000
0000
,
0001
0010
0001
0000
1000
0100
1000
0000
0010
0100
0010
0000
1000
0001
0010
0000
,
0100
1000
0001
0000
0100
0010
1000
0000
0001
0010
0001
0000
1000
0010
1000
0000
,
0100
0010
0100
0000
1000
0001
1000
0000
0001
0100
0010
0000
1000
0100
0010
0000
,
0001
0010
0001
0000
1000
0010
1000
0000
0100
0010
0100
0000
1000
0001
1000
0000
,
0010
0100
0001
0000
1000
0100
0010
0000
0001
0010
0001
0000
1000
0010
1000
0000
,
0100
0010
0001
0000
1000
0010
0100
0000
0001
0010
0001
0000
0100
0010
1000
0000
,
0001
0010
0100
0000
1000
0001
0100
0000
0010
1000
0001
1000
0010
0000
0100
0000
,
0001
1000
0001
1000
0100
0000
0010
0000
0001
0010
0001
0010
0100
1000
0001
0100
,
0010
1000
0010
1000
0001
1000
0010
0100
0001
1000
0001
1000
0100
0010
0001
1000
,
0010
0100
0010
0100
0001
0100
0010
1000
0001
0010
0100
1000
0001
0100
0001
0100
,
0010
1000
0010
1000
0100
1000
0100
1000
0010
0100
0001
1000
0100
0010
0001
1000
,
0010
0100
0010
0100
0001
1000
0001
1000
0100
0010
0100
0010
0001
0010
0100
1000
,
0001
0100
0001
0100
0010
1000
0001
1000
0010
0100
0001
1000
0100
0010
0001
1000
,
0001
0100
0001
0100
0010
1000
0010
1000
0001
1000
0001
1000
0001
0010
0001
0010
,
0100
1000
0100
1000
0010
0100
0010
0100
0001
0100
0001
0100
0010
1000
0001
1000
,
0100
0010
0100
0010
0001
0010
0001
0010
0100
1000
0100
1000
0001
1000
0001
1000
,
0010
1000
0010
1000
0001
0100
0001
0100
0001
1000
0001
1000
0100
0010
0100
0010
,
0001
0010
0001
0010
0100
0010
0100
0010
0100
1000
0100
1000
0001
0100
0001
0100
,
0010
1000
0010
1000
0100
1000
0100
1000
0001
0100
0001
0100
0010
1000
0010
1000
,
0001
0010
0001
0010
0100
1000
0100
1000
0010
0100
0010
0100
0001
0100
0001
0100
,
0001
1000
0001
1000
0100
1000
0100
1000
0010
0100
0010
0100
0001
0100
0001
0100
,
0001
1000
0001
1000
0100
1000
0100
1000
0010
1000
0010
1000
0100
1000
0100
1000
,
0100
0010
0100
0010
0001
0010
0001
0010
0100
1000
0100
1000
0001
0000
1000
0000
,
0010
0100
0010
0100
0001
0000
1000
0000
0001
0010
0001
0010
0100
0010
0001
0010
,
0100
1000
0100
1000
0001
1000
0100
1000
0001
0100
0001
0100
0010
1000
0001
0010
,
0100
1000
0100
1000
0001
1000
0100
0010
0001
1000
0001
1000
0010
0100
0001
0100
,
0010
1000
0010
1000
0001
0010
0100
1000
0001
1000
0001
1000
0010
0100
0001
1000
,
0100
0010
0100
0010
0001
0010
0100
1000
0001
1000
0001
1000
0010
0100
0001
1000
,
0100
0010
0100
0010
0001
0010
0100
1000
0001
0100
0001
0100
0010
1000
0001
0010
,
0100
1000
0100
1000
0001
1000
0100
0010
0001
1000
0001
1000
0010
0100
0001
0100
,
0010
1000
0010
1000
0001
0010
0100
1000
0001
1000
0001
1000
0100
0010
0001
1000
,
0010
0100
0010
0100
0001
0100
0010
1000
0001
0010
0001
0010
0100
1000
0001
1000
,
0100
0010
0100
0010
0001
0010
0100
1000
0001
1000
0001
1000
0010
0100
0001
0100
,
0010
1000
0010
1000
0001
1000
0010
0100
0001
0100
0001
0100
0010
1000
0001
0010
,
0100
1000
0100
1000
0001
1000
0100
0010
0001
1000
0001
1000
0100
1000
0001
0100
,
0010
1000
0010
1000
0001
1000
0010
0100
0001
1000
0001
1000
0100
1000
0001
0100
,
0010
1000
0010
1000
0001
1000
0010
0100
0001
1000
0001
1000
0100
1000
0001
0010
,
0100
0010
0100
0010
0001
1000
0010
0100
0001
0100
0001
0100
0010
1000
0001
0010
,
0100
1000
0100
1000
0001
0100
0010
0100
0001
1000
0001
1000
0001
1000
0001
1000
,
0001
1000
0001
1000
0001
1000
0001
1000
0001
0010
0100
1000
0001
0010
0100
1000
,
0010
0100
0001
0010
0100
1000
0001
1000
0001
0010
0100
1000
0001
0010
0100
1000
,
0010
0100
0001
0010
0100
1000
0001
1000
0001
0100
0010
1000
0001
0100
0010
1000
,
0100
0010
0001
0100
0010
1000
0001
1000
0001
0100
0010
1000
0001
0100
0010
1000
,
0100
0010
0001
0100
0010
1000
0001
1000
0100
0010
0001
1000
0100
0010
0001
0100
,
0010
1000
0100
0010
0001
1000
0100
1000
0100
0010
0001
1000
0100
0010
0001
0100
,
0010
1000
0100
0010
0001
1000
0100
1000
0100
0010
0001
1000
0100
0010
0001
0100
,
0010
1000
0100
0010
0001
1000
0100
1000
0100
0010
0001
1000
0100
0010
0001
0100
,
0010
1000
0100
0010
0001
1000
0100
1000
0010
0100
0001
1000
0010
0100
0001
0010
,
0100
1000
0010
0100
0001
1000
0010
1000
0010
0100
0001
1000
0010
0100
0001
0010
,
0100
1000
0010
0100
0001
1000
0010
1000
0001
0010
0100
1000
0001
0010
0100
1000
,
0010
0100
0001
0010
0100
1000
0001
1000
0001
0010
0100
1000
0001
0010
0100
1000
,
0010
0100
0001
0010
0100
1000
0001
1000
0010
0100
0001
1000
0010
0100
0001
0010
,
0100
1000
0010
0100
0001
1000
0010
1000
0010
0100
0001
1000
0010
0100
0001
0010
,
0100
1000
0010
0100
0001
1000
0010
1000
0100
0010
0001
1000
0100
0010
0001
0100
,
0010
1000
0100
0010
0001
1000
0100
1000
0010
0100
0001
1000
0010
0100
0001
0010
,
0100
1000
0010
0100
0001
1000
0010
1000
0100
1000
0001
1000
0100
0010
0001
0100
,
0010
1000
0100
1000
0001
1000
0100
1000
0100
1000
0001
1000
0100
1000
0010
0100
,
0001
0010
0100
1000
0001
1000
0100
1000
0010
0100
0001
0100
0010
1000
0100
0010
,
0001
0100
0010
1000
0100
1000
0010
1000
0010
0100
0001
0100
0010
1000
0100
0010
,
0001
0100
0010
0100
0001
1000
0010
1000
0100
0010
0001
1000
0100
1000
0010
0100
,
0001
0010
0100
0010
0001
1000
0100
1000
0100
0010
0001
1000
0100
0010
0001
0100
,
0010
1000
0100
0010
0001
0010
0100
1000
0100
1000
0001
0010
0100
1000
0010
0100
,
0001
0010
0100
1000
0010
1000
0100
1000
0010
0100
0001
1000
0010
0100
0001
0010
,
0100
1000
0010
0100
0001
0100
0010
1000
0100
0010
0001
1000
0100
0010
0001
0100
,
0010
1000
0100
0010
0001
1000
0100
1000
0100
0010
0001
1000
0100
0010
0001
0100
,
0010
1000
0100
0010
0001
1000
0100
1000
0100
0010
0001
1000
0100
0010
0001
0100
,
0010
1000
0100
0010
0001
1000
0100
1000
0100
0010
0001
1000
0100
0010
0001
0100
,
0010
1000
0100
0010
0001
1000
0100
1000
0010
0100
0001
1000
0010
0100
0001
0010
,
0100
1000
0010
0100
0001
1000
0010
1000
0010
0100
0001
1000
0010
0100
0001
0010
,
0100
1000
0010
0100
0001
1000
0010
1000
0100
0010
0001
1000
0100
0010
0001
0100
,
0010
1000
0100
0010
0001
1000
0100
1000
0010
0100
0001
0010
0100
1000
0010
1000
,
0100
0010
0001
0100
0010
0100
0001
0010
0001
0000
0100
0000
0010
0000
1000
0000
,
1000
0000
0001
0000
0100
0010
1000
0000
0001
0000
0001
0000
0010
0000
0001
1000
,
0001
1000
0010
0000
0100
0001
0100
0001
1000
0000
1000
0000
0100
0000
0010
0000
,
0010
0000
0001
0000
1000
0010
0100
0000
0001
0000
0001
0000
1000
0000
0100
1000
,
0100
1000
0010
0000
0100
0001
0100
0001
1000
0000
1000
0000
0100
0000
1000
0000
,
1000
0000
0001
0000
1000
0010
0100
0000
0001
0000
0001
0000
1000
0000
0001
0010
,
0001
0010
0100
0000
1000
0001
1000
0001
0100
0000
0100
0000
0010
0000
1000
0000
,
1000
0000
0001
0000
0010
0100
1000
0000
0001
0000
0001
0000
0100
0000
0010
1000
,
0100
1000
0100
0000
0010
0001
0010
0001
0100
0000
0010
0000
1000
0000
0001
0000
,
0001
0000
1000
0000
0010
0100
0001
0000
1000
0000
1000
0000
0100
0000
1000
0001
,
1000
0001
0100
0000
0010
1000
0010
1000
0001
0000
0001
0000
0010
0000
0100
0000
,
0100
0000
1000
0000
0001
0100
0010
0000
1000
0000
1000
0000
0001
0000
0010
0001
,
0010
0001
1000
0000
0010
0100
0010
0100
0001
0000
0001
0000
0010
0000
0001
0000
,
0001
0000
1000
0000
0001
0100
0010
0000
1000
0000
1000
0000
0001
0000
1000
0100
,
1000
0100
0010
0000
0001
1000
0001
1000
0010
0000
0010
0000
0100
0000
0001
0000
,
0001
0000
1000
0000
0100
0010
0001
0000
1000
0000
1000
0000
0010
0000
0100
0001
,
0010
0001
0010
0000
0100
1000
0100
1000
0001
0000
0100
0000
0010
0000
1000
0000
,
1000
0000
0001
0000
0100
0010
1000
0000
0001
0000
0001
0000
0010
0000
0001
1000
,
0001
1000
0010
0000
0100
0001
0100
0001
1000
0000
1000
0000
0100
0000
0010
0000
,
0010
0000
0001
0000
1000
0010
0100
0000
0001
0000
0001
0000
1000
0000
0100
1000
,
0100
1000
0010
0000
0100
0001
0100
0001
1000
0000
1000
0000
0100
0000
1000
0000
,
1000
0000
0001
0000
1000
0010
0100
0000
0001
0000
0001
0000
1000
0000
0001
0010
,
0001
0010
0100
0000
1000
0001
1000
0001
0100
0000
0100
0000
0010
0000
1000
0000
,
1000
0000
0001
0000
0010
0100
1000
0000
0001
0000
0001
0000
0100
0000
0010
1000
,
0100
1000
0100
0000
0010
0001
0010
0001
0100
0000
0010
0000
1000
0000
0001
0000
,
0001
0000
1000
0000
0010
0100
0001
0000
1000
0000
1000
0000
0100
0000
1000
0001
,
1000
0001
0100
0000
0010
1000
0010
1000
0001
0000
0001
0000
0010
0000
0100
0000
,
0100
0000
1000
0000
0001
0100
0010
0000
1000
0000
1000
0000
0001
0000
0010
0001
,
0010
0001
1000
0000
0010
0100
0010
0100
0001
0000
0001
0000
1000
0000
0100
0000
,
0100
0000
0010
0000
0001
1000
0010
0000
0100
0000
0100
0000
0001
0000
1000
0100
,
1000
0100
0010
0000
0001
1000
0001
1000
0010
0000
0010
0000
0100
0000
0001
0000
,
0001
0000
1000
0000
0100
0010
0001
0000
1000
0001
1000
0010
0100
0001
0100
0010
,
1000
0001
1000
0100
0010
0001
0100
0010
2000
3000
0000
0000
0200
0300
0000
0000
,
0200
0300
0000
0000
0020
0030
0002
0003
0000
0000
0000
0000
0000
0000
0000
0000
;
