#TITLE:Royal Palace's Gavotte (Night);
#SUBTITLE:;
#ARTIST:Koichi Sugiyama;
#TITLETRANSLIT:;
#SUBTITLETRANSLIT:;
#ARTISTTRANSLIT:;
#CREDIT:Arch0wl;
#BANNER:royalpalacesgavottenight-bn.png;
#BACKGROUND:royalpalacesgavottenight-bg.png;
#LYRICSPATH:;
#CDTITLE:!Arch0wlTitle.png;
#MUSIC:royalpalacesgavottenight.ogg;
#OFFSET:0.594;
#SAMPLESTART:0.541;
#SAMPLELENGTH:25.059;
#SELECTABLE:YES;
#BPMS:0.000=155.000;
#STOPS:;
#BGCHANGES:0.000=royalpalacesgavottenight-bg.png=1.000=0=0=1,
99999=-nosongbg-=1.000=0=0=0 // don't automatically add -songbackground-
;
// cache tags:
#FIRSTBEAT:3.000;
#LASTBEAT:335.500;
#SONGFILENAME:Songs/Archmage and Dark0wl Hammer of Thor UltraHyperMegaPack/Royal Palace's Gavotte (Night)/royalpalacesgavottenight.sm;
#HASMUSIC:1;
#HASBANNER:1;
#MUSICLENGTH:105.000;
// end cache tags

//---------------dance-single - Arch0wl----------------
#NOTES:
     dance-single:
     Arch0wl:
     Hard:
     8:
     0.746,0.959,0.648,0.000,0.243,480.000,68.000,0.000,0.000,0.000:
0000
0000
0000
0000
0000
0000
1000
0100
,
0010
0000
0011
0000
0011
0000
0001
0100
,
0010
0000
1010
0000
1010
0000
1000
0100
,
0010
0001
0010
0000
0100
0000
1000
0010
,
0100
0001
0100
0000
0000
0000
0001
0010
,
1000
0010
0001
0100
1000
0100
0001
0010
,
1000
0010
0001
0100
1000
0100
0001
0010
,
0100
1000
0010
0000
0100
0000
1001
0000
,
0001
0010
0100
0000
0010
0000
1100
0000
,
1100
1100
1100
0110
,
0001
1000
0100
0011
,
0011
0011
0011
0110
,
1000
0001
0010
1100
,
1100
1100
1100
1001
,
0000
0000
0001
0100
0010
0000
1000
0010
,
0001
0000
1000
0100
0001
0000
1000
0010
,
0001
0000
1000
0100
0001
0000
1001
0000
,
0001
0000
0010
0000
0100
0000
1000
0000
0000
0100
0000
0000
0010
0000
0000
0001
0000
0000
1000
0000
0000
0000
0000
0000
,
0100
0010
0001
1000
,
0001
0000
0010
0000
0100
0000
1000
0000
0000
0100
0000
0000
0010
0000
0000
0001
0000
0000
1000
0000
0000
0000
0000
0000
,
0100
0010
0001
1000
,
0001
0000
0100
0000
0010
0000
1000
0000
0000
0010
0000
0000
0100
0000
0000
0001
0000
0000
1000
0000
0000
0000
0000
0000
,
0000
0000
0100
0000
0010
0100
1000
0000
,
0000
0100
0000
0010
,
0000
0100
0000
1100
,
0100
0110
0100
0101
,
0100
1100
0100
0010
,
0100
0010
1000
0010
,
0001
0010
0100
0011
,
0010
0110
0010
1010
,
0010
0011
0010
0100
,
0010
0100
0001
0100
,
1000
0100
0010
0001
,
0010
0000
0100
0000
1000
0000
0001
0100
,
0010
1000
0001
0100
0010
1000
0001
0000
,
0010
0000
0100
0000
1000
0000
0001
0100
,
0010
1000
0001
0100
0010
1000
0001
0010
,
0100
1000
0100
0001
,
0100
0010
0100
1010
,
0100
0000
0001
0000
0010
0000
0100
1000
,
0010
0100
0001
0000
0001
0100
0010
1000
,
0100
1000
0010
1000
0100
1000
0010
1000
,
0100
1000
0010
1000
0100
1000
0001
0010
,
0100
0010
0001
0010
0100
0010
0001
0010
,
0100
0010
0001
0010
0100
0010
0001
0100
,
1000
0100
0001
0100
1000
0100
0001
0100
,
1000
0100
0001
0100
1000
0100
0001
0010
,
1000
0010
0001
0010
1000
0010
0001
0010
,
1000
0010
0001
0010
1000
0010
0110
0000
,
0110
0110
0110
1100
,
1000
1000
1000
0101
,
0101
0101
0101
0110
,
0100
0100
0100
1010
,
0100
1001
0100
0011
,
0100
1001
0100
0110
,
0000
0000
0000
0000
0000
0000
0000
0000
0000
0000
0000
0000
0000
0000
0000
0000
0000
0000
0000
0000
0000
0000
0000
0000
0000
0000
0000
0000
0000
0000
0000
0000
1000
0000
0000
0000
0000
0000
0000
0000
0100
0000
0000
0000
0000
0000
0000
1000
0000
0000
0000
0000
0000
0000
0100
0000
0000
0000
0000
1000
0000
0000
0000
0100
,
0000
0000
0000
1000
0000
0000
0100
0000
0000
1000
0000
0000
0100
0000
0000
1000
0000
0000
0100
0000
0000
1000
0000
0000
0100
0000
0000
1000
0000
0000
0100
0000
0000
1000
0000
0000
0100
0000
0000
1000
0000
0000
0100
0000
0000
0000
0000
0000
1000
0000
0000
0000
0000
0000
0000
0000
0100
0000
0000
0000
0000
0000
0000
0000
,
0010
0000
0011
0000
0011
0000
0001
0100
,
0010
0000
1010
0000
1010
0000
1000
0100
,
0010
0001
0010
0000
0100
0000
1000
0010
,
0100
0001
0100
0000
0000
0000
0001
0010
,
1000
0010
0001
0100
1000
0100
0001
0010
,
1000
0010
0001
0100
1000
0100
0001
0010
,
0100
1000
0010
0000
0100
0000
1001
0000
,
0001
0010
0100
0000
0010
0000
1100
0000
,
1100
1100
1100
0110
,
0001
1000
0100
0011
,
0011
0011
0011
0110
,
1000
0001
0010
1100
,
1100
1100
1100
1001
,
0000
0000
0001
0100
0010
0000
1000
0010
,
0001
0000
1000
0100
0001
0000
1000
0010
,
0001
0000
1000
0100
0001
0000
1001
0000
,
0001
0000
0010
0000
0100
0000
1000
0000
0000
0100
0000
0000
0010
0000
0000
0001
0000
0000
1000
0000
0000
0000
0000
0000
,
0100
0010
0001
1000
,
0001
0000
0010
0000
0100
0000
1000
0000
0000
0100
0000
0000
0010
0000
0000
0001
0000
0000
1000
0000
0000
0000
0000
0000
,
0100
0010
0001
1000
,
0001
0000
0000
0000
0000
0000
0000
0000
0100
0000
0000
0000
0000
0000
0000
0000
0010
0000
0000
0000
0000
0000
0000
0000
1000
0000
0000
0000
0000
0000
0000
0000
0100
0000
0000
0000
0000
0000
0000
0000
0010
0000
0000
0000
0000
0000
0000
0000
0001
0000
0000
0000
0000
0000
0000
0010
0000
0000
0000
0001
0000
0000
0000
0010
,
0000
0000
0001
0000
0000
0010
0000
0000
0001
0000
0000
0010
0000
0000
0001
0000
0000
0010
0000
0000
0001
0000
0000
0010
0000
0000
0001
0000
0000
0010
0000
0000
0100
0000
0000
0000
0000
0000
0000
0000
0010
0000
0000
0000
0000
0000
0000
0000
0001
0000
0000
0000
0000
0000
0000
0000
0000
0000
0000
0000
0000
0000
0000
0000
,
0010
0001
1000
0000
0001
1000
0100
0000
,
1000
0010
0100
0001
0010
0100
1000
0000
,
0001
0000
0000
0000
0000
0000
0000
0000
0100
0000
0000
0000
0000
0000
0000
0000
0010
0000
0000
0000
0000
0000
0000
0000
1000
0000
0000
0000
0000
0000
0000
0000
0100
0000
0000
0000
0000
0000
0000
0000
0010
0000
0000
0000
0000
0000
0000
0000
0001
0000
0000
0000
0000
1000
0000
0000
0000
0001
0000
0000
0000
1000
0000
0000
,
0001
0000
0000
1000
0000
0000
0001
0000
0000
1000
0000
0001
0000
1000
0000
0000
0001
0000
0000
1000
0000
0000
0001
0000
0000
1000
0000
0000
0000
0001
0000
0000
0100
0000
0000
0000
0000
0000
0000
0000
0010
0000
0000
0000
0000
0000
0000
0000
1001
0000
0000
0000
0000
0000
0000
0000
0000
0000
0000
0000
0000
0000
0000
0000
,
0000
0000
0100
0000
0000
0000
0000
0110
;

//---------------dance-single - Arch0wl----------------
#NOTES:
     dance-single:
     Arch0wl:
     Medium:
     7:
     0.569,0.879,0.000,0.000,0.243,418.000,0.000,0.000,0.000,0.000:
0000
0000
0000
0000
0000
0000
1000
0100
,
0010
0000
0001
0000
0001
0000
0100
0010
,
0001
0000
0010
0000
0010
0000
1000
0010
,
0100
0001
0010
0000
0001
0000
1000
0010
,
0100
0001
0010
0000
0000
0000
0001
0100
,
0010
0100
0001
0010
0100
1000
0001
0010
,
0100
0010
0001
0100
0010
1000
0001
0010
,
0100
0010
0001
0000
1000
0000
0010
0000
,
0000
0000
0000
0100
,
0100
0100
0100
0010
,
0000
0000
0000
1000
,
1000
1000
1000
0100
,
0000
0000
0000
0010
,
0010
0010
0010
0001
,
0000
0000
1000
0100
1000
0000
0010
0100
,
0010
0000
0100
0001
0100
0000
0010
1000
,
0010
0000
1000
0100
1000
0000
0001
0000
,
1000
0000
0010
0000
0100
0000
0001
0000
0000
0010
0000
0000
0100
0000
0000
0010
0000
0000
0001
0000
0000
0000
0000
0000
,
0000
0000
0000
0000
,
1000
0000
0100
0000
0010
0000
0001
0000
0000
0100
0000
0000
0010
0000
0000
0100
0000
0000
0001
0000
0000
0000
0000
0000
,
0000
0000
0000
0000
,
1000
0000
0010
0000
0100
0000
0001
0000
0000
1000
0000
0000
0100
0000
0000
1000
0000
0000
0010
0000
0000
0000
0000
0000
,
0000
0000
0000
0000
1000
0100
0001
0000
,
0000
0000
0000
0100
,
0000
0000
0000
1000
,
0000
0100
0000
0010
,
0000
0001
0000
0000
,
0001
0000
0100
0000
,
0010
0000
1000
1000
,
0000
0100
0000
0010
,
0000
0001
0000
0000
,
0001
0000
0100
0000
,
0010
0000
1000
1000
,
0100
0000
1000
0000
0010
0000
1000
0100
,
0010
0001
1000
0010
0100
0001
0010
0000
,
0100
0000
0010
0000
0001
0000
1000
0010
,
0100
0001
1000
0100
0010
0001
0100
0010
,
1000
0010
0100
0010
,
0001
0010
0100
0001
,
0010
0000
0100
0000
1000
0000
0001
0010
,
0100
1000
0100
0000
1000
0100
0010
0001
,
0010
0100
0010
0001
0010
0100
0010
0001
,
0010
0100
0010
0001
0010
0100
1000
0010
,
1000
0100
1000
0010
1000
0100
1000
0010
,
1000
0100
1000
0010
1000
0100
0010
1000
,
0010
0001
0010
1000
0010
0001
0010
1000
,
0010
0001
0010
1000
0010
0001
0100
1000
,
0100
0001
0100
1000
0100
0001
0100
1000
,
0100
0001
0100
1000
0100
0001
1000
0000
,
1000
1000
1000
0010
,
0000
0000
0000
0100
,
0100
0100
0100
0001
,
0000
0000
0000
1000
,
0100
1000
0010
1000
,
0001
1000
0010
0100
,
0000
0000
0000
0000
0000
0000
0000
0000
0000
0000
0000
0000
0000
0000
0000
0000
0000
0000
0000
0000
0000
0000
0000
0000
0000
0000
0000
0000
0000
0000
0000
0000
0010
0000
0000
0000
0000
0000
0000
0000
0100
0000
0000
0000
0000
0000
0000
0001
0000
0000
0000
0000
0000
0000
0100
0000
0000
0000
0000
0001
0000
0000
0000
0100
,
0000
0000
0000
0001
0000
0000
0100
0000
0000
0001
0000
0000
0100
0000
0000
0001
0000
0000
0100
0000
0000
0001
0000
0000
0100
0000
0000
0001
0000
0000
0100
0000
0000
0001
0000
0000
0100
0000
0000
0001
0000
0000
0100
0000
0000
0000
0000
0000
0001
0000
0000
0000
0000
0000
0000
0000
0100
0000
0000
0000
0000
0000
0000
0000
,
0010
0000
1000
0000
1000
0000
0100
0010
,
1000
0000
0010
0000
0010
0000
0001
0100
,
0010
1000
0100
0000
0010
0000
0001
0100
,
0010
1000
0100
0000
0000
0000
1000
0100
,
0010
0100
1000
0010
0100
0001
1000
0010
,
0100
0010
1000
0001
0010
0100
1000
0001
,
0100
0001
1000
0000
1000
0000
0010
0000
,
0000
0000
0000
0100
,
0100
0100
0100
0001
,
0000
0000
0000
0010
,
0010
0010
0010
0100
,
0000
0000
0000
1000
,
1000
1000
1000
0001
,
0000
0000
1000
0100
1000
0000
0010
0100
,
0010
0000
0100
0001
0100
0000
0010
1000
,
0010
0000
1000
0100
1000
0000
0001
0000
,
1000
0000
0100
0000
0010
0000
0001
0000
0000
1000
0000
0000
0100
0000
0000
1000
0000
0000
0001
0000
0000
0000
0000
0000
,
0000
0000
0000
0000
,
1000
0000
0010
0000
0100
0000
0001
0000
0000
0010
0000
0000
0100
0000
0000
0010
0000
0000
0001
0000
0000
0000
0000
0000
,
0000
0000
0000
0000
,
0001
0000
0000
0000
0000
0000
0000
0000
0010
0000
0000
0000
0000
0000
0000
0000
0100
0000
0000
0000
0000
0000
0000
0000
1000
0000
0000
0000
0000
0000
0000
0000
0010
0000
0000
0000
0000
0000
0000
0000
0100
0000
0000
0000
0000
0000
0000
0000
0001
0000
0000
0000
0000
0000
0000
1000
0000
0000
0000
0100
0000
0000
0000
1000
,
0000
0000
0100
0000
0000
1000
0000
0000
0100
0000
0000
1000
0000
0000
0100
0000
0000
1000
0000
0000
0100
0000
0000
1000
0000
0000
0100
0000
0000
1000
0000
0000
0100
0000
0000
0000
0000
0000
0000
0000
0010
0000
0000
0000
0000
0000
0000
0000
0001
0000
0000
0000
0000
0000
0000
0000
0000
0000
0000
0000
0000
0000
0000
0000
,
0010
0001
1000
0000
0001
1000
0100
0000
,
1000
0100
0010
0001
0010
0100
1000
0000
,
0001
0000
0000
0000
0000
0000
0000
0000
0100
0000
0000
0000
0000
0000
0000
0000
0010
0000
0000
0000
0000
0000
0000
0000
1000
0000
0000
0000
0000
0000
0000
0000
0010
0000
0000
0000
0000
0000
0000
0000
0100
0000
0000
0000
0000
0000
0000
0000
0001
0000
0000
0000
0000
0100
0000
0000
0000
0001
0000
0000
0000
0100
0000
0000
,
0001
0000
0000
0100
0000
0000
0001
0000
0000
0100
0000
0001
0000
0100
0000
0000
0001
0000
0000
0100
0000
0000
0001
0000
0000
0100
0000
0000
0000
0001
0000
0000
0010
0000
0000
0000
0000
0000
0000
0000
0100
0000
0000
0000
0000
0000
0000
0000
1000
0000
0000
0000
0000
0000
0000
0000
0000
0000
0000
0000
0000
0000
0000
0000
,
0000
0000
0000
0000
0000
0000
0000
0001
;

//---------------dance-single - Arch0wl----------------
#NOTES:
     dance-single:
     Arch0wl:
     Challenge:
     10:
     0.895,1.000,1.000,0.000,0.243,483.000,175.000,0.000,0.000,0.000:
0000
0000
0000
0000
0000
0000
1001
0100
,
1010
0000
1001
0000
1001
0000
0101
0010
,
1001
0000
1010
0000
1010
0000
1001
0010
,
1100
0001
1010
0000
1100
0000
1001
0010
,
1100
0001
0110
0000
1100
0000
1001
0010
,
0100
0010
1001
0100
0010
0100
0011
1000
,
0100
1000
0011
0100
1000
0100
1001
1000
,
0100
0010
0001
0000
1000
0000
0010
0000
,
1000
0100
0010
0000
0001
0000
1100
0000
,
1100
1100
1100
0011
,
1000
0100
0010
0011
,
0011
0011
0011
1100
,
0010
0001
1000
0110
,
0110
0110
0110
0101
,
0000
0000
1000
0100
1000
0000
0011
0100
,
0011
0000
1100
0001
1100
0000
0110
1000
,
0110
0000
1001
0100
1001
0000
0101
0000
,
1000
0000
0010
0000
0100
0000
0001
0000
0000
0010
0000
0000
0100
0000
0000
0010
0000
0000
1001
0000
0000
0000
0000
0000
,
0100
0010
0001
1001
,
1000
0000
0100
0000
0010
0000
0001
0000
0000
0100
0000
0000
0010
0000
0000
0100
0000
0000
0011
0000
0000
0000
0000
0000
,
1000
0100
0010
1001
,
1000
0000
0010
0000
0100
0000
1001
0000
0000
0100
0000
0000
1000
0000
0000
0100
0000
0000
0011
0000
0000
0000
0000
0000
,
0000
0000
0100
0000
1000
0010
0101
0000
,
0000
1000
0000
0110
,
0000
0001
0000
1001
,
0001
0011
0001
0101
,
0001
1001
0001
0100
,
0001
0100
0010
0100
,
1000
0100
0001
1001
,
1000
1010
1000
1100
,
1000
1001
1000
0010
,
0001
0010
0100
0010
,
1000
0010
0001
1010
,
0001
0000
1100
0000
0010
0000
1001
0100
,
0010
0001
1010
0100
0010
0001
1010
0000
,
0001
0000
1100
0000
0010
0000
1001
0100
,
0010
0001
1010
0100
0010
0001
1100
0010
,
1000
0010
0100
0010
,
0001
0010
0100
1001
,
0010
0000
0100
0000
1000
0000
0011
0110
,
1100
0110
0011
0101
1001
1100
0110
0001
,
0011
0100
0110
0001
0011
0100
0110
0001
,
0011
0100
0110
0001
0011
0100
1010
0010
,
0101
0100
1010
0010
0101
0100
1010
0010
,
0101
0100
1010
0010
0101
0100
0011
1000
,
0110
0001
0011
1000
0110
0001
0011
1000
,
0110
0001
0011
1000
0110
0001
1100
1000
,
0101
0001
1100
1000
0101
0001
1100
1000
,
0101
0001
1100
1000
0110
0001
1010
0000
,
1000
1000
1000
0011
,
0001
0001
0001
0101
,
0100
0100
0100
1001
,
1000
1000
1000
0100
,
0010
0100
0001
0100
,
0010
0100
1000
0100
,
0000
0000
0000
0000
0000
0000
0000
0000
0000
0000
0000
0000
0000
0000
0000
0000
0000
0000
0000
0000
0000
0000
0000
0000
0000
0000
0000
0000
0000
0000
0000
0000
0010
0000
0000
0000
0000
0000
0000
0000
0100
0000
0000
0000
0000
0000
0000
1000
0000
0000
0000
0000
0000
0000
0100
0000
0000
0000
0000
1000
0000
0000
0000
0100
,
0000
0000
0000
1000
0000
0000
0100
0000
0000
1000
0000
0000
0100
0000
0000
1000
0000
0000
0100
0000
0000
1000
0000
0000
0100
0000
0000
1000
0000
0000
0100
0000
0000
1000
0000
0000
0100
0000
0000
1000
0000
0000
0100
0000
0000
0000
0000
0000
1001
0000
0000
0000
0000
0000
0000
0000
0100
0000
0000
0000
0000
0000
0000
0000
,
1010
0000
1001
0000
1001
0000
0101
0010
,
1001
0000
1010
0000
1010
0000
1001
0010
,
1100
0001
1010
0000
1100
0000
1001
0010
,
1100
0001
0110
0000
1100
0000
1001
0010
,
0100
0010
1001
0100
0010
0100
0011
1000
,
0100
1000
0011
0100
1000
0100
1001
1000
,
0100
0010
0001
0000
1000
0000
0011
0000
,
1000
0100
0010
0000
0001
0000
1100
0000
,
1100
1100
1100
0011
,
1000
0100
0010
1100
,
1100
1100
1100
0011
,
1000
0100
0010
0101
,
0101
0101
0101
1001
,
0000
0000
1000
0100
1000
0000
0011
0100
,
0011
0000
1100
0001
1100
0000
0110
1000
,
0110
0000
1001
0100
1001
0000
0101
0000
,
1000
0000
0010
0000
0100
0000
0001
0000
0000
0010
0000
0000
0100
0000
0000
0010
0000
0000
1001
0000
0000
0000
0000
0000
,
0100
0010
0001
1001
,
1000
0000
0100
0000
0010
0000
0001
0000
0000
0100
0000
0000
0010
0000
0000
0100
0000
0000
0011
0000
0000
0000
0000
0000
,
1000
0100
0010
1001
,
1000
0000
0000
0000
0000
0000
0000
0000
0010
0000
0000
0000
0000
0000
0000
0000
0100
0000
0000
0000
0000
0000
0000
0000
0001
0000
0000
0000
0000
0000
0000
0000
1000
0000
0000
0000
0000
0000
0000
0000
0100
0000
0000
0000
0000
0000
0000
0000
0011
0000
0000
0000
0000
0000
0000
1000
0000
0000
0000
0100
0000
0000
0000
1000
,
0000
0000
0100
0000
0000
1000
0000
0000
0100
0000
0000
1000
0000
0000
0100
0000
0000
1000
0000
0000
0100
0000
0000
1000
0000
0000
0100
0000
0000
1000
0000
0000
0001
0000
0000
0000
0000
0000
0000
0000
0010
0000
0000
0000
0000
0000
0000
0000
1001
0000
0000
0000
0000
0000
0000
0000
0000
0000
0000
0000
0000
0000
0000
0000
,
0010
0001
1100
0000
0001
1000
0110
0000
,
1000
0100
1010
0001
0010
0100
1001
0000
,
0001
0000
0000
0000
0000
0000
0000
0000
0100
0000
0000
0000
0000
0000
0000
0000
0011
0000
0000
0000
0000
0000
0000
0000
1000
0000
0000
0000
0000
0000
0000
0000
0010
0000
0000
0000
0000
0000
0000
0000
0100
0000
0000
0000
0000
0000
0000
0000
0101
0000
0000
0000
0000
0100
0000
0000
0000
0001
0000
0000
0000
0100
0000
0000
,
0001
0000
0000
0100
0000
0000
0001
0000
0000
0100
0000
0001
0000
0100
0000
0000
0001
0000
0000
0100
0000
0000
0001
0000
0000
0100
0000
0000
0000
0001
0000
0000
0010
0000
0000
0000
0000
0000
0000
0000
0100
0000
0000
0000
0000
0000
0000
0000
1001
0000
0000
0000
0000
0000
0000
0000
0000
0000
0000
0000
0000
0000
0000
0000
,
0000
0000
0010
0000
0000
0000
0000
0110
;
