#TITLE:Dark World;
#SUBTITLE:;
#ARTIST:The Legend of Zelda;
#TITLETRANSLIT:;
#SUBTITLETRANSLIT:;
#ARTISTTRANSLIT:;
#CREDIT:;
#BANNER:Banner.png;
#BACKGROUND:Intro.png;
#LYRICSPATH:;
#CDTITLE:;
#MUSIC:The Legend of Zelda A Link to the Past - Dark World.ogg;
#OFFSET:-0.253;
#SAMPLESTART:43.852;
#SAMPLELENGTH:12.000;
#SELECTABLE:YES;
#BPMS:0.000=136.760;
#STOPS:;
#BGCHANGES:4.000=01Morph.png=1.000=0=0=1,
8.000=02OddCreature.png=1.000=0=0=0,
12.000=03Immune.png=1.000=0=0=0,
15.000=04DarkMission.png=1.000=0=0=0,
20.000=05PyramidTemple.png=1.000=0=0=0,
28.000=06NewEnemies.png=1.000=0=0=0,
34.500=07OneMore.png=1.000=0=0=0,
39.500=08Landscape.png=1.000=0=0=0,
44.000=09UnseenMaze.png=1.000=0=0=0,
52.000=10Brocolli.png=1.000=0=0=0,
55.500=11EvilTrees.png=1.000=0=0=0,
63.000=12OWShop.png=1.000=0=0=0,
68.000=13NotLinksHouse.png=1.000=0=0=0,
71.500=14BombShop.png=1.000=0=0=0,
76.000=15DarkLakeHyrule.png=1.000=0=0=0,
79.500=16StampedDown.png=1.000=0=0=0,
84.000=17UnknownDungeon.png=1.000=0=0=0,
92.000=18PowerofBosnos.png=1.000=0=0=0,
100.000=19FlutePlayer.png=1.000=0=0=0,
103.500=20DarkTerrain.png=1.000=0=0=0,
107.500=21SwampArea.png=1.000=0=0=0,
111.500=22BrokenBridge.png=1.000=0=0=0,
115.500=AADarkness.png=1.000=0=0=0,
119.500=ABDarkBoss.png=1.000=0=0=0,
123.500=ACDarkCrystal.png=1.000=0=0=0,
126.500=ADEnd.png=1.000=0=0=0,
133.000=23GardenofEvil.png=1.000=0=0=0,
136.000=24DarkSanctuary.png=1.000=0=0=0,
140.000=25TheCape.png=1.000=0=0=0,
144.000=26VTrees.png=1.000=0=0=0,
148.000=27DarkFortune.png=1.000=0=0=0,
151.000=28TreasureGameHouse.png=1.000=0=0=0,
156.000=29OutcastStatue.png=1.000=0=0=0,
164.000=30VillageofOutcasts.png=1.000=0=0=0,
170.500=31WallBomb.png=1.000=0=0=0,
175.000=AEEnterWatergate.png=1.000=0=0=0,
180.000=AFWaterBoss.png=1.000=0=0=0,
188.000=AGWaterCrystal.png=1.000=0=0=0,
191.500=AHEnd.png=1.000=0=0=0,
196.000=32ForestArea.png=1.000=0=0=0,
199.000=33TalkingTree.png=1.000=0=0=0,
204.000=34BonesSpooks.png=1.000=0=0=0,
207.500=35Tounge.png=1.000=0=0=0,
212.000=36DepthsFall.png=1.000=0=0=0,
215.500=37DarkLostForest.png=1.000=0=0=0,
220.000=38EnterSkullDungeon.png=1.000=0=0=0,
228.000=39SkullBoss.png=1.000=0=0=0,
236.000=40SkullCrystal.png=1.000=0=0=0,
239.500=41SkullEnd.png=1.000=0=0=0,
243.500=45NoSword.png=1.000=0=0=0,
247.500=47RandomDeathMountain.png=1.000=0=0=0,
251.500=46HallofDeath.png=1.000=0=0=0,
255.500=42BlindsHideout.png=1.000=0=0=0,
259.500=43BlindsCrystal.png=1.000=0=0=0,
262.500=44BlindEnd.png=1.000=0=0=0,
99999=-nosongbg-=1.000=0=0=0 // don't automatically add -songbackground-
;
// cache tags:
#FIRSTBEAT:0.000;
#LASTBEAT:269.000;
#SONGFILENAME:Songs/toune 2/The Legend of Zelda A Link to the Past - Dark World/The Legend of Zelda A Link to the Past - Dark World.sm;
#HASMUSIC:1;
#HASBANNER:1;
#MUSICLENGTH:126.200;
// end cache tags

//---------------dance-single - simfile by Z4N----------------
#NOTES:
     dance-single:
     simfile by Z4N:
     Challenge:
     9:
     0.513,0.666,0.349,0.380,0.365,361.000,44.000,48.000,0.000,0.000:
1000
0000
0100
0000
1000
0001
1000
0000
0010
0000
1000
0001
1000
0001
1000
0000
,
0010
0000
1000
0000
0100
0010
0100
0000
1000
0000
0001
1000
0001
1000
0001
0000
,
1000
0000
0100
0000
0010
0001
0010
0000
0100
0000
1000
0010
1000
0010
1000
0000
,
0010
0000
1000
0000
0100
0010
0100
0000
1000
0000
0001
0100
0001
0000
2000
0000
,
0000
0000
0000
0000
0000
0000
0000
0000
3100
0000
0001
0000
0010
0000
0001
0100
,
0002
0000
0000
0000
0000
0000
0000
0000
0000
0000
0000
0000
0000
1003
0200
0000
,
0000
0000
0320
0000
0000
0000
0000
0000
0000
0000
0000
0000
0031
0000
1000
0100
,
0020
0000
0000
0000
0000
0000
0000
0000
0000
0000
0000
0000
0000
0031
2000
0000
,
0000
0000
0000
0000
0000
0000
0000
0000
0000
0000
3001
1000
0100
1000
0020
0000
,
0000
0000
0000
0000
0000
0000
1030
0002
,
0000
0000
0000
0000
0000
0000
0000
0000
0013
0000
0100
0000
1000
0000
0001
0100
,
0002
0000
0000
0000
0000
0000
0000
0000
0000
0000
0000
0000
0000
1003
0200
0000
,
0000
0000
0320
0000
0000
0000
0000
0000
0000
0000
0000
0000
0031
0000
1000
0010
,
0200
0000
0000
0000
0000
0000
0000
0000
0000
0000
0000
0000
0000
0310
0200
0000
,
0000
0000
0000
0000
0000
0000
0000
0300
,
0001
0000
0100
0000
0001
1000
0001
0000
0010
0000
0001
1000
0001
0010
0200
0000
,
0000
0000
0000
0000
0000
0000
0000
0000
0000
0000
0310
0000
1000
0000
0001
0100
,
0002
0000
0000
0000
0000
0000
0000
0000
0000
0000
0000
0000
1003
0001
0200
0000
,
0000
0000
0000
0000
0000
0000
0000
0000
0000
0000
0310
0000
0001
0000
1000
0010
,
2000
0000
0000
0000
0000
0000
0000
0000
0000
0000
0000
0000
3010
1000
0002
0000
,
0000
0000
0000
0000
0000
0000
0000
0000
0000
0000
1003
0000
0100
0000
0001
0010
,
0002
0000
0000
0000
0000
0000
0000
0023
,
0000
0000
0000
0000
0000
0000
0000
0000
0000
0000
0130
0000
0001
0000
1000
0001
,
0200
0000
0000
0000
0000
0000
0000
0302
,
0000
0000
0000
0000
0000
0000
0000
0003
,
1000
0000
0100
0000
1000
0001
1000
0000
0010
0000
1000
0001
1000
0001
1000
0100
,
0010
0001
0000
0000
1100
0000
0000
0000
0011
0000
0101
0000
1001
0000
0001
0010
,
0100
1000
0000
0000
1100
0000
0000
0000
1001
0000
0101
0000
1001
0000
0001
0100
,
0010
1000
0000
0000
0011
0000
0000
0000
1001
0000
1010
0000
1001
0000
1000
0010
,
0100
0001
0000
0000
1010
0000
0000
0000
1001
0000
0101
0000
1001
0000
0001
1000
,
0010
0100
0000
0000
0101
0000
0000
0000
0110
0000
1010
0000
1001
0000
1000
0001
,
0100
0010
0000
0000
1010
0000
0000
0000
1100
0000
2000
0000
0000
0000
3002
0000
,
0000
0000
0000
0000
,
0000
0000
0000
0000
0013
0000
0000
0000
0001
1000
0001
1000
0001
0000
0100
0000
,
0001
0000
1000
0000
0010
0100
0010
0000
1000
0000
0001
1000
0001
1000
0001
0000
,
0010
0000
0100
0000
0010
0001
0010
0000
0100
0000
1000
0100
1000
0100
1000
0000
,
0001
0000
0100
0000
0010
1000
0010
0000
0100
0000
0001
0100
0001
0100
0001
0000
,
1000
0000
0100
0000
0010
0001
0010
0000
0100
0000
0010
0001
0010
0000
0002
0000
,
0000
0000
0000
0000
0000
0000
0000
0000
0103
0000
1000
0000
0001
0000
0010
0100
,
2000
0000
0000
0000
0000
0000
0000
0000
0000
0000
0000
0000
0000
3010
0200
0000
,
0000
0000
0302
0000
0000
0000
0000
0000
0000
0000
0000
0000
0103
0000
0001
0100
,
0020
0000
0000
0000
0000
0000
0000
0000
0000
0000
0000
0000
0000
0130
0002
0000
,
0000
0000
0000
0000
0000
0000
0000
0000
0000
0000
1003
0010
0100
0001
0020
0000
,
0000
0000
0000
0000
0000
0000
0130
0002
,
0000
0000
0000
0000
0000
0000
0000
0000
1003
0000
0100
0000
0001
0000
1000
0100
,
0020
0000
0000
0000
0000
0000
0000
0000
0000
0000
0000
0000
0000
0031
0200
0000
,
0000
0000
0320
0000
0000
0000
0000
0000
0000
0000
0000
0000
1030
0000
0001
0010
,
0200
0000
0000
0000
0000
0000
0000
0000
0000
0000
0000
0000
0000
0310
0200
0000
,
0000
0000
0000
0000
0000
0000
0000
0300
,
1000
0000
0100
0000
1000
0001
1000
0000
0010
0000
1000
0001
1000
0010
0200
0000
,
0000
0000
0000
0000
0000
0000
0000
0000
0000
0000
0310
0000
0001
0000
1000
0100
,
2000
0000
0000
0000
0000
0000
0000
0000
0000
0000
0000
0000
3001
0010
0200
0000
,
0000
0000
0000
0000
0000
0000
0000
0000
0000
0000
0310
0000
1000
0000
0001
0010
,
0002
0000
0000
0000
0000
0000
0000
0000
0000
0000
0000
0000
0013
0100
2000
0000
,
0000
0000
0000
0000
0000
0000
0000
0000
0000
0000
3010
0000
0100
0000
1000
0100
,
2000
0000
0000
0000
0000
0000
0000
3020
,
0000
0000
0000
0000
0000
0000
0000
0000
0000
0000
0130
0000
1000
0000
0001
1000
,
0200
0000
0000
0000
0000
0000
0000
0320
,
0000
0000
0000
0000
0000
0000
0000
0030
,
0001
0000
0100
0000
0001
1000
0001
0000
0010
0000
0001
1000
0001
1000
0001
0100
,
0010
1000
0000
0000
0101
0000
0000
0000
1010
0000
1100
0000
1001
0000
1000
0010
,
0100
0001
0000
0000
0101
0000
0000
0000
1001
0000
1100
0000
1001
0000
1000
0100
,
0010
0001
0000
0000
1010
0000
0000
0000
1001
0000
0011
0000
1001
0000
0001
0010
,
0100
1000
0000
0000
0011
0000
0000
0000
1001
0000
1100
0000
1001
0000
1000
0001
,
0010
0100
0000
0000
1100
0000
0000
0000
0110
0000
0011
0000
1001
0000
0001
1000
,
0100
0010
0000
0000
0011
0000
0000
0000
0101
0000
0002
0000
0000
0000
2003
0000
,
0000
0000
0000
0000
,
0000
3000
0000
0000
;
