#TITLE:The Swamps Of Forgetfulness;
#SUBTITLE:Rayman;
#ARTIST:Stéphane Bellanger;
#TITLETRANSLIT:;
#SUBTITLETRANSLIT:;
#ARTISTTRANSLIT:;
#CREDIT:;
#BANNER:The Swamps of Forgetfulness.jpg;
#BACKGROUND:The Swamps of Forgetfulness-bg.jpg;
#LYRICSPATH:;
#CDTITLE:!tsuka.png;
#MUSIC:The Swamps of Forgetfulness.mp3;
#OFFSET:-0.100;
#SAMPLESTART:8.240;
#SAMPLELENGTH:12.000;
#SELECTABLE:YES;
#BPMS:0.000=116.070;
#STOPS:;
#BGCHANGES:;
// cache tags:
#FIRSTBEAT:0.000;
#LASTBEAT:119.750;
#SONGFILENAME:Songs/VGMP 2/The Swamps of Forgetfulness (Tsuka)/The Swamps of Forgetfulness.sm;
#HASMUSIC:1;
#HASBANNER:1;
#MUSICLENGTH:65.384;
// end cache tags

//---------------dance-single - ----------------
#NOTES:
     dance-single:
     :
     Hard:
     10:
     1.000,1.000,1.000,1.000,1.000,367.000,112.000,140.000,0.000,28.000:

0011
0100
1001
0100
0011
0000
0110
0000
0001
0000
1100
0000
0011
0000
0100
0000
,
1001
1000
0011
1100
0010
1100
0011
1000
,
0101
0001
0110
1100
0001
1100
0110
2001
,
0010
0000
0100
0000
0010
0000
0001
0000
3101
0000
0100
0001
1010
0000
0100
0010
,
1001
0000
0010
0100
2001
3200
2300
3020
0230
0302
0023
0230
0321
0230
2300
3200
,
2301
3000
0010
0100
1001
0000
0110
0000
0010
0000
1010
0100
1001
0000
0100
0000
,
1010
0000
0100
0010
1001
0000
1010
0000
1000
0000
0100
1000
0011
0000
1002
0000
,
0100
0000
1000
0010
0100
0000
1000
0010
0103
0000
1000
0010
0101
0010
0100
0010
,
1001
0100
0010
0001
0110
1000
0001
0010
0101
0010
1000
0001
0110
1000
0001
0100
,
1010
0100
0001
1000
0110
0001
1000
0010
1100
0010
0001
1000
0110
0011
1100
0110
,
0011
0000
0200
2300
3201
2300
3000
0200
0300
2000
3200
1000
0321
0030
0200
0300
,
1010
0000
0200
2300
3201
2300
3000
0200
0300
2000
3200
1300
0012
0000
0023
0030
,
1100
0000
0020
0230
0321
0230
0300
0020
0030
0200
0320
0001
0132
0003
2000
3000
,
0022
0033
0220
0330
1001
0000
2200
3300
0110
0000
2200
3310
0101
0000
0220
0330
,
2020
3030
0200
0300
0201
2300
3000
0200
0300
2000
3200
1000
0321
0000
0230
0300
,
1010
0000
0200
2300
3201
2300
3000
0200
0300
2000
3200
1300
0021
0030
0002
0003
,
1100
0000
0020
0230
1320
0230
0300
0002
0003
0200
0320
1030
0102
0003
2000
3000
,
0022
0033
0220
0330
1001
0000
2200
3300
0110
0000
2200
3310
0101
0000
0220
1330
,
0011
0100
0010
0001
0110
1000
0001
0010
0101
0010
1000
0001
0110
1000
0001
0100
,
1010
0100
0001
1000
0110
0001
1000
0010
1100
0010
0001
1000
0110
0011
1100
0110
,
2001
0000
3200
0321
0032
0000
0203
0320
0032
0000
1023
0132
2003
0000
3210
0321
,
1032
0000
0100
0000
0100
0000
0100
1000
,
0113
0000
1200
0000
2300
3200
2300
3020
0230
0302
0023
0230
0320
0230
2300
3200
,
2301
3010
0101
0010
1000
0001
0100
0000
0100
0010
1000
0100
0010
0100
2010
0100
,
3012
1000
0123
1000
0100
1000
0100
0000
0130
1000
0001
0100
0001
0010
2100
0010
,
0001
0010
0001
0010
0100
0001
0100
0000
3100
0010
0001
0100
0010
1000
0100
0001
,
0120
0000
1230
0000
2300
3200
2300
3020
0230
0302
0023
0230
0320
0230
2300
3200
,
2301
3010
0101
0010
1000
0001
0100
0000
0100
0010
1000
0100
2010
0100
0010
0100
,
3012
1000
0100
0010
0100
1000
0100
0000
0103
1000
0001
0100
0021
0100
2031
0010
,
0001
0010
0001
0010
0100
0001
0100
0000
3100
0010
0001
0100
0010
1000
0100
0010
;
