#TITLE:Can't Hide Your Love;
#SUBTITLE:;
#ARTIST:Kola Kid;
#TITLETRANSLIT:;
#SUBTITLETRANSLIT:;
#ARTISTTRANSLIT:;
#CREDIT:;
#BANNER:;
#BACKGROUND:;
#LYRICSPATH:;
#CDTITLE:monst3rjoe - cdtitle.png;
#MUSIC:13_-_Kola_Kid_-_Can't_Hide_Your_Love.ogg;
#OFFSET:-0.038;
#SAMPLESTART:73.712;
#SAMPLELENGTH:12.000;
#SELECTABLE:YES;
#DISPLAYBPM:200.000;
#BPMS:0.000=200.000,60.000=100.000,62.000=200.000;
#STOPS:;
#BGCHANGES:;
// cache tags:
#FIRSTBEAT:0.000;
#LASTBEAT:391.500;
#SONGFILENAME:Songs/SSSC Pack 2/Can't Hide Your Love - [Monst3rjoe]/NEW BLANSIKS.sm;
#HASMUSIC:1;
#HASBANNER:0;
#MUSICLENGTH:118.468;
// end cache tags

//---------------dance-single - Monst3rjoe----------------
#NOTES:
     dance-single:
     Monst3rjoe:
     Challenge:
     13:
     1.000,1.000,0.388,0.304,1.000,742.000,46.000,36.000,87.000,0.000:

M000
0000
0000
0M00
0000
0000
00M0
0000
0000
0000
0000
0000
0000
0000
0000
0000
,
000M
0000
0000
0M00
0000
0000
M000
0000
0000
0000
0000
0000
0000
0000
0000
0000
,
2000
0000
0000
3020
0000
0000
0230
0000
0304
0000
0003
0000
1001
0000
0000
0000
,
1000
0000
0100
0000
1000
0000
0100
0000
0000
0000
0000
0000
1000
0000
0000
0000
0000
0000
1000
0000
0000
0000
0000
0000
0001
0000
0000
1000
0000
0000
0001
0000
0000
1000
0000
0000
0400
0000
0000
0000
0000
0000
0000
0000
0000
0000
0000
0000
,
0320
0000
0000
0000
0000
0000
0000
0000
0030
0200
0000
0000
0000
0000
0000
0000
0000
0000
2300
0000
0000
0000
0000
0000
0001
0000
0000
3000
0000
0000
0001
0000
0000
0000
0000
0000
0040
0000
0000
0000
0000
0000
0000
0000
0000
0000
0000
0000
,
0230
0000
0000
0000
0000
0000
0000
0000
0000
0000
0000
0000
0000
0000
0000
0000
0000
0000
0000
0000
0000
0000
0000
0000
0000
0000
0000
0000
0000
0000
0000
0000
0000
0000
0000
0000
0320
0000
0000
0000
0000
0000
0000
0000
0000
0000
0000
0000
0000
0000
0000
0000
0000
0000
0000
0000
0000
0000
0000
0000
0000
0000
0000
0000
0000
0000
0000
0000
0000
0000
0000
0000
0032
0000
0000
0000
0000
0000
0000
0000
0000
0000
0000
0000
0000
0000
0000
0000
0000
0000
0000
0000
0000
0000
0000
0000
0403
0000
0000
0000
0000
0000
0000
0000
0000
0000
0000
0000
0000
0000
0000
0000
0000
0000
0000
0000
0000
0000
0000
0000
0000
0000
0000
0000
0000
0000
0000
0000
0000
0000
0000
0000
0000
0000
0000
0000
0000
0000
0000
0000
0000
0000
0000
0300
0100
0000
0000
0000
0000
0000
0000
0000
0000
0000
0000
0000
0000
0000
0000
0000
0000
0000
0000
0000
0000
0000
0000
0000
0M00
0000
0000
0000
0000
0000
0000
0000
0000
0000
0000
0000
0000
0000
0000
0000
0000
0000
0000
0000
0000
0000
0000
0000
,
0020
0000
0000
0230
0000
0000
0302
0000
0103
0010
0100
0010
1000
0000
0010
0000
,
0002
0000
0000
0023
0000
0000
2030
0000
3200
0000
0000
0000
0310
0000
0000
0000
,
01M0
M000
000M
0010
0M00
0000
0001
0000
0000
0010
0000
0000
0100
0000
0000
0010
0000
0000
0001
0000
0000
0010
0000
0000
,
1000
0010
0100
0010
0001
0100
0010
0000
,
1000
0000
0001
0100
0010
0000
0100
0000
0001
0000
0100
0000
0010
0000
0100
0000
,
1000
0100
0001
0100
0010
1000
0100
0000
,
1000
0010
0100
0010
1000
0010
0100
0010
,
0001
0010
0100
0010
1000
0100
0010
0000
,
0001
0000
1000
0100
0010
0000
0100
0000
1000
0000
0100
0000
0010
0000
0001
0000
,
01M0
0001
0100
0010
1000
0001
0400
0000
03M1
0000
0101
0000
0000
0000
0100
0001
,
0100
0010
1000
0000
0100
0000
0010
0001
0010
0000
0100
0000
1000
0001
1000
0000
,
0100
0000
0100
0000
1000
0000
0000
0000
0001
1000
0010
0100
0001
0000
0001
0000
,
1000
0000
0001
0000
1000
0000
0001
0000
1000
0000
0000
0000
0001
0000
0000
0000
0000
0000
0000
0000
0000
0000
0000
0000
1010
0000
0000
0000
0000
0000
1000
0000
0000
0000
0000
0000
0001
0000
0000
0000
0000
0000
1000
0000
0000
0001
0000
0000
,
1000
0100
0010
0001
1000
0001
1000
0000
0100
0000
0000
0100
0000
0000
1000
0000
,
1100
0000
0000
0000
0000
0000
0000
0000
0000
0000
0000
0000
1001
0000
0000
0000
0000
0000
1000
0000
0000
0001
0000
0000
0010
0000
0000
0100
0000
0000
1000
0000
0000
0100
0000
0000
1000
0000
0100
0000
1000
0000
0100
0000
1000
0000
0000
0000
,
0100
0000
0000
0000
0000
0000
1000
0000
0001
0000
1000
0000
0001
0000
0000
0000
0000
0000
1000
0000
0000
0000
0000
0000
0001
0000
0000
0000
0000
0000
1000
0000
0000
0000
0000
0000
0100
0000
0000
1000
0000
0000
0100
0000
0000
0010
0000
0000
,
0001
1000
0001
0000
0001
0000
1000
0010
0100
0001
0100
0000
0001
0010
0001
0010
,
0001
0000
0001
0000
0001
0000
0001
0000
1000
0000
0000
0100
0010
0000
0011
0000
,
0000
0000
0001
0000
0001
0000
1000
0010
1000
0000
1000
0000
0001
0010
0001
0000
,
1000
0010
1000
0010
0100
0001
1000
0000
0001
0010
0100
0010
0001
1000
0100
0000
,
1000
0000
0010
1000
0010
0100
0001
0000
0100
0000
0100
0000
0001
0000
1000
0001
,
0100
0000
0000
0001
0000
0000
0100
0000
0000
0010
0000
0000
1000
0000
0000
0010
0000
0000
1000
0000
0000
0000
0000
0000
0001
0000
0000
0000
0000
0000
0000
0000
0000
0001
0000
0000
0000
0000
0000
0000
0000
0000
1000
0000
0010
0000
1000
0000
,
0010
0000
0000
0000
1010
0000
1000
0010
1000
0001
1000
0100
1000
0000
1000
0000
,
0001
0000
1000
0000
0001
0000
1000
0000
0001
0000
0000
0000
1000
0000
0000
0000
0000
0000
0010
0000
0000
0000
0000
0000
0100
0000
0000
0000
0000
0000
0010
0000
0000
0000
0000
0000
1000
0000
0000
0001
0000
0000
1000
0000
0000
0100
0000
0000
,
1000
0100
0010
0000
0001
0000
0100
0010
0100
0001
1000
0000
0100
1000
0100
1000
,
0100
0000
0100
0000
0100
0000
0100
0000
0010
0001
0010
0001
1000
0001
1000
0001
,
0100
0000
0000
0001
0000
0000
0100
0000
0001
0000
0100
0000
0001
0000
0400
0000
0000
0000
0000
0000
0300
0000
0000
0000
1001
0000
0000
0000
0000
0000
0001
0000
0000
1000
0000
0000
0001
0000
0000
1000
0000
0000
0100
0000
0000
0000
0000
0000
,
0010
0000
0001
0000
1001
0000
0000
0000
0001
1000
0010
1000
0001
0000
0010
0000
,
0001
0000
0000
0010
0000
0000
0001
0000
0010
0000
0001
0000
0010
0000
0001
0000
0000
0000
0000
0000
0000
0000
0000
0000
0101
0000
0000
0000
0000
0000
0001
0000
0000
0000
0000
0000
1000
0000
0000
0000
0000
0000
0100
0000
0000
1000
0000
0000
,
0001
1000
0001
0010
0001
0010
0100
1000
0100
0000
0000
0100
0000
0000
1000
0000
,
1100
0000
0000
0000
0000
0000
0000
0000
0000
0000
0000
0000
1001
0000
0000
0000
0000
0000
0001
0000
0000
1000
0000
0000
0010
0000
0000
1000
0000
0000
0001
0000
0000
1000
0000
0000
0001
0000
1000
0000
0001
0000
1000
0000
0001
0000
0000
0000
,
1000
0000
0000
0000
0000
0000
0100
0000
1000
0000
0100
0000
1000
0000
0000
0000
0000
0000
0010
0000
0000
0000
0000
0000
0100
0000
0000
0000
0000
0000
0001
0000
0000
0000
0000
0000
1000
0000
0000
0001
0000
0000
1000
0000
0000
0001
0000
0000
,
0100
0010
1000
0000
1010
0000
0010
1000
0001
1000
0100
0000
0010
0001
0010
0001
,
1000
0001
0100
0001
1000
0001
0010
0001
1000
0000
1001
0000
0000
0000
0001
0010
,
0100
1000
0100
0000
1100
0000
1000
0001
1000
0000
1000
0000
0001
0100
0001
0000
,
1000
0010
1000
0001
0100
0010
1000
0000
0001
0010
0100
0010
0001
1000
0001
0000
,
0001
0000
1000
0100
0010
0001
1000
0000
01MM
0000
0000
01MM
0000
0000
01M0
0000
,
0000
0000
0000
0000
01M0
0000
0000
0000
0000
0000
0000
0000
0000
0000
0000
0000
01M0
0000
0000
0000
0000
0000
0000
0000
0000
0000
0000
0000
0000
0000
0000
0010
0000
0000
0000
0000
0000
0000
0000
0000
0000
0000
0000
0000
0000
0000
0000
0000
0000
0000
0000
0000
0000
0000
0000
0001
0000
0000
0000
0000
0000
0000
0000
0000
,
0000
0000
0000
0000
0000
0000
0000
0000
0000
0000
0000
0000
0000
0000
0000
0000
0000
0000
0000
0000
0000
0000
0000
0000
0000
0000
0000
0000
0000
0000
0000
0000
0000
0000
0000
0000
0000
0000
0000
0000
0000
0000
0000
0000
0000
0001
0000
0000
0000
0000
0000
0000
0000
0000
0000
0000
0000
0000
0000
0000
0000
0000
0000
0000
0000
0000
0000
0000
0000
0000
0000
0000
0000
0000
0000
0000
0000
0000
0000
0000
0000
0000
0000
0000
0000
0000
0000
0000
0000
0000
0000
0000
0000
0000
0000
0000
0000
0000
0000
0000
0000
0000
0000
0000
0000
0000
0000
0000
0000
0000
0000
0000
0000
0000
0000
0000
0000
0000
0001
0000
0000
0000
0000
0000
0000
0000
0000
0000
0000
0000
0000
0000
0000
0000
0000
0000
0000
0000
0000
0000
0000
0000
0000
0000
0000
0000
0000
0000
0000
0000
0000
0000
0000
0000
0000
0000
0000
0000
0000
0000
0000
0000
0000
0000
0000
0000
0000
0000
0000
0000
0000
0000
0000
0000
0000
0000
0000
0000
0000
0000
0000
0000
0000
0000
0000
0000
0000
0000
0000
0000
0001
0000
,
0000
0000
0000
0000
0000
0000
0000
0000
0000
0000
0000
0000
0000
0000
0000
0000
0000
0000
0000
0000
0000
0000
0000
0000
0000
0000
0000
0000
0000
0000
0000
0000
0000
0000
0000
0000
0000
0000
0000
0000
0000
0000
0000
0000
0000
0000
0000
0000
0000
0000
0000
0000
0000
0000
0000
0000
0000
0000
0000
0000
0000
0000
0000
0000
0000
0000
0000
0000
0000
0000
0000
0000
0000
0000
0000
0000
0000
0000
0000
0000
0000
0000
0000
0000
0000
0000
0000
0000
0000
0000
0000
0000
0000
0000
0100
0000
0000
0000
0000
0000
0000
0000
0000
0000
0000
0000
0000
0000
0000
0000
0000
0000
0000
0000
0000
0000
0000
0000
0000
0000
0000
0000
0000
0000
0000
0000
0000
0000
0000
0000
0000
0000
0000
0000
0000
0000
0000
0000
0000
0000
0000
0000
0000
0000
0000
0000
0000
0000
0000
0000
0000
0000
0000
0000
0000
0000
0000
0000
0000
0000
0000
0000
0000
0000
0000
0000
0000
0000
0000
0000
0000
0000
0000
0000
0000
0000
0000
0000
0000
0000
0000
0000
0000
0000
0000
0000
0000
0000
0000
0000
0000
0000
,
0000
0000
0000
0000
0000
0000
0000
0000
0000
0000
0000
0000
0000
0000
0000
0000
0000
0000
0000
0000
0000
0000
0000
0000
0000
0000
0000
0000
0000
0000
0000
0000
0000
0000
0000
0000
0000
0000
0000
0000
0000
0000
0000
0000
0000
0000
0000
0000
0000
0000
0000
0000
0000
0000
0000
0000
0000
0000
0000
0000
0000
0000
0000
0000
0000
0000
0000
0000
0000
0000
0000
0000
0000
0000
0000
0000
0000
0000
0000
0000
0000
0000
0000
0000
0000
0000
0000
0000
0000
0000
0000
0000
0000
0010
0000
0000
0000
0000
0000
0000
0000
0000
0000
0000
0000
0000
0000
0000
0000
0000
0000
0000
0000
0000
0000
0000
0000
0000
0000
0000
0000
0000
0000
0000
0000
0000
0000
0000
0000
0000
0000
0000
0000
0000
0000
0000
0000
0000
0000
0000
0000
0000
0000
0000
0000
0000
0000
0000
0000
0000
0000
0000
0000
0000
0000
0000
0000
0000
0000
0000
0000
0000
0000
0000
0000
0000
0000
0000
0000
0000
0000
0000
0000
0000
0000
0000
0000
0000
0000
0000
0000
0000
0000
0000
0000
0000
0000
0000
0000
0000
1000
0000
,
0000
0000
0000
0000
0000
0000
0000
0000
0001
0100
0010
1000
0010
0100
0001
1000
,
0100
0010
0001
1000
0001
0000
M0MM
0000
0100
0000
0000
0100
0000
0000
0100
0000
,
0001
0000
0000
0000
0000
0000
0001
0000
0000
0000
0000
0000
1000
0000
0000
0000
0000
0000
0001
0000
1000
0000
0001
0000
1000
0000
0000
0001
0000
0000
1000
0000
0000
0001
0000
0000
1000
0000
0000
0010
0000
0000
0100
0000
0000
0001
0000
0000
,
1000
0000
0000
0000
0000
0000
0001
0000
0000
0010
0000
0000
0000
0000
0000
0011
0000
0000
0000
0000
0000
0001
0010
0001
,
0010
0001
0100
0010
4000
0000
0000
0000
,
3400
0000
0000
0000
0000
0000
1300
MM10
0010
0001
0M1M
0010
,
1000
0000
0001
0000
1001
0000
1000
0000
0010
0100
0010
0100
0010
0100
0001
0000
,
1001
0000
1000
0000
0001
0000
0010
0000
0000
0000
0110
0000
0000
0000
0100
1000
,
0001
0000
0001
0000
0100
0000
0100
0000
0001
0100
0010
1000
0001
1000
0100
0010
,
0001
0000
1000
0000
0100
0000
MM0M
0000
0010
0000
0000
0010
0000
0000
0010
0000
,
0001
0000
0001
0000
0100
0000
0010
0000
1000
0001
1000
0001
1000
0001
0010
0000
,
0100
0000
0000
0000
0000
0000
1000
0000
0000
0001
0000
0000
0000
0000
0000
0101
0000
0000
0000
0000
0000
0001
0100
0001
,
0100
0001
0100
0001
1000
0000
1000
0000
0040
0000
0000
0000
0000
0000
0000
0000
,
0430
0000
0000
0000
0000
0000
0301
0M1M
0010
1000
MM10
0010
,
0001
0000
1000
0000
1100
0000
0000
0000
0100
0010
0100
0010
0100
0010
0001
0000
,
1001
0000
0000
0000
0000
0000
0000
0000
0000
0000
0000
0000
0000
0000
0000
0000
0000
0000
0000
0000
0000
0000
0000
0000
1000
0000
0000
0000
0000
0000
0000
0000
0000
0000
0000
0000
0000
0000
0000
0000
0000
0000
0000
0000
0000
0000
0000
0000
0010
0000
0000
0000
0000
0000
0000
0000
0000
0000
0000
0000
0000
0000
0000
0000
0000
0000
0000
0000
0000
0000
0000
0000
0100
0000
0000
0000
0000
0000
0000
0000
0000
0000
0000
0000
0000
0000
0000
0000
0000
0000
0000
0000
0000
0000
0000
0000
M124
0033
0000
0000
0000
0000
0000
0000
0000
0000
0000
0000
0000
0000
0000
0000
0000
0000
0000
0000
0000
0000
0000
0000
0000
0000
0000
0000
0000
0000
0000
0000
0000
0000
0000
0000
0000
0000
0000
0000
0000
0000
0000
0000
0000
0000
0000
0000
M141
0030
0000
0000
0000
0000
0000
0000
0000
0000
0000
0000
0000
0000
0000
0000
0000
0000
0000
0000
0000
0000
0000
0000
0000
0000
0000
0000
0000
0000
0000
0000
0000
0000
0000
0000
0000
0000
0000
0000
0000
0000
0000
0000
0000
0000
0000
0000
,
M411
0300
0000
0000
0000
0000
0000
0000
0000
0000
0000
0000
0000
0000
0000
0000
0000
0000
0000
0000
0000
0000
0000
0000
0000
0000
0000
0000
0000
0000
0000
0000
0000
0000
0000
0000
0000
0000
0000
0000
0000
0000
0000
0000
0000
0000
0000
0000
M114
0003
0000
0000
0000
0000
0000
0000
0000
0000
0000
0000
0000
0000
0000
0000
0000
0000
0000
0000
0000
0000
0000
0000
0000
0000
0000
0000
0000
0000
0000
0000
0000
0000
0000
0000
0000
0000
0000
0000
0000
0000
0000
0000
0000
0000
0000
0000
0002
0000
0000
0000
0000
0000
0000
0000
0000
0000
0000
0000
0000
0000
0000
0000
0000
0000
0000
0000
0000
0000
0000
0000
0000
0000
0000
0000
0000
0000
0000
0000
0000
0000
0000
0000
0000
0000
0000
0000
0000
0000
0000
0000
0000
0000
0000
0000
0000
0000
0000
0000
0000
0000
0000
0000
0000
0000
0000
0000
0000
0000
0000
0000
0000
0000
0000
0000
0000
0000
0000
0000
0000
0000
0000
0000
0000
0000
0000
0000
0000
0000
0000
0000
0000
0000
0000
0000
0000
0000
0000
0000
0000
0000
0000
0000
,
0000
0003
0100
0100
0020
0030
0000
0000
,
000M
00M0
M000
0000
0200
0000
0320
0000
,
2030
0000
3100
0020
0030
0000
0000
0000
,
0M00
0000
0000
M000
0000
0000
0M00
0000
0000
M000
0000
0000
0000
0000
0000
0000
0000
0000
0000
0000
0000
0000
0000
0000
0M01
0000
0000
0000
0M00
0000
0000
0000
M000
0000
0000
0000
M000
0000
0000
0000
0000
0000
0000
0000
0000
0000
0000
0000
,
0010
0000
0100
0000
1000
0000
0001
0000
0001
0000
0000
0M00
0000
0000
0M00
0000
,
M000
0000
0000
0M00
0000
0000
M000
0000
0M00
0000
0000
0000
0000
0000
0000
0000
0000
0000
0010
0000
0000
0000
0000
0000
0002
0000
0000
0000
0000
0000
0000
0000
0000
0000
0000
0000
0203
0000
0000
0000
0000
0000
0000
0000
0000
0000
0000
0000
,
2300
0000
3100
0001
0000
0000
0000
0000
,
0M00
0000
000M
0000
1000
0000
0000
0001
,
0010
0000
0000
0000
0001
0000
1000
0000
002M
0000
0030
0M00
0000
0000
M000
0000
,
0000
0000
2000
3200
,
0302
0000
0103
1000
0000
0000
0000
0000
,
0000
0000
0000
0000
0000
0000
0000
0000
0001
0000
0000
00M0
0000
0000
00M0
0000
,
1000
0000
0100
0000
0010
0000
0001
0000
M200
0000
0300
M000
0000
0000
M000
0000
,
00M0
0000
0020
0032
,
2003
0000
0000
0000
3100
0000
0002
0000
0003
0000
0000
00M0
0000
0000
00M0
0000
,
0200
0000
0000
0000
0310
0000
00M0
0000
1000
0100
0010
0001
1000
0001
0100
0010
,
1000
0001
1000
0001
0010
0000
00MM
0000
1100
0000
0000
1100
0000
0000
1100
0000
,
0100
0000
0000
0000
0000
0000
1000
0000
0000
0000
0000
0000
0001
0000
0000
0000
0000
0000
1000
0000
0001
0000
1000
0000
0001
0000
0000
1000
0000
0000
0001
0000
0000
1000
0000
0000
0100
0000
0000
0010
0000
0000
0001
0000
0000
1000
0000
0000
,
0010
0000
0000
0010
0000
0000
0100
0000
0000
0001
0000
0000
0001
0000
0000
0010
0000
0000
0100
0000
0000
1000
0100
1000
,
0100
0010
0001
1000
0004
0000
0000
0000
,
0403
0000
0000
0000
0000
0000
0301
0M1M
0010
1000
MM10
0010
,
0001
0000
1000
0000
1010
0000
0010
0000
0100
0010
0100
0010
0100
0010
1000
0000
,
1001
0000
0001
0000
1000
0000
0100
0000
0000
0000
0110
0000
0000
0000
0100
1000
,
0001
0000
0001
0000
0100
0000
0100
0000
0001
1000
0100
1000
0100
0010
0001
1000
,
0001
0100
0010
0100
0001
0000
0M0M
0000
1010
0000
0000
1010
0000
0000
1010
0000
,
0010
0000
0100
0000
0001
0000
1000
0000
0001
1000
0100
1000
0001
1000
0100
0000
,
0010
0000
0000
0010
0000
0000
0001
0000
0000
0100
0000
0000
0100
0000
0000
0010
0000
0000
0000
0000
0000
1000
0001
1000
,
0001
1000
0001
1000
0010
0000
0010
0000
0400
0000
0000
0000
0000
0000
0000
0000
,
0340
0000
0000
0000
0000
0000
1030
M1M0
0100
0001
01MM
0100
,
1000
0000
0001
0000
0011
0000
0000
0000
0010
0100
0010
0100
0010
0100
1000
0000
,
1001
0000
0000
0001
0000
0000
0040
0000
0000
0000
0000
0000
0130
1000
0100
1000
0100
0000
4000
0000
0000
0000
0000
0000
,
3001
0100
0010
0100
0001
0100
0010
0100
0004
0000
0000
0000
0000
0000
0000
0000
,
0000
0000
0000
0003
0000
0000
0000
0000
000M
0000
0000
0M00
0000
0000
M000
0000
,
0000
0000
0000
0000
0000
0000
0000
0000
00M0
0000
0000
0M00
0000
0000
M000
0000
;
