#TITLE:Colors;
#SUBTITLE:-Y&Co Eurobeat Remix-;
#ARTIST:dj TAKA;
#TITLETRANSLIT:;
#SUBTITLETRANSLIT:;
#ARTISTTRANSLIT:;
#CREDIT:;
#BANNER:colorsremix.png;
#BACKGROUND:colorsremix-bg.png;
#LYRICSPATH:;
#CDTITLE:Beatmania IIDX.png;
#MUSIC:08.Colors -Y&Co. Eurobeat Remix-.mp3;
#OFFSET:-1.650;
#SAMPLESTART:40.285;
#SAMPLELENGTH:12.000;
#SELECTABLE:YES;
#BPMS:0.000=156.000,30.000=155.000;
#STOPS:;
#BGCHANGES:;
// cache tags:
#FIRSTBEAT:0.000;
#LASTBEAT:320.000;
#SONGFILENAME:Songs/IzzySM Keyboard Mega Pack/Colors -Y&Co Eurobeat Remix-/colorsremix.sm;
#HASMUSIC:1;
#HASBANNER:1;
#MUSICLENGTH:128.235;
// end cache tags

//---------------dance-single - ----------------
#NOTES:
     dance-single:
     :
     Easy:
     5:
     0.382,0.406,0.148,0.070,0.000,315.000,19.000,9.000,0.000,0.000:  // measure 1
1000
0000
0001
0000
,  // measure 2
1000
0000
0001
0000
,  // measure 3
0010
0000
0100
0000
,  // measure 4
0010
0000
0100
0000
,  // measure 5
1001
0000
1001
0000
0001
1000
0000
1001
,  // measure 6
0000
0000
1000
0000
,  // measure 7
0001
0000
1000
0000
,  // measure 8
2002
0000
0000
3003
,  // measure 9
0000
0000
0010
0000
1000
0000
0100
0001
,  // measure 10
0000
0100
0000
1000
0000
0010
0000
0100
,  // measure 11
0000
0000
1000
0000
0001
0000
1000
0100
,  // measure 12
0000
0010
0000
0001
0000
0100
0000
0000
,  // measure 13
0000
0000
0001
0000
0010
0000
0010
0100
,  // measure 14
0000
1000
0000
0001
0000
0001
0100
0000
,  // measure 15
0000
0000
1000
0000
0001
1000
0000
0010
,  // measure 16
0000
1000
0000
0001
0000
0001
0100
0000
,  // measure 17
1000
1000
0010
0010
,  // measure 18
0100
0100
0001
0001
,  // measure 19
1000
1000
0001
0001
,  // measure 20
1000
1000
0001
0001
,  // measure 21
0010
0000
0010
0000
0100
0000
0100
1000
,  // measure 22
0000
1000
0000
1000
0000
1000
0000
1000
,  // measure 23
0001
0000
0000
0001
1000
0000
0001
1000
,  // measure 24
0000
1000
0000
0010
0000
0010
0000
0010
,  // measure 25
0100
0000
0100
0010
0000
0010
0100
0000
,  // measure 26
0220
0000
0000
0000
,  // measure 27
0000
0000
0000
0330
0000
0000
1000
0000
,  // measure 28
0001
1000
0001
1000
,  // measure 29
0001
0000
0001
0100
0000
0100
0010
0000
,  // measure 30
1000
0000
0000
0100
,  // measure 31
0220
0000
0000
0330
,  // measure 32
1000
0010
0100
0001
,  // measure 33
0010
0100
1000
0010
,  // measure 34
0100
0001
1000
0001
,  // measure 35
1000
0010
0100
0010
,  // measure 36
1001
0000
1000
0000
0001
0100
0000
0100
,  // measure 37
0000
0100
0010
0000
0010
0000
1000
0000
,  // measure 38
0001
0100
0001
0010
,  // measure 39
0100
1000
0001
0100
,  // measure 40
1001
0000
0001
0100
,  // measure 41
0010
0010
1000
0100
,  // measure 42
0001
0001
0100
1000
,  // measure 43
0001
0100
0010
1000
,  // measure 44
1001
0000
0010
0000
1000
0100
0000
0100
,  // measure 45
0000
0100
1000
0000
1000
0000
0010
0000
,  // measure 46
0100
0010
1000
0001
,  // measure 47
1000
0010
0100
0010
,  // measure 48
1000
0000
1000
0000
1000
0000
1000
0001
,  // measure 49
0100
0000
0100
0000
0100
0000
0100
0010
,  // measure 50
1000
0000
1000
0000
1000
0000
1000
0001
,  // measure 51
0010
0000
0010
0000
0010
0000
0010
0001
,  // measure 52
0100
0000
0100
0000
0100
0000
0100
0001
,  // measure 53
1000
0000
1000
0000
1000
0000
1000
0001
,  // measure 54
0010
0010
0010
0010
,  // measure 55
0100
0100
0100
0100
,  // measure 56
0001
1000
0000
1000
0100
0000
0110
0000
,  // measure 57
0010
0001
0000
0001
1000
0000
1001
0000
,  // measure 58
1000
0100
0000
0100
1000
0000
1100
0000
,  // measure 59
1000
0001
0000
0001
0100
0000
0101
0000
,  // measure 60
0001
0010
0000
0010
0100
0010
0000
0100
,  // measure 61
1000
0001
0000
0001
1000
0100
0000
1000
,  // measure 62
0001
0100
0000
0001
0100
0010
0000
0010
,  // measure 63
2000
0000
0000
3000
,  // measure 64
0001
0100
1000
0100
,  // measure 65
0001
1000
0010
0100
,  // measure 66
0010
1000
0001
0010
,  // measure 67
0100
1000
0001
1000
,  // measure 68
1001
0000
1001
0000
1000
0001
0000
0001
,  // measure 69
0000
0001
0100
0000
0100
0000
1000
0000
,  // measure 70
0010
1000
0001
0010
,  // measure 71
0100
1000
0001
1000
,  // measure 72
1010
0010
1000
0001
,  // measure 73
0010
0001
1000
0100
,  // measure 74
1000
0010
0100
0001
,  // measure 75
1000
0100
0001
0100
,  // measure 76
0110
0000
1001
0000
1000
0100
0000
0100
,  // measure 77
0000
0100
0010
0000
0010
0001
1000
0001
,  // measure 78
0100
0000
0000
0100
1000
0001
0000
0001
,  // measure 79
1000
0000
0000
1000
0010
0100
0001
1000
,  // measure 80
2002
0000
0000
0000
,  // measure 81
3003
0000
0000
0000
;

//---------------dance-single - ----------------
#NOTES:
     dance-single:
     :
     Medium:
     8:
     0.566,0.561,0.359,0.140,0.078,444.000,46.000,18.000,0.000,0.000:  // measure 1
1000
0010
0100
0001
0010
0100
1000
0001
,  // measure 2
0000
0001
1000
0100
0010
0001
1000
0001
,  // measure 3
0000
0000
0000
1000
0001
0100
0000
1001
,  // measure 4
0000
1000
0001
0000
0010
1000
0100
0001
,  // measure 5
0101
0000
1010
0000
0010
1000
0000
1100
,  // measure 6
0000
1000
0100
0000
1000
0100
0001
0100
,  // measure 7
1000
0000
1000
0001
0100
0010
0000
0010
,  // measure 8
1000
0000
0000
0000
0000
0001
0100
1000
,  // measure 9
0000
0000
1100
0000
0101
0000
0001
1000
,  // measure 10
0000
1010
0000
0110
0000
1001
0000
0101
,  // measure 11
0000
0000
1001
0000
1100
0000
0100
1000
,  // measure 12
0000
1010
0000
1001
0000
0001
0100
0000
,  // measure 13
0000
0000
0010
1000
0100
0001
0100
1000
,  // measure 14
0001
0100
1000
0100
0010
0100
0001
1000
,  // measure 15
0001
0100
0010
1000
0100
0010
0001
1000
,  // measure 16
0000
1001
0000
0110
0000
0010
0100
0000
,  // measure 17
1000
0010
1000
0001
1000
0100
1000
0001
,  // measure 18
0010
0001
1000
0001
0100
0001
0010
0001
,  // measure 19
0100
1000
0100
0010
0100
0001
0100
0010
,  // measure 20
1000
0010
0100
0010
0001
0010
1000
0010
,  // measure 21
1001
0000
1001
0000
0000
1000
0001
2000
,  // measure 22
0000
0001
0000
0001
0000
0001
3000
0000
,  // measure 23
1010
0000
0000
0010
1000
0000
0100
0001
,  // measure 24
0000
0100
0000
1000
0000
1000
0000
0000
,  // measure 25
0100
0000
0000
0100
0000
0010
0001
0000
,  // measure 26
2002
0000
0000
0000
,  // measure 27
0000
0000
0000
0000
3003
0000
1000
0100
,  // measure 28
0001
0000
0001
0100
0000
0100
1000
0000
,  // measure 29
1010
0000
0010
0100
0000
0100
0001
0000
,  // measure 30
0011
0000
0000
0000
0000
0000
0001
1000
,  // measure 31
0100
1000
0010
1000
0001
1000
0100
1000
,  // measure 32
1001
0000
0000
1000
0100
0001
0100
1000
,  // measure 33
0000
1000
0001
0001
0100
1000
0100
0001
,  // measure 34
0000
0001
0100
0100
0010
1000
0000
1001
,  // measure 35
0000
1000
0001
0000
0010
0100
0010
0100
,  // measure 36
0110
0000
1010
0000
0010
1000
0000
1100
,  // measure 37
0000
1000
0100
0000
0001
0100
1000
0010
,  // measure 38
0100
0000
0000
1000
0001
1000
0000
0110
,  // measure 39
2002
0000
0000
0000
3003
0000
1000
0001
,  // measure 40
0010
0000
0000
0010
0000
0000
0010
0000
0100
0000
0000
0100
0000
0000
0100
0000
,  // measure 41
0001
0000
0000
0001
0000
0000
0001
0000
1000
0000
0000
1000
0000
0000
1000
0000
,  // measure 42
0100
0000
0000
0100
0000
0000
0100
0000
0001
0000
0000
0001
0000
0000
0001
0000
,  // measure 43
0100
0000
0000
0100
0000
0000
0100
0000
1000
0000
0000
1000
0000
0000
1000
0000
,  // measure 44
1001
0000
1000
0100
0001
0100
1000
0001
,  // measure 45
0100
1000
0100
0001
1000
0100
0001
0100
,  // measure 46
1000
0000
0000
1000
0001
0100
0000
1010
,  // measure 47
0202
0000
0303
0000
1000
0100
0001
0100
,  // measure 48
1000
0000
0000
1000
0000
0000
1000
0000
0100
0000
0000
0100
0000
0000
0100
0000
,  // measure 49
0001
0000
0000
0001
0000
0000
0001
0000
0100
0000
0000
0100
0000
0000
0100
0000
,  // measure 50
0010
0000
0000
0010
0000
0000
0010
0000
0001
0000
0000
0001
0000
0000
0001
0000
,  // measure 51
1000
0000
0000
1000
0000
0000
1000
0000
0100
0000
0000
0100
0000
0000
0100
0000
,  // measure 52
2200
0000
3300
1000
,  // measure 53
1000
0010
0000
0010
0100
0001
0000
0001
,  // measure 54
1000
0000
0000
1000
0000
0000
1000
0000
0100
0000
0000
0100
0000
0000
0100
0000
,  // measure 55
0010
0000
0000
0010
0000
0000
0010
0000
0001
0000
0000
0001
0000
0000
0001
0000
,  // measure 56
2002
0000
0000
0000
0000
3003
0000
1000
,  // measure 57
0001
0000
0000
0000
0001
0100
0000
0100
,  // measure 58
0010
1000
0100
0001
0100
1000
0001
0100
,  // measure 59
1000
0100
0001
1000
0100
0010
0001
1000
,  // measure 60
1000
1000
1000
1000
0010
0010
0010
0010
,  // measure 61
0100
0100
0100
0100
0001
0001
0001
0001
,  // measure 62
2002
0000
0000
0000
,  // measure 63
0000
0000
0000
0000
3003
0000
1000
0001
,  // measure 64
1000
0100
0001
0100
1000
0001
0100
1000
,  // measure 65
0100
0001
1000
0010
0100
0001
1000
0010
,  // measure 66
1000
0100
0001
0100
1000
0001
0100
1000
,  // measure 67
0100
0010
1000
0001
0010
0100
0001
0100
,  // measure 68
1100
0000
0101
0000
0001
0100
0000
0110
,  // measure 69
0000
0100
0010
0000
1000
0010
0001
0010
,  // measure 70
1000
0000
0000
1000
0100
0001
0000
0100
,  // measure 71
2200
0000
0000
0000
3300
0000
1000
0001
,  // measure 72
0100
0010
1000
0100
1000
0010
1000
0001
,  // measure 73
0100
0010
1000
0001
0010
0100
0001
0100
,  // measure 74
1000
0001
0100
0010
1000
0001
0100
0010
,  // measure 75
0000
0010
1000
0000
1001
1000
1001
0001
,  // measure 76
1001
0000
0011
0000
0010
0001
0000
0101
,  // measure 77
0000
0001
0200
0000
0300
0000
0010
1000
,  // measure 78
0001
0000
0000
0001
1000
0100
0000
1000
,  // measure 79
1001
0000
0000
1000
0100
0001
0100
1000
,  // measure 80
2002
0000
0000
0000
,  // measure 81
3003
0000
0000
0000
;

//---------------dance-single - ----------------
#NOTES:
     dance-single:
     :
     Hard:
     10:
     0.842,1.000,0.406,0.140,0.589,686.000,52.000,18.000,0.000,0.000:  // measure 1
1000
0000
0010
0000
0100
0000
0001
0000
1000
0010
0100
0000
0001
0000
0020
0000
,  // measure 2
0000
0000
0001
0000
0031
0000
1001
0000
1000
0001
0100
0000
0001
0000
0100
0000
,  // measure 3
0000
0000
0110
0000
1010
0000
1000
0000
0010
1000
0010
0000
1000
0000
0001
0000
,  // measure 4
0000
0000
0010
0000
0100
0000
0000
0000
0000
0000
1010
0000
0010
1000
0001
0000
,  // measure 5
1001
0000
0021
0000
0031
1000
0000
1100
,  // measure 6
0000
0000
0100
1000
0010
0000
0000
0000
0000
0000
0010
0000
1000
0000
0001
0000
,  // measure 7
0100
0000
0000
0000
0000
0000
0001
1000
0001
0000
0100
0000
0000
0000
1100
0000
,  // measure 8
0202
0000
0303
0000
0000
1000
0001
1000
,  // measure 9
0010
0000
0100
0000
0001
1000
0001
0000
1000
0000
0010
0000
0100
0000
1100
0000
,  // measure 10
1000
1001
0001
0101
0100
0110
0010
0100
,  // measure 11
0000
0000
0000
0000
1000
0000
1000
0000
0010
0100
0001
0000
0100
0000
0010
0000
,  // measure 12
0110
0100
0101
0001
1001
1000
1010
0010
,  // measure 13
1000
0000
0000
0000
0001
0000
0100
0000
0010
1000
0100
0000
0001
0000
0100
0000
,  // measure 14
0000
1000
0000
0001
0000
1010
0011
0000
,  // measure 15
0000
0000
1001
0000
0001
1000
0000
0110
,  // measure 16
0000
1010
0000
0101
0000
1000
1100
0000
,  // measure 17
1000
0010
1000
0100
0001
0100
1000
0001
,  // measure 18
0100
1000
0100
0000
0010
0000
1000
0000
0100
0000
0001
0000
0100
0000
1000
0000
,  // measure 19
0001
0100
0010
1000
0100
0010
0001
0100
,  // measure 20
0010
1000
0010
0000
1000
0000
0001
0000
0010
0001
0010
0000
1000
0000
0001
0000
,  // measure 21
0100
1000
0100
0001
1000
0100
0001
0100
,  // measure 22
1000
0001
0100
0000
0010
0000
1000
0000
0100
0000
0010
0000
0001
0000
1000
0000
,  // measure 23
0010
0100
0001
0100
1000
0100
0010
0100
,  // measure 24
0001
1000
0001
0000
0100
0000
0001
0000
0010
0100
0010
0000
0001
0000
0100
0000
,  // measure 25
1001
0000
0001
1000
0000
1000
0001
0000
,  // measure 26
1001
0000
1000
0000
0001
0000
0100
0000
0010
1000
0010
0000
1000
0000
0001
0000
,  // measure 27
0010
0000
0001
0000
0010
0000
1000
0000
0001
0100
1000
0000
0100
0000
0001
0000
,  // measure 28
0010
0000
0110
0100
0000
0100
1100
0000
,  // measure 29
1001
0000
1000
0001
0000
0001
1000
0000
,  // measure 30
2002
0000
0000
0000
3003
0000
1000
0001
,  // measure 31
1000
0001
1000
0001
1000
0001
1000
0001
1000
0001
1000
0000
1000
0000
0010
0000
,  // measure 32
1000
0000
0100
0000
0001
0000
0100
0000
1000
0001
0100
0000
0010
0000
2000
0000
,  // measure 33
0000
0000
0001
0000
3100
0000
0011
0000
0010
0001
0010
0000
0100
0000
1000
0000
,  // measure 34
0001
0100
1000
0100
1000
0100
0001
0100
,  // measure 35
0001
0100
0001
0000
0100
0000
0100
0000
0001
1000
0001
0000
1000
0000
0100
0000
,  // measure 36
0000
0000
1001
0000
0001
1000
0000
1100
,  // measure 37
0000
0100
0010
0000
0001
1000
0010
0100
,  // measure 38
0001
1000
0001
0000
1000
0000
0010
0000
1000
0001
1000
0000
0001
0000
0010
0000
,  // measure 39
0100
1000
0001
0100
0010
1000
0001
0010
0100
1000
0001
0100
0010
1000
0001
0000
,  // measure 40
1000
0000
0001
0000
0100
0000
0010
0000
1000
0010
1000
0010
1000
0010
1000
0010
,  // measure 41
0000
0010
1000
0000
0001
0000
0010
0000
0001
0010
0001
0010
0001
0010
0001
0010
,  // measure 42
0000
0010
0100
0000
1000
0000
0010
0000
0100
0001
0100
0001
0100
0001
0000
0000
,  // measure 43
0000
0101
0202
0000
0000
0000
0000
0000
,  // measure 44
0303
0000
1001
0000
1000
0001
0100
0010
,  // measure 45
0000
0000
0100
0010
1000
0000
0000
0000
1000
0000
0001
0000
0010
0000
0100
0000
,  // measure 46
1000
0001
1000
0000
0001
0000
0100
0000
0001
1000
0001
0000
1000
0000
0100
0000
,  // measure 47
1000
0010
1000
0000
0001
0100
0001
0000
1000
0010
1000
0000
0001
0100
0001
0000
,  // measure 48
1000
0000
1000
0010
0000
0010
0100
0000
0100
0001
0100
0000
0001
1000
0001
0000
,  // measure 49
1000
0000
1000
0010
0000
0010
0100
0000
0010
0100
0010
0000
0010
1000
0100
0000
,  // measure 50
0100
0000
0100
0010
0000
0010
0001
0000
0001
1000
0001
0000
1000
0010
1000
0000
,  // measure 51
0010
0100
0010
0000
0100
0001
0100
0000
0001
1000
0001
0000
1000
0100
1000
0000
,  // measure 52
0100
1000
0100
0000
1000
0000
1000
0010
0000
0010
0100
0000
0001
0000
1000
0000
,  // measure 53
0001
0010
0001
0000
0010
0000
0010
0100
0000
0100
1000
0000
0010
0000
1000
0000
,  // measure 54
1000
0001
1000
0000
0001
0100
0001
0000
0100
0010
0100
0000
0010
1000
0010
0000
,  // measure 55
1000
0001
1000
0000
0001
0010
0001
0000
0010
0100
0010
0000
0100
1000
0100
0000
,  // measure 56
1000
0001
0000
0001
0100
0000
0100
0010
0000
0010
1000
0000
1001
0000
1001
0000
,  // measure 57
0001
1000
0000
1000
0010
0000
0010
0100
0000
0100
0010
0000
0110
0000
0110
0000
,  // measure 58
0010
1000
0000
1000
0100
0000
0100
0001
0000
0001
0100
0000
1100
0000
1100
0000
,  // measure 59
1000
0100
1000
0000
0100
0010
0100
0000
0010
0001
0010
0000
0001
1000
0001
0000
,  // measure 60
1000
0100
1000
0100
1000
0100
1000
0100
1000
0001
1000
0001
1000
0001
1000
0001
,  // measure 61
0010
0001
0010
0001
0010
0001
0010
0001
0010
0100
0010
0100
0010
0100
0010
0100
,  // measure 62
1000
0100
1000
0100
1000
0100
1000
0100
1000
0001
1000
0001
1000
0001
1000
0001
,  // measure 63
2002
0000
3003
1000
0001
1000
0001
1000
,  // measure 64
2002
0000
0000
0000
3003
0000
1000
0000
0001
0100
0010
0000
1000
0000
0010
0000
,  // measure 65
0000
0010
1000
0000
0010
0000
1000
0000
0001
0010
0001
0000
0010
0000
0001
0000
,  // measure 66
0000
0001
0100
0000
0010
0000
0100
0000
1000
0001
1000
0000
0001
0000
0100
0000
,  // measure 67
0000
0010
0100
0000
0001
0000
0000
0000
1000
0000
0010
0000
0100
0000
0001
0000
,  // measure 68
1001
0000
1001
0000
1000
0010
0100
0000
0001
0000
0010
0000
0100
0000
1000
0000
,  // measure 69
0001
0100
0010
0000
1000
0000
0010
0000
1000
0000
0001
0000
0010
0000
0100
0000
,  // measure 70
1000
0001
0100
0000
0001
0000
1000
0000
0010
1000
0010
0000
1000
0000
0001
0000
,  // measure 71
0010
0001
0010
0000
0100
1000
0100
0000
1000
0001
0010
0000
0001
0010
0100
0000
,  // measure 72
1000
0001
0100
0010
1000
0000
0001
0000
0010
0000
0100
0000
1000
0000
0001
0000
,  // measure 73
0100
1000
0100
0001
1000
0000
0100
0000
0001
0000
0100
0000
1000
0000
0001
0000
,  // measure 74
0100
0010
1000
0001
0010
0000
0100
0000
1000
0000
0001
0000
0100
0000
0010
0000
,  // measure 75
1000
0010
1000
0000
0001
0100
0001
0000
0100
0010
1000
0000
1000
0001
0100
0000
,  // measure 76
1001
0000
1200
0000
1300
1000
0000
1010
,  // measure 77
0000
0000
0010
1000
0001
0000
0000
0000
0000
0000
1001
0000
0010
0000
0100
0000
,  // measure 78
0001
0000
0000
0000
0000
0000
1000
0010
1000
0000
0001
0000
0000
0000
1000
0000
,  // measure 79
2002
3003
0000
1000
0001
1000
0001
1000
,  // measure 80
2002
0000
0000
0000
0000
0000
0000
3003
;
