#TITLE:spiral galaxy;
#SUBTITLE:-L.E.D. Style Spreading Particle Beam Mix-;
#ARTIST:dj TAKA;
#TITLETRANSLIT:;
#SUBTITLETRANSLIT:;
#ARTISTTRANSLIT:;
#CREDIT:;
#BANNER:spiralremix.png;
#BACKGROUND:spiralremix-bg.png;
#LYRICSPATH:;
#CDTITLE:!auraelogo_new.png;
#MUSIC:spiralremix.mp3;
#OFFSET:-0.098;
#SAMPLESTART:62.305;
#SAMPLELENGTH:12.440;
#SELECTABLE:YES;
#BPMS:0.000=154.000;
#STOPS:;
#BGCHANGES:;
// cache tags:
#FIRSTBEAT:16.000;
#LASTBEAT:320.000;
#SONGFILENAME:Songs/toune 4/spiral galaxy -L.E.D. Style Spreading Particle Beam Mix-/spiralremix.sm;
#HASMUSIC:1;
#HASBANNER:1;
#MUSICLENGTH:125.622;
// end cache tags

//---------------dance-single - ----------------
#NOTES:
     dance-single:
     :
     Easy:
     5:
     0.289,0.446,0.167,0.040,0.000,228.000,21.000,5.000,0.000,0.000:
0000
0000
0000
0000
,
0000
0000
0000
0000
,
0000
0000
0000
0000
,
0000
0000
0000
0000
,
0200
0000
0000
0000
,
0320
0000
0000
0000
,
1030
0000
0001
0000
,
1001
0000
0000
0000
,
1000
0010
1000
0010
,
0100
0001
0100
0000
,
0001
1000
0001
1000
,
0010
0100
0010
0000
,
0001
0100
0001
0100
,
0010
1000
0010
0000
,
1000
0001
1000
0001
,
0100
0010
0100
0000
,
0001
0010
0100
1000
,
0100
0010
0001
0001
,
1000
0100
0010
0001
,
0010
0100
1000
1000
,
0001
1000
0001
0100
,
0001
1000
0001
0000
,
1000
0001
1000
0010
,
1000
0001
1000
0000
,
0100
0010
0001
0010
,
0100
1000
0100
0100
,
0010
0100
1000
0100
,
0010
0001
0010
0010
,
0100
0001
0100
0010
,
0100
0001
0100
0000
,
0010
1000
0010
0100
,
0110
0000
0000
0000
,
1000
1000
0001
1000
,
0001
0001
1000
0000
,
0010
1000
0010
0000
,
0100
0001
0100
0000
,
0010
0010
0100
0010
,
0100
0100
0010
0000
,
1000
0001
1000
0000
,
1001
0000
0000
0000
,
0100
0100
0100
0110
,
0010
0010
0010
1010
,
1000
1000
1000
1001
,
0001
0001
0001
0000
,
0100
0100
0100
0101
,
0001
0001
0001
1001
,
1000
1000
1000
1010
,
0010
0100
0010
0100
,
0001
1000
0100
0000
,
1000
0001
0100
0000
,
0100
0010
1000
0000
,
0010
0100
0001
0000
,
1000
0001
0100
0001
,
1000
0100
1000
0000
,
0001
0100
0010
1000
,
0001
1000
0100
0000
,
1001
0100
0001
0000
,
0010
0100
1000
0000
,
0001
1000
0100
1000
,
0001
0010
0100
0000
,
0110
0100
0001
0000
,
1000
0001
0100
0000
,
0001
1000
0100
0010
,
0001
0010
0100
0000
,
1001
0100
0010
1000
,
0100
1000
0001
0100
,
0001
1000
0100
1000
,
0010
0100
0010
1000
,
1001
0100
0000
0100
,
1001
0010
0000
0010
,
1001
0000
1100
0000
,
1001
0110
1001
0110
,
2002
0000
0000
0000
,
0000
0000
0000
0000
,
0000
0000
0000
0000
,
0000
0000
0000
0003
,
3020
0000
0000
0000
,
0000
0000
0000
0000
,
0000
0000
0000
0000
,
0000
0000
0000
0000
,
0030
0000
0000
0000
;

//---------------dance-single - ----------------
#NOTES:
     dance-single:
     :
     Medium:
     7:
     0.509,0.573,0.111,0.151,0.032,415.000,14.000,19.000,0.000,0.000:
0000
0000
0000
0000
,
0000
0000
0000
0000
,
0000
0000
0000
0000
,
0000
0000
0000
0000
,
0010
1000
0001
1000
,
0010
0100
0001
0100
,
0001
1000
0010
0100
,
1001
0000
0000
0000
,
1000
0010
1000
0000
0001
0100
0001
0000
,
1000
0000
0001
0000
0100
0010
1000
0000
,
0010
0100
0010
0000
1000
0001
0100
0000
,
0010
0000
1000
0001
0100
0001
1000
0000
,
0010
1000
0010
0000
0100
0001
0100
0000
,
0001
0000
1000
0010
1000
0000
0100
0000
,
1000
0100
1000
0000
0001
1000
0001
0000
,
0100
0000
0010
0000
1000
0000
0010
0000
0100
0010
0100
0000
0000
0000
0000
0000
,
0001
1000
0001
0100
0010
0100
0001
0000
,
1000
0001
0100
0001
0010
0100
0010
0000
,
1000
0001
0100
0001
0010
0100
1000
0000
,
0100
0001
1000
0010
0100
0010
1000
0000
,
0100
0001
1000
0001
0010
0100
0010
0000
,
1000
0001
0100
0001
1000
0100
0010
0000
,
1000
0001
0100
0000
0010
1000
0001
0000
,
0100
0010
0100
0010
1000
0000
0001
0001
,
0100
0001
1000
0100
1000
0001
0100
0000
,
0010
1000
0001
0100
0001
1000
0010
0000
,
0100
0010
1000
0100
1000
0001
0100
0000
,
0010
1000
0100
1000
0001
0100
0010
0000
,
0001
0100
0010
1000
0100
0010
0001
0000
,
1000
0001
0100
0001
1000
0100
1000
0000
,
0001
0010
0100
0001
1000
0001
0100
0000
,
1001
1000
0001
0000
1000
0001
1000
0000
,
0100
0000
0000
0000
0010
0000
0000
0000
1000
0000
0000
0001
0000
0000
0100
0000
,
0001
0000
1000
0000
0001
0000
0000
0000
1000
0000
0000
0010
0000
0000
1000
0000
,
0001
0000
0000
0000
1000
0000
0000
0000
0001
0000
0000
1000
0000
0000
0010
0000
,
1000
0000
0001
0000
0100
0000
0000
0000
0001
0000
0000
1000
0000
0000
0100
0000
,
1000
0000
0000
0000
0010
0000
0000
0000
0100
0000
0000
0001
0000
0000
1000
0000
,
0001
0000
0010
0000
0100
0000
0000
0000
0010
0000
0000
1000
0000
0000
0001
0000
,
0100
0000
0000
0000
0001
0000
0000
0000
1000
0000
0000
0100
0000
0000
1000
0000
,
0010
0100
0010
0000
1000
0000
0001
0100
,
0001
1000
0100
1000
0001
0100
0020
0000
,
1030
0001
0100
0001
1000
0100
0020
0000
,
1030
0001
0100
0010
1000
0001
0020
0000
,
1030
0001
0100
0010
1000
0100
0020
0000
,
1030
0001
0100
0001
0010
0001
0200
0000
,
0310
1000
0001
0100
0001
1000
0200
0000
,
0310
1000
0100
1000
0001
0010
0200
0000
,
0301
1000
0100
0010
0001
1000
0200
0000
,
0301
1000
0100
1000
0010
0100
0002
0000
,
1003
0001
0100
0010
0001
0010
2000
0000
,
3001
0100
0001
1000
0100
0010
2000
0000
,
3001
0100
0010
1000
0100
0010
2000
0000
,
3001
1000
0100
1000
0010
0100
0002
0000
,
1003
0001
0010
0100
0010
1000
0002
0000
,
1003
0010
1000
0010
0100
0010
0002
0000
,
0103
0001
0100
0010
1000
0100
0002
0000
,
1003
0000
0101
0000
1000
0001
0100
0000
,
0001
0000
1000
0000
0010
0100
0010
0100
,
0001
0000
1010
0000
0100
0001
1000
0000
,
0010
0000
1000
0001
0100
0001
1000
0000
,
0100
0000
1001
0000
0010
0100
0010
0000
,
1000
0000
0001
0000
0010
1000
0010
1000
,
0100
0000
0011
0000
0100
0001
1000
0000
,
0001
0000
0010
1000
0100
1000
0001
0000
,
0100
0000
1001
0000
0010
1000
0001
0000
,
0100
0000
1000
0000
0001
0100
0010
0000
,
0100
0000
1001
0000
0100
1000
0001
0000
,
0100
0000
0010
1000
0100
1000
0001
0000
,
0010
0000
1100
0000
0010
0100
0010
0000
,
1000
0000
0100
1000
0010
0000
0100
0000
,
0001
1000
0001
1000
0100
1000
0010
0100
,
0101
0011
1001
1100
,
2002
0000
0000
0000
,
0000
0000
0000
0000
,
0000
0000
0000
0000
,
0000
0000
0000
0003
,
3020
0000
0000
0000
,
0000
0000
0000
0000
,
0000
0000
0000
0000
,
0000
0000
0000
0000
,
0030
0000
0000
0000
;

//---------------dance-single - ----------------
#NOTES:
     dance-single:
     :
     Hard:
     9:
     0.639,0.732,0.096,0.159,0.231,530.000,12.000,20.000,0.000,0.000:
0000
0000
0000
0000
,
0000
0000
0000
0000
,
0000
0000
0000
0000
,
0000
0000
0000
0000
,
1000
0100
1000
0001
,
0100
0001
1000
0001
,
0110
1000
0001
0100
,
2002
0000
0000
0000
0000
0000
0000
3003
,
0100
0001
1000
0001
0100
0010
1000
0100
,
1000
0001
0100
0010
1000
0100
1000
0000
,
1000
0001
0100
0001
1000
0100
1000
0010
,
0100
0010
1000
0100
1000
0001
0100
0100
,
0001
1000
0100
1000
0001
0100
0010
1000
,
0100
0010
0001
0010
0100
0001
1000
0000
,
0001
0100
0010
1000
0100
1000
0010
0100
,
1001
0000
1000
0000
0001
0000
1000
0000
0001
0100
0001
0000
0110
0000
0000
0000
,
1000
0001
1000
0000
0001
0000
0100
0000
0001
0000
1000
0000
0100
0000
1000
0000
,
0001
0010
0001
0000
0100
0000
0010
0000
1000
0000
0100
1000
0000
0001
0000
0100
,
0010
1000
0001
0100
0001
1000
0100
1000
,
0010
0100
0010
0000
1000
0000
0001
0000
0100
0000
0010
0000
1000
0000
0000
0000
,
0100
0001
0100
0000
0001
0000
1000
0000
0001
0000
0100
0000
0010
0000
1000
0000
,
0100
0000
1000
0000
0001
0000
0100
0000
0010
0000
1000
0001
0000
0010
0000
0001
,
0100
0010
1000
0001
0100
0001
1000
0010
,
0100
0001
0010
0000
1000
0000
0100
0000
0010
0000
0001
0000
0010
0000
0010
0000
,
1000
0010
1000
0000
0001
0000
0100
0000
0001
0000
1000
0000
0100
0000
1000
0000
,
0010
0000
0100
0000
0010
0000
1000
0000
0001
0000
1000
0010
0000
1000
0000
0001
,
0100
0001
1000
0100
1000
0010
0100
0010
,
1000
0001
0100
0000
0010
0000
0001
0000
0010
0000
0100
0000
0001
0000
0000
0000
,
1000
0001
0100
0000
0001
0000
1000
0000
0001
0000
0010
0000
0100
0000
0010
0000
,
1000
0000
0001
0000
0100
0000
0001
0000
1000
0000
0010
1000
0000
0100
0000
1000
,
0001
0100
0001
0010
0100
0010
1000
0100
,
1001
0000
0000
0000
,
0001
0100
0001
1000
0100
1000
0010
0100
,
0010
1000
0100
1000
0001
0010
0100
1000
,
0100
1000
0001
0100
0001
1000
0010
0100
,
0010
1000
0100
0010
0001
0010
0100
0010
,
1000
0001
0100
0001
1000
0100
1000
0001
,
0100
0010
0100
0001
1000
0100
1000
0001
,
0100
0001
0010
0100
0010
1000
0001
0100
,
1001
0000
1000
0000
0001
0000
0000
0000
0100
0000
0000
0010
0000
0000
1000
0000
,
0001
0000
0100
0001
1000
0000
0010
0000
1000
0000
0001
0000
0100
0002
0000
0000
,
1003
0000
0010
0100
0001
0000
1000
0000
0001
0000
0100
0000
0010
2000
0000
0000
,
3100
0000
1000
0001
0100
0000
0010
0000
1000
0000
0100
0000
1000
0020
0000
0000
,
0130
0000
0001
0100
0010
0000
1000
0000
0001
0000
0100
0000
0010
0200
0000
0000
,
0301
0000
0100
0001
1000
0000
0001
0000
0100
0000
0010
0000
1000
0200
0000
0000
,
0310
0000
1000
0100
1000
0000
0001
0000
0100
0000
0010
0000
1000
0002
0000
0000
,
0103
0000
0001
0010
0100
0000
0001
0000
0100
0000
0010
0000
1000
0020
0000
0000
,
0130
0000
1000
0010
0100
0000
0010
0000
1000
0100
0000
0100
0001
1000
0001
0100
,
0010
0000
1000
0001
0100
0000
0001
0000
1000
0000
0010
0000
0100
0002
0000
0000
,
1003
0000
0001
0100
0001
0000
1000
0000
0010
0000
0100
0000
0001
2000
0000
0000
,
3010
0000
1000
0100
1000
0000
0001
0000
0100
0000
0010
0000
1000
0020
0000
0000
,
0130
0000
0001
1000
0100
0000
1000
0000
0001
0000
0100
0000
0010
0200
0000
0000
,
0301
0000
1000
0001
0100
0000
0001
0000
1000
0000
0010
0000
1000
0020
0000
0000
,
0130
0000
0001
1000
0100
0000
1000
0000
0010
0000
0100
0000
0010
2000
0000
0000
,
3001
0000
0100
0010
1000
0000
0100
0000
1000
0000
0010
0000
0100
0002
0000
0000
,
0103
0000
1000
0001
0100
0000
0001
0000
1000
0000
0001
0000
0010
0200
0000
0000
,
0310
1000
0001
0100
0001
1000
0001
0100
,
0001
1000
0010
0100
1000
0100
0010
1000
,
0100
1000
0001
0100
0001
1000
0100
1000
,
0001
1000
0100
1000
0010
0100
0001
1000
,
0001
0100
0010
1000
0001
0100
0010
1000
,
0100
1000
0001
0010
0100
1000
0100
0010
,
1000
0100
1000
0001
0100
0001
1000
0010
,
0100
0010
1000
0100
0010
0001
0010
0100
,
1001
0010
0100
0000
0001
1000
0100
0000
,
1000
0001
0100
0000
0001
0010
1000
0000
,
0100
0010
1000
0000
0100
0010
0001
0000
,
0001
0000
1000
0000
0100
0000
0000
0000
1000
0000
0001
0000
0100
0000
0000
0100
,
0001
1000
0100
0000
0001
1000
0100
0000
,
1000
0001
0100
0000
1000
0001
0010
0000
,
1000
0001
0100
0001
0010
0100
1000
0100
,
1010
1001
0011
0110
,
2002
0000
0000
0000
,
0000
0000
0000
0000
,
0000
0000
0000
0000
,
0000
0000
0000
0003
,
3020
0000
0000
0000
,
0000
0000
0000
0000
,
0000
0000
0000
0000
,
0000
0000
0000
0000
,
0030
0000
0000
0000
;
