#TITLE:Candy Galy;
#SUBTITLE:;
#ARTIST:Risk Junk-G;
#TITLETRANSLIT:;
#SUBTITLETRANSLIT:;
#ARTISTTRANSLIT:;
#CREDIT:;
#BANNER:../Banner.png;
#BACKGROUND:../BG.png;
#LYRICSPATH:;
#CDTITLE:../CDTitleKIRBY.png;
#MUSIC:Candy Galy.ogg;
#OFFSET:-0.148;
#SAMPLESTART:76.126;
#SAMPLELENGTH:22.000;
#SELECTABLE:YES;
#BPMS:0.000=184.000;
#STOPS:;
#BGCHANGES:;
// cache tags:
#FIRSTBEAT:1.000;
#LASTBEAT:376.000;
#SONGFILENAME:Songs/Index Tesseract/Candy Galy - [Kirby5464]/Candy Galy.sm;
#HASMUSIC:1;
#HASBANNER:1;
#MUSICLENGTH:124.055;
// end cache tags

//---------------dance-single - ----------------
#NOTES:
     dance-single:
     :
     Challenge:
     15:
     1.000,1.000,0.500,0.403,1.000,1037.000,62.000,50.000,1.000,0.000:
0000
0000
1000
0001
0101
0001
1000
0001
,
1001
1000
0100
0010
0011
1000
0010
0100
,
0110
0010
1000
0001
1100
0100
0010
1000
,
1001
1000
0001
1000
1010
1000
0001
1000
,
1001
0001
0010
0100
1100
0001
0100
0010
,
0110
0100
0001
1000
0011
0010
0100
0001
,
1001
0001
0100
0010
0110
0010
1000
0001
,
0101
0100
0010
1000
1010
1000
0001
0100
,
0001
0010
0100
1000
0001
0000
1000
0000
1010
0000
1000
0000
0001
0000
1000
0000
,
1001
0001
0010
0100
1100
0001
0100
0010
,
0110
0100
0001
1000
0011
0010
0100
0001
,
1001
0100
0010
1000
1100
0001
1000
0001
,
1001
1000
0100
0010
0011
1000
0010
0100
,
0110
0010
1000
0001
0101
0100
0010
1000
,
1100
0000
1000
0000
0001
0000
0100
0000
0010
1000
0100
0010
0001
1000
0100
1000
,
0001
0100
0010
1000
0001
1000
0100
0010
0001
0100
0010
0100
0001
0010
0001
1000
,
0010
0000
0100
0000
0001
0010
0100
1000
0001
0010
0001
1000
0100
0010
0100
1000
,
0001
0100
0001
0010
0100
1000
0010
0100
0010
1000
0100
1000
0001
0010
0001
1000
,
0100
0010
0001
1000
0010
1000
0001
0010
0100
0010
0001
1000
0100
1000
0001
0010
,
0001
1000
0100
0010
0001
1000
0100
1000
0001
0100
0010
1000
0001
1000
0100
0010
,
0001
0100
0010
0100
0001
0010
0001
1000
0100
0010
0001
1000
0100
1000
0001
0010
,
0100
0010
0001
1000
0010
1000
0100
0010
0001
0100
0010
0100
0001
0010
0001
1000
,
0100
1000
0001
0010
0100
1000
0001
0100
0001
1000
0100
0010
0100
1000
0001
0010
,
0001
1000
0100
1000
0001
0010
0100
1000
0001
0010
0001
1000
0010
0100
0001
1000
,
0001
0010
0100
1000
0010
0100
0010
1000
0100
1000
0001
0010
0100
1000
0001
0010
,
0001
1000
0100
0010
0100
1000
0001
0100
0001
0010
0100
1000
0010
0100
0010
1000
,
0100
1000
0001
0010
0001
1000
0100
0010
0001
1000
0010
1000
0001
0010
0100
0010
,
0001
1000
0100
1000
0001
0010
0001
1000
0100
0010
0001
1000
0100
1000
0001
0100
,
0010
1000
0001
1000
0100
0010
0001
0100
0010
0100
0001
0010
0001
1000
0100
0010
,
0001
1000
0100
1000
0001
0010
0100
0010
0001
1000
0010
1000
0100
0010
0001
0100
,
0010
0100
0001
0010
0001
1000
0100
1000
0001
0010
0100
1000
0001
0100
0001
1000
,
0100
0010
0100
1000
0001
0010
0001
1000
0100
1000
0001
0010
0100
1000
0001
0010
,
0001
1000
0010
0100
0001
0000
1001
0000
0101
0000
0000
0000
1100
0000
0110
0000
,
0011
0000
1010
0110
0101
0110
1002
0003
,
0000
2000
3010
0100
,
0001
0020
0130
1000
,
0001
2000
3010
0100
,
0001
0020
0031
1000
,
0100
2000
3001
0010
,
0100
2000
3001
0010
,
0100
0020
0031
1000
,
0200
0320
0032
2003
,
3020
0000
0130
0000
0001
1000
1001
0000
,
1000
0100
0010
0001
1000
0010
1010
0000
,
0001
0010
0011
0000
1000
0100
1100
0000
,
0001
0100
0001
0010
0100
1000
1001
0000
,
1000
0010
0110
0000
0001
1000
0101
0000
,
1000
0010
1000
0001
0010
0100
1100
0000
,
0001
0100
0110
0000
2000
0000
3200
0000
,
0320
0032
2003
3020
,
0230
0000
0000
0000
0000
0000
0000
0300
0102
0000
0000
0000
0000
0000
0000
0000
2003
0000
0000
0000
0000
0000
0000
0000
3020
0000
0000
0000
0000
0000
0000
0000
,
0230
0302
0023
0230
,
2300
3002
0023
0230
,
2300
3002
0023
0230
,
2300
0000
3002
0023
0230
2300
3002
0023
,
0230
0000
2300
0000
3001
0010
0100
1000
0001
0010
0100
1000
0001
0010
0100
1000
,
0001
0100
0010
1000
0001
0000
0000
0000
0000
0000
1100
0000
0110
0000
0011
0000
,
1010
0000
0101
0000
0002
0000
0023
0000
0230
0000
2300
0000
3001
0100
0010
1000
,
0100
0010
0001
1000
0010
0100
0001
1000
0001
0010
0100
1000
0010
0100
0010
1000
,
0100
1000
0001
0010
0100
1000
0001
0010
0001
1000
0100
0010
0100
1000
0001
0100
,
0001
0010
0100
1000
0010
0100
0010
1000
0100
1000
0001
0010
0001
1000
0100
0010
,
0001
1000
0010
1000
0001
0010
0100
0010
0001
1000
0100
1000
0001
0010
0001
1000
,
0100
0010
0001
1000
0100
1000
0001
0100
0010
1000
0001
1000
0100
0010
0001
0100
,
0010
0100
0001
0010
0001
1000
0100
0010
0001
1000
0100
1000
0001
0010
0100
0010
,
0001
1000
0010
1000
0100
0010
0001
0100
0010
0100
0001
0010
0001
1000
0100
1000
,
0001
0010
0100
1000
0001
0100
0001
1000
0100
0010
0100
1000
0001
0010
0001
1000
,
0100
1000
0001
0010
0100
1000
0001
0010
0001
1000
0010
0100
0001
1000
0001
0010
,
0100
1000
0010
0100
0010
1000
0100
1000
0001
0010
0100
1000
0001
0010
0001
1000
,
0100
0010
0100
1000
0001
0100
0001
0010
0100
1000
0010
0100
0010
1000
0100
1000
,
0001
0010
0001
1000
0100
0010
0001
1000
0010
1000
0001
0010
0100
0010
0001
1000
,
0100
1000
0001
0010
0001
1000
0100
0010
0001
1000
0100
1000
0001
0100
0010
1000
,
0001
1000
0100
0010
0001
0100
0010
0100
0001
0010
0001
1000
0100
0010
0001
1000
,
0100
1000
0001
0010
0100
0010
0001
1000
0010
1000
0100
0010
0001
0100
0010
0100
,
0001
0010
0001
1000
0100
1000
0001
0010
0100
1000
0001
0100
0001
1000
0100
0010
,
0100
1000
0001
0010
0001
0000
1000
0000
0010
0000
0100
0000
0001
0000
0010
0000
,
0100
1000
0001
0010
0001
1000
0010
1000
,
0100
0010
0001
1000
0100
0010
0100
1000
,
0001
0010
0001
1000
0100
1000
0010
0100
,
0010
0000
1000
0000
0001
0010
0100
1000
0001
0010
0001
1000
0100
0010
0100
1000
,
0001
0100
0001
0010
0100
1000
0010
0100
0010
1000
0100
1000
0001
0010
0001
1000
,
0100
0010
0001
1000
0010
1000
0001
0010
0100
0010
0001
1000
0100
1000
0001
0010
,
0001
1000
0100
0010
0001
1000
0100
1000
0001
0100
0010
1000
0001
1000
0100
0010
,
0001
0100
0010
0100
0001
0010
0001
1000
0100
0010
0001
1000
0100
1000
0001
0010
,
0100
0010
0001
1000
0010
1000
0100
0010
0001
0100
0010
0100
0001
0010
0001
1000
,
0100
1000
0001
0010
0100
1000
0001
0100
0001
1000
0100
0010
0100
1000
0001
0010
,
0001
1000
0100
1000
0001
0010
0100
1000
0001
0010
0001
1000
0010
0100
0001
1000
,
0001
0010
0100
1000
0010
0100
0010
1000
0100
1000
0001
0010
0100
1000
0001
0010
,
0001
1000
0100
0010
0100
1000
0001
0100
0001
0010
0100
1000
0010
0100
0010
1000
,
0100
1000
0001
0010
0001
1000
0100
0010
0001
1000
0010
1000
0001
0010
0100
0010
,
0001
1000
0100
1000
0001
0010
0001
1000
0100
0010
0001
1000
0100
1000
0001
0100
,
0010
1000
0001
1000
0010
0000
0110
0000
1010
0000
0000
0000
0101
0000
1100
0000
,
1001
0000
0110
1100
0011
1010
2002
0000
,
3003
0000
0000
0000
,
0000
0000
0000
0000
,
00M0
0000
0000
0000
;
