#TITLE:Shadows of Death;
#SUBTITLE:;
#ARTIST:Rhapsody;
#TITLETRANSLIT:;
#SUBTITLETRANSLIT:;
#ARTISTTRANSLIT:;
#CREDIT:;
#BANNER:BN.png;
#BACKGROUND:BG.png;
#LYRICSPATH:;
#CDTITLE:Authority.png;
#MUSIC:Rhapsody - Shadows Of Death.mp3;
#OFFSET:-0.360;
#SAMPLESTART:61.748;
#SAMPLELENGTH:12.000;
#SELECTABLE:YES;
#BPMS:0.000=165.004;
#STOPS:1038.000=9.800
;
#BGCHANGES:;
// cache tags:
#FIRSTBEAT:0.000;
#LASTBEAT:1315.000;
#SONGFILENAME:Songs/toune 3/Shadows of Death/Shadows of Death.sm;
#HASMUSIC:1;
#HASBANNER:1;
#MUSICLENGTH:493.173;
// end cache tags

//---------------dance-single - Blank----------------
#NOTES:
     dance-single:
     Blank:
     Hard:
     12:
     1.000,1.000,1.000,0.698,1.000,3074.000,568.000,344.000,0.000,0.000:

1001
0000
0000
0001
0010
1000
0110
0000
0000
0011
0000
0000
,
2200
0000
0000
3300
0000
0001
0100
0010
,
2200
0000
0000
0000
0000
0000
0000
3300
,
0011
0000
0000
0010
1000
0100
0011
0000
0000
1010
0000
0000
,
0220
0000
0000
0330
0000
0001
1000
0100
,
0022
0000
0000
0000
0000
0000
0000
0033
,
1001
0000
0000
0110
1000
0100
0011
0000
0000
1100
0000
0000
,
0220
0000
0000
0000
0330
1000
0100
1000
,
0202
0000
0000
0000
0000
0303
0000
0000
,
1100
0000
0000
0011
0100
1000
0110
0000
0000
0011
0000
0000
,
2020
0000
0000
0000
3030
0100
0010
0001
,
2200
0000
0000
0000
0000
0000
0000
3300
,
1001
0000
0000
0000
,
0220
0000
0000
0000
0000
0000
0330
0000
0001
0010
0100
0010
0001
1000
0100
0010
,
0202
0000
0000
0000
0000
0000
0303
0000
1000
0010
0100
0010
1000
0100
0010
0001
,
2200
0000
0000
0000
0000
0000
3300
0000
0010
0100
0010
1000
0100
1000
0001
0010
,
0202
0000
0000
0000
0000
0000
0000
0303
,
2002
0000
0000
0000
0000
0000
3003
0000
0010
0100
0001
1000
0010
0100
0010
1000
,
0220
0000
0000
0000
0000
0000
0330
0000
1000
0100
0010
0001
1000
0010
0100
0001
,
2200
0000
0000
0000
0000
0000
3300
0000
1000
0010
1000
0001
0100
0001
0010
0100
,
2002
0000
3003
0220
0000
0330
2020
3030
,
2002
0000
0000
3003
0022
0000
0000
0033
,
2020
0000
0000
0000
0000
0000
0000
3030
,
0002
0000
0000
0000
0000
0000
0003
0000
1100
0010
0100
0001
0010
0001
1000
0100
,
0011
0000
0100
0000
1010
0000
0001
0000
0011
0100
0010
0100
0001
0010
0100
1000
,
0101
0000
1000
0000
1010
0000
0001
0000
1100
0010
0001
0010
0100
0010
0001
1000
,
0110
0000
0001
0000
0101
0000
0010
0000
1010
0100
0001
0010
0100
0010
0100
1000
,
0011
1000
1000
0110
0001
0001
1100
0000
,
0110
0000
0100
0000
0101
0000
0010
0000
1100
0010
0001
0100
0010
1000
0100
0010
,
1001
0000
0100
0000
1100
0000
0001
0000
0110
0001
1000
0010
0100
0010
1000
0001
,
0110
0000
0001
0000
0011
0000
1000
0000
1001
0010
0100
0010
1000
0100
0010
0100
,
2020
0000
3030
0202
0000
0303
0220
0330
,
2002
0000
0000
0000
0000
0000
3003
0000
0110
0001
1000
0001
1000
0001
1000
0001
,
1100
0000
0010
0000
1100
0000
0001
0000
0101
0010
0100
1000
0100
0010
0001
1000
,
0110
0000
0001
0000
1100
0000
0010
0000
0101
0010
0100
0001
1000
0010
1000
0001
,
1100
0000
0100
0000
0101
0000
0010
0000
0101
0010
0100
1000
0001
0010
0100
0010
,
1001
0010
0010
1100
0100
0100
0011
0000
,
1010
0000
0100
0000
0011
0000
0001
0000
1010
0100
0010
1000
0001
0100
0010
1000
,
0101
0000
0001
0000
1100
0000
0010
0000
0101
1000
0100
1000
0010
0100
0010
1000
,
0101
0000
0100
0000
0011
0000
0100
0000
1010
0100
0001
0010
0001
1000
0100
1000
,
0022
0000
0033
2020
0000
3030
0202
0303
,
2002
0000
0000
0000
0000
0000
3003
0000
0220
0000
0330
0000
0001
0010
0100
1000
,
0110
0000
0000
1100
0000
0000
0101
0000
,
0000
0000
2200
3300
0110
0000
0000
1010
,
0000
0000
0000
0000
0101
0000
0000
0000
1100
0010
0001
0010
1100
0010
0001
0010
,
1100
0000
0000
0110
0000
0000
1010
0000
,
0000
0000
0202
0303
0110
0000
0000
1001
,
0000
0000
0000
0000
1100
0000
0000
0000
1001
0100
0010
0100
1001
0010
0100
0010
,
1001
0000
0000
1100
0000
0000
0101
0000
,
0000
0000
0022
0033
1100
0000
0000
0011
,
0000
0000
0000
0000
1001
0000
0000
0000
1010
0100
0001
0100
1010
0100
0001
0100
,
1010
0000
0000
0110
0000
0000
0022
0033
,
1100
0000
0000
0110
0000
0000
2020
3030
,
0011
0000
0010
0000
0101
0000
1000
0000
1010
0001
0010
0100
1000
0100
0010
0100
,
1001
0000
0010
0000
1100
0000
0100
0000
0101
0010
0100
0010
1000
0100
0010
0001
,
1100
0000
0010
0000
0011
0000
0100
0000
1001
0010
0001
1000
0100
1000
0001
0010
,
2200
0000
3300
0202
0000
0303
0220
0330
,
0110
0000
1000
0000
0110
0000
0001
0000
1001
0010
0100
0010
1000
0001
1000
0100
,
0011
0000
1000
0000
0101
0000
0010
0000
0011
0100
1000
0100
1000
0001
0010
0001
,
1100
0000
0010
0000
1001
0000
0001
0000
0110
1000
0001
0010
0100
1000
0010
0100
,
2002
0000
3003
0220
0000
0330
0022
0033
,
2002
0000
0000
0000
0000
0000
3003
0000
1001
0010
0100
0010
0100
0010
0100
0010
,
0101
0000
0010
0000
1001
0000
0100
0000
0110
0001
1000
0100
1000
0010
0100
0010
,
1001
0000
0010
0000
0110
0000
1000
0000
0101
1000
0100
0010
0001
0010
0100
0010
,
1100
0000
1000
0000
1010
0000
0010
0000
0011
0100
0010
0100
0001
0010
0001
1000
,
0220
0000
0330
0022
0000
0033
2200
3300
,
1001
0000
1000
0000
0110
0000
0001
0000
1100
0010
0100
0001
1000
0010
0100
0010
,
1100
0000
0001
0000
0110
0000
1000
0000
1100
0010
0100
0001
0010
0001
1000
0010
,
0101
0000
0010
0000
0011
0000
1000
0000
1010
0001
0010
0100
0010
0001
1000
0010
,
2200
0000
3300
0220
0000
0330
0022
0033
,
2020
0000
0000
0000
0000
0000
3030
0000
1001
0010
0100
0010
0100
0001
0010
0100
,
1000
0010
0100
0010
1000
0001
0010
0001
1000
0010
0100
0010
,
1000
0100
0010
0001
0010
0100
1000
0001
0010
0001
1000
0010
,
0100
0001
0010
0001
1000
0100
0010
0001
1000
0010
0100
0010
,
1000
0100
0010
0100
1000
0001
0100
0010
1000
0001
0010
0001
,
1000
0100
1000
0010
0100
0001
0010
0001
1000
0100
0010
0001
,
1000
0001
0100
0010
0100
0010
1000
0100
0010
0100
1000
0001
,
0010
0100
1000
0010
1000
0001
0100
0001
1000
0010
0100
0010
,
1000
0001
0100
0001
0010
0001
1000
0100
0010
0100
1000
0001
,
0010
0000
0000
0000
1000
0000
0000
0000
0010
0000
0000
0000
0100
0000
0000
0000
0001
0000
0000
0000
0010
0000
0000
0000
1000
0000
0000
0000
0000
0000
0010
0000
0000
0001
0000
0000
0010
0000
0000
0000
1000
0000
0000
0000
0010
0000
0000
0000
,
0202
0000
0000
0000
0000
0000
0000
0303
,
0022
0000
0000
0033
2200
0000
0000
3300
,
0001
0010
0001
1000
0100
0010
0100
1000
0001
1000
0010
0100
0010
1000
0100
0010
,
0001
0010
0100
1000
0001
0010
0001
1000
0010
1000
0010
0100
0001
0010
0100
1000
,
0001
0010
0001
1000
0010
0100
0001
0100
0010
1000
0100
0010
0100
1000
0001
0010
,
0100
0010
0001
1000
0010
0100
0010
1000
0100
0010
0001
1000
0010
1000
0001
0010
,
2200
0000
0000
0000
0000
0000
0000
3300
,
0220
0000
0000
0330
0022
0000
0000
0033
,
1010
0100
0010
0100
0001
0010
0100
0010
0001
1000
0100
1000
0010
0100
0010
1000
,
0100
0010
0001
1000
0100
0010
0001
0010
0100
0010
0001
1000
0010
0100
0001
0100
,
0010
1000
0010
1000
0100
0010
0001
0100
0010
1000
0100
0010
0100
1000
0001
0010
,
0100
1000
0001
1000
0010
0100
0010
1000
0001
0010
0001
1000
0100
0010
0001
0010
,
2200
3300
0220
0330
0022
0033
2200
3300
,
0022
0033
2002
3003
0220
0000
0330
0002
,
0000
0003
2000
3000
0210
0000
0000
0300
,
0002
0000
0000
0003
2010
0000
3000
0020
,
0000
0030
0200
0300
2001
0000
0000
0000
,
0000
3000
0020
0030
0002
0000
0003
0200
,
0000
0300
0020
0030
1100
0010
0101
0010
,
1100
0010
0100
0010
1000
0100
0010
0001
1010
0000
0010
0000
0110
0000
1000
0000
,
1001
0010
0100
1000
0100
0010
0001
1000
0110
0000
0001
0000
0011
0000
1000
0000
,
1100
0010
0100
0001
0010
0001
1000
0100
0011
0000
0100
0000
0100
0000
1100
0000
,
0010
0010
1100
0000
1010
0001
0011
0100
,
0110
0001
1000
0001
0010
0100
0010
0001
1100
0000
1000
0000
1010
0000
0010
0000
,
1010
0100
0001
0010
0001
1000
0100
0010
1001
0000
0010
0000
0011
0000
1000
0000
,
1001
0100
0010
1000
0010
0100
0001
0010
2200
0000
0000
0000
3300
0000
0022
0000
,
0000
0033
0202
0303
2002
0000
0000
3003
,
2200
0000
0000
3300
0011
0010
0101
0010
,
1100
0010
0100
0010
1000
0001
1000
0010
0101
0000
0010
0000
1001
0000
0100
0000
,
1100
0010
0001
0010
0100
0010
0001
1000
0110
0000
0010
0000
1010
0000
0100
0000
,
0110
0001
1000
0010
0100
0010
1000
0001
0110
0000
1000
0000
1000
0000
0101
0000
,
0010
0010
0101
0000
1001
1000
0110
0001
,
0110
1000
0010
0100
0001
0100
0010
1000
0110
0000
0001
0000
0011
0000
1000
0000
,
1100
0010
0001
1000
0100
1000
0010
0100
0011
0000
1000
0000
0110
0000
1000
0000
,
0011
0100
0010
0100
0001
0010
0100
0010
2002
0000
0000
0000
3003
0000
0220
0000
,
0000
0330
0202
0303
2020
0000
0000
3030
,
2200
0000
3300
0000
0010
0100
0001
0010
1100
0000
0000
0000
0000
0000
0110
0000
,
0000
0000
0011
0000
0000
0000
2200
3300
,
0101
0000
0000
1001
0000
0000
1100
0000
,
0011
0100
1000
0100
0011
0100
1000
0100
0011
0000
0000
0000
0000
0000
1010
0000
,
0000
0000
1001
0000
0000
0000
0220
0330
,
0101
0000
0000
1010
0000
0000
0011
0000
,
0110
0001
1000
0001
0110
1000
0001
1000
0110
0000
0000
0000
0000
0000
1010
0000
,
0000
0000
0011
0000
0000
0000
2002
3003
,
0101
0000
0000
0110
0000
0000
0101
0000
,
1001
0010
0100
0010
1001
0100
0010
0100
1001
0000
0000
0000
0000
0000
1010
0000
,
0000
0000
0220
0330
1010
0000
0000
0101
,
0000
0000
2200
3300
1001
1000
0110
0001
,
0011
0100
0010
0100
0001
1000
0010
0100
1010
0000
0100
0000
0011
0000
0100
0000
,
1001
0010
0100
0010
0001
1000
0010
0100
0011
0000
0100
0000
1100
0000
0100
0000
,
0011
0100
1000
0100
0010
0100
0010
0001
1100
0000
0010
0000
0010
0000
0101
0000
,
0100
0100
1001
0000
0110
1000
1100
0010
,
0101
1000
0100
1000
0010
0100
0001
0010
1001
0000
0010
0000
0101
0000
0010
0000
,
0101
0010
0100
0001
0010
0001
1000
0100
0011
0000
0100
0000
0110
0000
0001
0000
,
1010
0100
0010
0100
0001
0010
0100
1000
0220
0000
0000
0000
0330
0000
2200
0000
,
0000
3300
0022
0033
0202
0000
0000
0303
,
2020
0000
0000
3030
1001
0001
0011
0010
,
1100
0010
0001
1000
0100
0010
0001
0010
1100
0000
0010
0000
0110
0000
0001
0000
,
1010
0001
0010
0100
1000
0001
0010
0001
1100
0000
0100
0000
0011
0000
0010
0000
,
1001
0100
1000
0010
0100
0001
1000
0010
1100
0000
0010
0000
0010
0000
0011
0000
,
0100
0100
1100
0000
1001
0010
0011
0100
,
1100
0010
0001
1000
0010
0100
0001
0010
1100
0000
0010
0000
0101
0000
0010
0000
,
1100
0010
0100
0010
1000
0100
0010
0100
1001
0000
0010
0000
0101
0000
0100
0000
,
1010
0100
0010
0001
0010
0100
1000
0001
0220
0000
0000
0000
0330
0000
0022
0000
,
0000
0033
2200
3300
2002
0000
0000
3003
,
0022
0000
0000
0000
0000
0000
0033
0000
0000
0000
0000
0000
1010
0000
0000
0100
0000
0000
0010
0000
0000
0001
0000
0000
1000
0000
0000
0000
0010
0000
0000
0000
0100
0000
0000
0000
0010
0000
0000
0000
1000
0000
0000
0000
0100
0000
0000
0000
,
0010
0100
1000
0001
0010
0100
0010
0001
1000
0010
0100
0010
,
1000
0001
0010
0100
1000
0001
0010
0001
1000
0100
0010
0100
,
1000
0010
0100
0010
1000
0001
1000
0100
0010
0001
0010
0100
,
0010
0001
1000
0010
0100
0001
0100
0010
1000
0100
1000
0010
,
0100
0001
0010
0001
1000
0100
0010
0001
1000
0010
1000
0001
,
0010
0100
1000
0010
1000
0001
0100
0001
0010
0001
1000
0100
,
0010
0001
1000
0010
0100
0010
1000
0100
0010
0100
1000
0001
,
0010
0000
0000
0000
0100
0000
0000
0000
0010
0000
0000
0000
0100
0000
0000
0000
1000
0000
0000
0000
0010
0000
0000
0000
0100
0000
0000
0000
0100
0000
0000
0000
0100
0000
0000
0000
0100
0000
0000
0010
0000
0000
0100
0000
0000
0000
0000
0000
,
0001
1000
0010
0100
0010
1000
0202
0000
0000
0000
0000
0000
,
0000
0000
0000
0303
0022
0000
0000
0033
,
2020
0000
0000
0000
0000
0000
3030
0000
0110
0001
0010
0001
1000
0100
0010
0001
,
1000
0100
1000
0001
0010
0100
0010
0001
1000
0010
0100
0010
1000
0001
1000
0010
,
0100
0001
0010
0100
1000
0001
0010
0001
1000
0100
0010
0001
0010
0100
0010
0001
,
1000
0010
0100
0001
0100
0010
1000
0100
1000
0001
0010
0100
1000
0001
0010
0100
,
0010
0001
1000
0010
0100
0010
1000
0001
0220
0000
0000
0000
0000
0000
0000
0000
,
0000
0000
0000
0330
2020
0000
0000
3030
,
2002
0000
0000
0000
0000
0000
3003
0000
0110
1000
0010
0100
0010
1000
0100
0010
,
0001
0010
0100
1000
0001
1000
0001
0100
0010
0100
0010
1000
0100
0010
0100
1000
,
0001
0010
0100
0010
0001
1000
0010
0100
0001
0100
0010
0100
0001
0010
0100
0010
,
0001
1000
0100
1000
0010
0100
0001
0010
0001
1000
0010
0100
0010
1000
0100
0010
,
0001
1000
0010
0100
0001
0010
0100
1000
0202
0000
0303
0000
0022
0000
0033
0000
,
2200
3300
2002
3003
0220
0330
2200
3300
,
0102
0000
0003
2000
0000
3000
0020
0030
,
2100
0000
0000
3000
0020
0000
0000
0030
,
0201
0000
0300
0020
0000
0030
0002
0003
,
2010
0000
0000
0000
0000
3000
0020
0030
,
0002
0000
0003
0200
0000
0300
2000
3000
,
1010
0000
0010
0000
0011
0000
0001
0000
1001
0010
0100
0001
1000
0010
0100
0001
,
1010
0000
0100
0000
1010
0000
0001
0000
0011
0100
1000
0010
0100
0001
0010
0100
,
1001
0000
0010
0000
1100
0000
0100
0000
0101
1000
0010
0100
0001
0010
0100
1000
,
0011
0100
0100
1010
0100
0100
0011
0000
,
0110
0000
0001
0000
0011
0000
0100
0000
1010
0100
0010
0100
0001
0010
0001
1000
,
0110
0000
0001
0000
0011
0000
1000
0000
0110
0001
0010
0001
1000
0100
0010
0001
,
1100
0000
0010
0000
1010
0000
0100
0000
1001
0010
0100
1000
0001
0010
0001
1000
,
0220
0000
0330
0022
0000
0033
2200
3300
,
0202
0000
0000
0000
0000
0000
0303
0000
0110
0001
1000
0001
1000
0001
1000
0001
,
1010
0000
1000
0000
0110
0000
0001
0000
0101
1000
0100
1000
0001
0010
0001
1000
,
0110
0000
0001
0000
0011
0000
0010
0000
1100
0010
0100
0001
1000
0010
1000
0001
,
1100
0000
0100
0000
0110
0000
0010
0000
0011
0100
1000
0001
1000
0010
0100
0010
,
1001
0001
0001
0110
1000
1000
0011
0000
,
1010
0000
0100
0000
0110
0000
0010
0000
1001
0010
0100
0010
0001
1000
0100
1000
,
0101
0000
0001
0000
0110
0000
1000
0000
0011
0100
0010
0100
0001
0010
0001
1000
,
0110
0000
0001
0000
1100
0000
0100
0000
0101
0010
0001
1000
0100
0010
0100
1000
,
0022
0000
0033
2020
0000
3030
0220
0330
,
2002
0000
0000
3003
2200
0000
0000
3300
,
0011
0100
1000
0010
0100
0001
0010
0100
1000
0001
1000
0001
1100
0010
0100
0010
,
1000
0100
0010
0100
1000
0001
0010
0001
1100
0010
1000
0100
0010
0001
1000
0010
,
0100
0001
0010
0100
1001
0010
0100
0010
1000
0100
0010
0001
1000
0010
0100
0001
,
0020
0000
0000
0030
0000
0000
1100
0010
0001
1000
0010
0100
0010
1000
0100
0010
0001
1000
0010
1000
0001
0010
0100
1000
,
0001
0010
0100
0010
0001
1000
0100
0010
0100
1000
0001
1000
0010
0100
0010
1000
0100
0010
0001
1000
0010
1000
0001
0010
,
0100
1000
0001
0010
0001
1000
0010
1000
0100
0010
0001
1000
0100
0010
0001
1000
0010
1000
0010
0100
0001
0100
0001
0010
,
0100
0000
0010
0000
0001
0000
0100
0000
0010
0000
1000
0000
0101
0000
0000
0010
0000
0000
1000
0000
0000
0010
0000
0000
1000
0000
0000
0010
0000
0000
1000
0000
0000
0010
0000
0000
1100
0000
0000
0010
0000
0000
0100
0000
0000
0010
0000
0000
,
0100
0010
0100
0010
1001
0100
0001
0100
0001
0100
0001
0100
0011
1000
0001
1000
,
0001
1000
0001
1000
0110
1000
0010
1000
0010
1000
0010
1000
0110
0001
0100
0001
,
0100
0001
0100
0001
1010
0100
0010
0100
0010
0100
0010
0100
0011
1000
0001
1000
,
0001
1000
0001
1000
0101
0000
0110
0000
1100
0000
0011
0000
0110
0000
1001
0000
,
1100
0110
2001
0000
0000
3000
0020
0000
,
0000
0030
1020
0030
0200
0300
0002
0000
,
0000
0000
0000
0003
0000
0000
0120
0000
0000
0030
0000
0000
0002
0000
0000
0003
0000
0000
0001
0010
0100
1000
0100
0010
,
0002
0000
0000
0003
0000
0000
0010
0100
0010
1000
0100
1000
0002
0000
0000
0000
0000
0000
0000
0000
0000
0000
0000
0000
,
0000
0000
0000
0000
,
0000
0003
2001
0000
0000
0000
0000
0000
,
0000
0000
0000
0000
3000
0001
0000
0100
0000
0011
0000
1000
,
0000
0010
0000
1001
0000
0010
0000
0100
0000
2200
0000
0000
,
0000
0000
0000
0000
0000
0000
0000
0000
0000
3300
0000
0000
0000
0000
0000
0000
0000
0000
0100
0000
0000
0000
0010
0000
,
0000
0000
0001
0000
0000
0000
1000
0100
0010
0100
1000
0001
0010
0100
0010
0001
1000
0010
0100
0010
1000
0100
0010
0001
,
0010
0100
1000
0001
0010
0001
1000
0000
0000
0010
0000
0000
0100
0000
0000
0001
0000
0000
1000
0000
0000
0010
0000
0000
,
0001
0010
1000
0010
0100
1000
0001
0010
,
0100
0000
0000
0001
0000
0000
1000
0100
0010
0001
1000
0010
0100
0010
1000
0001
0010
0001
1000
0100
0010
0001
1000
0010
,
0100
0000
0001
0000
0010
0000
0100
0000
1000
0000
0001
0000
0020
0000
0000
0130
0000
0000
1000
0000
0000
0010
0000
0000
0100
0000
0000
0001
0000
0000
1000
0000
0000
0010
0000
0000
0100
0000
0000
0010
0000
0000
1000
0000
0000
0100
0000
0000
,
0010
0100
1000
0001
0010
0001
0100
0001
0010
0100
1000
0100
0010
0100
1000
0001
,
0100
0010
1000
0010
0200
0000
0000
0000
0300
0000
0010
0001
0020
0000
0000
0000
,
0030
0000
0100
1000
0100
0000
0010
0000
0100
0000
0001
0000
0010
0100
1000
0001
,
0010
0001
1000
0010
2000
0000
3010
0000
0001
0000
0100
0000
0010
0000
1000
0000
,
0100
0000
0000
0010
0000
0000
0001
0010
0100
1000
0010
0100
0001
0010
0100
1000
0001
1000
0001
0100
0010
0100
0001
0010
,
0100
1000
0010
0100
0010
1000
0001
0010
0100
1000
0000
0000
1000
0100
0010
0001
0000
0000
0001
0010
0100
1000
0000
0000
,
1000
0100
0010
0001
0000
0000
1000
0000
0000
0100
0000
0000
0010
0000
0000
1000
0000
0000
0002
0000
0000
0003
0000
0000
,
0200
0000
0300
0000
1010
0100
0010
0100
0001
0010
0100
0010
0001
1000
0010
0100
,
0001
0010
0100
0010
0001
1000
0100
1000
0010
0100
0001
0010
0001
1000
0001
0010
,
0100
1000
0001
1000
0010
0100
0010
1000
0100
0010
0001
1000
0010
0100
0010
1000
,
0100
0010
0100
1000
0001
1000
0100
0010
0001
0010
0001
1000
0100
1000
0010
0100
,
0001
1000
0010
0100
0010
1000
0100
0010
0001
0010
0100
0010
0001
1000
0010
0100
,
0001
0010
0100
1000
0010
0100
0001
0010
0100
1000
0001
1000
0001
0100
0010
0100
,
0010
0000
0000
1000
0000
0000
0100
0000
0000
0010
0000
0000
0001
0000
0010
0000
0100
0000
1000
0000
0010
0000
0100
0000
0010
0000
1000
0000
0100
0000
0010
0000
0001
0000
1000
0000
0010
0000
0100
0000
0001
0000
0100
0000
0010
0000
1000
0000
,
0010
0000
1000
0000
0001
0000
0100
0000
0001
0000
1000
0000
0100
0000
0000
0010
0000
0000
0100
0000
0000
0001
0000
0000
0010
0000
0000
0001
0000
0000
1000
0000
0000
0100
0000
0000
0010
0000
0000
0100
0000
0000
1000
0000
0000
0001
0000
0000
,
0200
0000
0300
0000
0001
0010
0001
1000
0010
0100
0010
1000
0100
0010
0001
0010
,
0100
0010
0001
1000
0010
0100
0001
0100
0001
1000
0010
1000
0010
0100
0001
0010
,
0100
1000
0010
0100
0001
0010
0100
1000
0001
1000
0100
0010
0100
1000
0001
0010
,
0100
0010
0001
1000
0010
0100
0010
1000
0001
1000
0010
0100
0001
0010
0100
1000
,
0100
0010
0001
1000
0010
0100
0001
0100
0010
1000
0010
1000
0100
0010
0100
1000
,
0001
0010
0100
0010
0001
1000
0010
0100
0001
0010
0001
1000
0100
0010
0001
0010
,
0100
0010
0001
0010
0100
1000
0001
1000
0010
0100
0010
1000
0100
0010
0100
1000
,
0001
0010
0001
1000
0010
0100
0001
0100
0010
1000
0100
0010
0001
0010
0100
1000
,
0002
0000
1000
0013
0100
1000
0002
0000
,
0000
0000
0000
0000
0000
0000
0003
0000
0000
0000
0000
0000
1000
0100
0010
0001
,
0010
0100
0010
0001
1000
0010
0100
0001
0010
0100
1000
0001
0010
0001
1000
0010
,
0100
0001
0010
0001
1000
0100
0010
0001
2000
0000
3000
0000
0010
0100
1000
0001
,
1000
0001
0100
0010
0100
0010
1000
0100
0010
0001
1000
0010
1000
0100
0010
0100
,
1000
0000
0000
0001
0000
0000
0010
0000
0000
0001
0000
0000
1000
0000
0000
0100
0000
0000
0010
0000
0000
0001
0000
0000
1000
0000
0000
0100
0000
0000
1000
0000
0000
0010
0000
0000
0100
0000
0010
0000
1000
0000
0100
0000
0010
0000
0001
0000
,
1000
0000
0010
0000
1000
0000
0001
0000
0010
0000
0100
0000
0010
0000
0001
0000
1000
0000
0100
0000
0010
0000
0100
0000
1000
0000
0001
0000
1000
0000
0010
0000
0100
0000
0010
0000
1000
0000
0000
0100
0000
0000
1000
0000
0000
0100
0000
0000
,
1000
0001
1000
0001
0100
0010
0100
0010
0100
0001
0100
0001
1000
0010
1000
0010
,
1000
0100
0001
0100
0001
1000
0001
1000
0001
0100
0010
0100
0020
0000
0000
0000
,
0000
0000
0000
0000
0000
0000
0000
0000
0000
0000
0030
0000
0001
0010
0100
0010
,
0001
1000
0010
0100
0010
1000
0100
0010
0001
1000
0010
0100
0001
0010
0001
1000
,
0100
0010
0100
1000
0001
0010
0001
1000
0010
0100
0010
1000
0002
0000
0000
0000
,
0000
0000
0000
0000
0000
0000
0003
0000
0000
0000
0000
0000
0100
0000
0000
0000
0000
0000
0000
0000
0010
0000
0000
0000
0000
0000
0000
0000
1000
0000
0000
0000
0000
0000
0000
0000
0010
0000
0000
1000
0000
0000
0020
0000
0000
0000
0000
0000
,
0000
0000
0030
0000
0001
0010
0100
1000
0010
0100
0001
0010
0200
0000
0300
0000
,
0010
0001
0010
0001
2000
0000
0000
0000
3010
0100
0010
0100
0020
0000
0000
0000
,
1030
0100
1000
0100
1001
0000
0110
0000
0011
0000
0101
0000
1010
0000
1100
0000
,
0011
0000
1001
0000
0110
0001
1000
0010
0100
0010
1000
0100
0010
0001
0010
0100
,
1000
0010
0100
0010
1000
0100
1000
0001
0100
0010
0100
0001
1010
0000
0000
0000
,
1001
0110
1010
0022
,
0000
0033
2020
0000
0000
3030
2002
0000
,
0000
0000
0000
0000
0000
3003
0000
0000
,
1001
0010
0001
1000
,
0110
0001
0010
0001
,
1100
0001
0110
1000
,
0101
0010
0011
0100
,
1100
0010
0001
0100
,
1100
0010
0101
0001
,
1100
0010
0001
0010
,
0101
1000
0010
0100
,
1010
0100
0010
0100
,
0011
0010
1100
0001
,
0101
1000
1010
0001
,
1010
0100
0101
0010
,
1001
0001
0100
0010
,
1001
0100
1010
1000
,
0011
0001
0010
1000
,
0110
1000
0001
0010
,
1100
1001
0011
0110
,
1001
0010
0100
1000
0001
1000
0010
0100
1010
0100
0001
0010
0001
1000
0100
0010
,
1001
0100
1000
0010
0100
0001
0010
0100
2002
0000
0000
0000
0000
0000
3003
0000
,
0220
0000
0000
0000
0000
0000
0000
0330
,
0022
0000
0000
0033
2020
0000
0000
3030
,
1001
0010
0100
0010
1000
0100
0010
0100
1000
0001
0010
0100
1000
0001
0010
0001
,
1000
0010
0100
0001
0100
0010
1000
0100
1000
0001
0100
0001
1000
0100
0010
0100
,
1000
0001
0010
0001
1000
0010
0100
0001
0100
0010
1000
0001
0010
0100
1000
0100
,
0010
0001
1000
0010
0100
0010
1000
0100
1000
0001
0010
0100
1000
0010
0100
0010
,
2200
0000
0000
0000
0000
0000
0000
3300
,
0220
0000
0000
0330
2020
0000
0000
3030
,
0011
0100
1000
0100
0010
0001
1000
0010
0100
0001
0010
0001
1000
0100
0010
0001
,
1000
0010
1000
0001
0100
0001
1000
0010
0100
0010
1000
0100
0010
0001
0010
0100
,
0010
0001
1000
0010
0100
0001
1000
0010
1000
0100
0010
0001
1000
0100
1000
0001
,
0010
0100
0010
0001
1000
0100
1000
0001
1000
0100
0010
0001
1000
0010
0100
0001
,
0220
0330
0022
0033
2002
3003
2020
3030
,
0220
0330
0022
0033
2020
0000
3030
0200
,
0000
0300
0020
0030
0102
0000
0000
0003
,
2000
0000
0000
3000
0120
0000
0030
2000
,
0000
3000
0200
0300
0012
0000
0000
0000
,
0000
0003
0200
0300
0002
0000
0000
0003
,
0110
0001
0101
0010
1001
0010
0101
1000
,
0011
0100
1000
0010
0100
0001
0010
0100
1010
0000
0100
0000
0011
0000
0010
0000
,
1010
0100
0010
0001
1000
0010
1000
0001
0110
0000
0001
0000
1010
0000
0100
0000
,
0011
0100
0010
0100
0001
0010
0100
1000
0011
0000
0100
0000
0100
0000
0011
0000
,
0010
0010
1001
0000
0110
0100
0101
0001
,
1100
0010
0001
0100
0010
0100
0001
1000
0110
0000
0010
0000
1100
0000
0010
0000
,
0101
0010
0001
1000
0010
0100
0001
0100
1010
0000
0100
0000
0110
0000
0001
0000
,
1100
0010
0100
1000
0001
0010
0001
1000
0202
0000
0000
0000
0303
0000
0220
0000
,
0000
0330
2200
3300
2002
0000
0000
3003
,
0202
0000
0000
0303
1100
1000
0101
0010
,
0101
0010
0001
1000
0010
1000
0001
0100
0011
0000
1000
0000
0110
0000
0001
0000
,
1100
0010
0001
0010
0100
1000
0001
0010
1100
0000
0100
0000
0101
0000
0010
0000
,
1001
0010
0100
0010
0001
1000
0010
0100
0011
0000
0001
0000
0001
0000
1010
0000
,
0100
0100
0011
0000
1100
0010
0101
0010
,
0110
0001
1000
0010
0100
0001
1000
0100
1010
0000
0001
0000
0011
0000
1000
0000
,
0101
0010
0100
1000
0010
0100
0001
0010
1001
0000
0100
0000
0110
0000
0010
0000
,
0011
0100
1000
0001
1000
0100
1000
0010
0202
0000
0000
0000
0303
0000
0022
0000
,
0000
0033
2020
3030
0220
0000
0000
0330
,
2002
0000
0000
0000
0000
0000
3003
0000
0110
0001
0010
0100
1000
0001
0010
0001
,
1000
0100
0010
0100
1010
0001
0100
0001
1000
0010
1000
0100
0010
0100
1000
0001
,
0110
0001
1000
0010
0100
0010
1000
0100
0010
0001
0010
0001
1100
0010
0100
0010
,
1000
0100
0010
0001
0010
0100
1000
0010
0200
0000
0300
0000
0001
0010
0100
0010
,
0001
1000
0100
1000
0010
0100
0010
1000
0100
0010
0001
1000
0010
1000
0001
0010
,
0100
1000
0010
0100
0001
0010
0001
1000
0100
0010
0001
1000
0001
1000
0010
0100
,
0010
1000
0100
1000
0001
0010
0100
1000
0010
1000
0100
0010
1100
0010
1000
0010
,
1000
0010
1000
0010
0101
1000
0001
1000
0001
1000
0001
1000
0011
0100
0010
0100
,
0010
0100
0010
0100
0011
1000
0010
1000
0010
1000
0010
1000
0110
0001
0010
0001
,
0010
0001
0010
0001
1010
0100
1000
0100
1000
0100
1000
0100
1010
0001
0100
0001
,
0100
0001
0100
0001
1100
0010
0100
0010
0100
0010
0100
0010
1001
0000
0000
0000
,
0110
0011
1010
0022
,
0000
0033
2002
0000
0000
3003
0202
0000
,
0000
0303
2200
0000
0000
3300
1001
0000
;
