#TITLE:A Parenthisis in Eternity;
#SUBTITLE:;
#ARTIST:Scar Symmetry;
#TITLETRANSLIT:;
#SUBTITLETRANSLIT:;
#ARTISTTRANSLIT:;
#CREDIT:;
#BANNER:apie bn.png;
#BACKGROUND:apie bg.png;
#LYRICSPATH:;
#CDTITLE:;
#MUSIC:09 A Parenthesis In Eternity.ogg;
#OFFSET:-0.357;
#SAMPLESTART:43.357;
#SAMPLELENGTH:12.000;
#SELECTABLE:YES;
#DISPLAYBPM:140.000:180.000;
#BPMS:0.000=140.000,99.000=179.000,116.000=180.000,557.000=140.000,591.000=180.000,764.000=360.000,775.000=90.000,778.000=180.000;
#STOPS:;
#BGCHANGES:;
// cache tags:
#FIRSTBEAT:32.000;
#LASTBEAT:775.500;
#SONGFILENAME:Songs/SSSC Pack 2/A parenthesis in eternity - [Xynn]/sm.sm;
#HASMUSIC:1;
#HASBANNER:1;
#MUSICLENGTH:105.000;
// end cache tags

//---------------dance-single - ]xynn[----------------
#NOTES:
     dance-single:
     ]xynn[:
     Challenge:
     14:
     1.000,1.000,0.524,0.724,1.000,2028.000,55.000,76.000,2.000,0.000:

0000
0000
0000
0000
,
0000
0000
0000
0000
,
0000
0000
0000
0000
,
0000
0000
0000
0000
,
0000
0000
0000
0000
,
0000
0000
0000
0000
,
0000
0000
0000
0000
,
0000
0000
0000
0000
,
1000
0100
0010
0002
0000
0013
0100
2000
,
0000
3001
0100
0001
0010
0001
1000
0001
,
1000
0100
0010
0002
0000
0013
0100
2000
,
0000
3010
0100
2000
0000
0000
0000
0000
,
3100
0001
0010
0200
0000
1300
0100
0020
,
0000
0031
0010
0001
0100
0001
1000
0001
,
1000
0100
0010
0002
0000
1003
0010
0200
,
0000
0301
0100
2000
0000
0000
0000
0000
,
3100
0001
1000
0200
0000
1300
0001
0200
,
0000
0310
0100
0010
0001
0010
1000
0001
,
1000
0100
0010
0002
0000
1003
0010
0200
,
0000
1300
0100
0002
0000
0000
0000
0000
,
1003
0001
0010
0200
0000
1300
0010
0200
,
0000
0301
0010
0001
0100
0001
1000
0001
,
1000
0100
0010
0001
2000
0000
0000
0002
,
0000
0000
0000
0000
,
0000
0000
0000
0000
0000
0000
0000
0000
0000
0000
0000
0000
0000
0000
0000
0000
0000
0000
3003
0000
0000
0000
0000
0000
0001
0000
0100
0000
0010
0000
1000
0000
0001
0000
1000
0000
0001
0000
0000
0000
0000
0000
1000
0000
0000
0100
0000
0000
,
1000
0000
0001
0000
0010
0100
0010
0000
0100
0000
1000
0001
1000
0000
0010
0000
,
0100
0001
0100
0000
0010
0000
1000
0000
0010
0000
0100
0000
0100
0000
0001
0100
,
0001
0000
1000
0000
0010
0100
0010
0000
0100
0000
0001
1000
0001
0000
0010
0000
,
0100
1000
0100
0000
0010
0000
0001
0000
0010
0000
0100
0000
1000
0000
0001
1000
,
0001
0000
0100
0000
0001
0100
0001
0000
1000
0000
0010
0100
0010
0000
0100
0000
,
0001
0010
0001
0000
0010
0000
0100
0000
1000
0000
0001
0000
0001
0000
1000
0010
,
1000
0000
0001
0000
0100
0010
0100
0000
0001
0000
1000
0100
1000
0000
0001
0000
,
1000
0010
1000
0010
0100
0001
0100
0001
1000
0001
0010
0100
1000
0000
0001
0010
,
0001
0000
1000
0000
0100
0010
0100
0000
0010
0000
0001
1000
0001
0000
0100
0000
,
0010
1000
0010
0000
0100
0000
0001
0000
0100
0000
0010
0000
0010
0000
1000
0010
,
1000
0000
0001
0000
0100
0010
0100
0000
0010
0000
1000
0001
1000
0000
0100
0000
,
0010
0001
0010
0000
0100
0000
1000
0000
0100
0000
0010
0000
0001
0000
1000
0001
,
1000
0000
0010
0000
1000
0010
1000
0000
0001
0000
0100
0010
0100
0000
0010
0000
,
1000
0100
1000
0000
0100
0000
0010
0000
0001
0000
1000
0000
1000
0000
0001
0100
,
0001
0000
1000
0000
0010
0100
0010
0000
1000
0000
0001
0010
0001
0000
1000
0000
,
0001
0100
0001
0100
0010
1000
0010
1000
0001
1000
0100
0010
0001
0000
1000
0010
,
1000
0010
0100
0000
0001
0100
0010
1000
0010
0000
1000
0001
1000
0100
1000
0000
,
0001
0010
0100
1000
0001
0000
1000
0010
0100
0000
0001
0000
0001
0000
1000
0100
,
1000
0100
0010
0000
0001
0010
0001
0010
0100
0000
0010
0100
1000
0001
1000
0000
,
0001
1000
0010
0100
0010
0000
0100
0001
1000
0000
0100
0000
0010
0000
0100
0010
,
0001
0010
0001
0000
1000
0001
0100
0001
0100
0000
0010
1000
0001
1000
0001
0000
,
0010
0100
1000
0100
1000
0000
0001
0010
0100
0000
0010
0000
0010
0000
0001
0010
,
0100
0010
0100
0000
1000
0001
1000
0010
0200
0000
0000
0000
0000
0000
0301
0000
,
1000
0010
1000
0010
0100
0001
0100
0001
1000
0001
0010
0100
1000
0100
1000
0100
,
0010
0001
0010
0001
1000
0100
0010
0001
0010
0100
1000
0001
0100
0001
0100
0001
,
1000
0010
1000
0010
0100
0001
1000
0010
0100
0001
1000
0001
1000
0100
1000
0001
,
0010
0100
0010
0001
1000
0100
0010
0001
0010
0001
1000
0001
1000
0010
1000
0010
,
0100
0001
0100
0001
1000
0010
0100
0010
1000
0001
0100
0001
1000
0001
0010
0001
,
1000
0100
0010
0001
0010
0100
1000
0001
0010
0100
0010
0001
1000
0100
1000
0001
,
1000
0001
0100
0001
0100
0010
1000
0010
1000
0010
0100
0001
1000
0001
0100
0001
,
1000
0001
0010
0100
1000
0001
0010
0100
1000
0001
0010
0001
1000
0100
1000
0100
,
0010
0001
0010
0001
1000
0001
1000
0001
1000
0001
1000
0001
1000
0100
0010
0001
,
0010
0100
1000
0001
1000
0001
0100
0001
1000
0010
1000
0010
0100
0001
0100
0010
,
1000
0010
1000
0001
1000
0001
0010
0001
1000
0100
0010
0100
1000
0001
0010
0100
,
1000
0001
0010
0100
1000
0001
0010
0001
1000
0001
0100
0001
0100
0010
1000
0010
,
0100
0010
0100
0001
1000
0001
0010
0100
1000
0001
0010
0001
1000
0100
0010
0100
,
1000
0001
0010
0100
1000
0001
1000
0001
0100
0001
0100
0010
0100
0010
1000
0010
,
1000
0001
1000
0100
0010
0001
1000
0100
1000
0001
0010
0001
1000
0001
1000
0001
,
0100
0001
1000
0010
0100
0010
1000
0001
0100
0001
1000
0010
0100
0001
0100
0010
,
1000
0000
0000
0001
0000
0000
1000
0000
0000
0001
0000
0000
1000
0000
0000
0100
0000
0000
1000
0000
0000
0001
0000
0000
0010
0000
0000
0100
0000
0000
1000
0000
0000
0100
0000
0000
1000
0000
0000
0000
0000
0000
0000
0000
1100
0000
0000
0000
,
0000
0000
0000
0000
0011
0000
0000
0000
0000
0000
0000
0000
0101
0000
0000
0000
0000
0000
0000
0000
0000
0000
0000
0000
0001
0000
0000
0100
0000
0000
0010
0000
0000
1000
0000
0000
0001
0000
0000
0000
0000
0000
1000
0000
0000
0100
0000
0000
,
1000
0000
0001
0000
0010
0100
0010
0000
0100
0000
1000
0001
1000
0000
0010
0000
,
0100
0001
0100
0000
0010
0000
1000
0000
0010
0000
0100
0000
0100
0000
0001
0100
,
0001
0000
1000
0000
0010
0100
0010
0000
0100
0000
0001
1000
0001
0000
0010
0000
,
0100
1000
0100
0000
0010
0000
0001
0000
0010
0000
0100
0000
1000
0000
0001
1000
,
0001
0000
0100
0000
0001
0100
0001
0000
1000
0000
0010
0100
0010
0000
0100
0000
,
0001
0010
0001
0000
0010
0000
0100
0000
1000
0000
0001
0000
0001
0000
1000
0010
,
1000
0000
0001
0000
0100
0010
0100
0000
0001
0000
1000
0100
1000
0000
0001
0000
,
1000
0010
1000
0010
0100
0001
0100
0001
1000
0001
0010
0100
1000
0000
0001
0100
,
0001
0100
0010
0000
1000
0010
0100
0001
0100
0000
0001
1000
0001
0010
0001
0000
,
1000
0100
0010
0001
1000
0000
0001
0100
0010
0000
1000
0000
1000
0000
0001
0010
,
0001
0010
0100
0000
1000
0100
1000
0100
0010
0000
0100
0010
0001
1000
0001
0000
,
1000
0001
0100
0010
0100
0000
0010
1000
0001
0000
0010
0000
0100
0000
0010
0100
,
1000
0100
1000
0000
0001
1000
0010
1000
0010
0000
0100
0001
1000
0001
1000
0000
,
0100
0010
0001
0010
0001
0000
1000
0100
0010
0000
0100
0000
0100
0000
1000
0100
,
0010
0100
0010
0000
0001
1000
0001
0100
0020
0000
0000
0000
0000
0000
1030
0000
,
0001
0100
0001
0100
0010
1000
0010
1000
0001
1000
0100
0010
0001
0010
0001
0010
,
0100
1000
0100
1000
0001
0010
0100
1000
0100
0010
0001
1000
0010
1000
0010
1000
,
0001
0100
0001
0100
0010
1000
0001
0100
0010
1000
0001
1000
0001
0010
0001
1000
,
0100
0010
0100
1000
0001
0010
0100
1000
0100
1000
0001
1000
0001
0100
0001
0100
,
0010
1000
0010
1000
0001
0100
0010
0100
0001
1000
0010
1000
0001
1000
0100
1000
,
0001
0010
0100
1000
0100
0010
0001
1000
0100
0010
0100
1000
0001
0010
0001
1000
,
0001
1000
0010
1000
0010
0100
0001
0100
0001
0100
0010
1000
0001
1000
0010
1000
,
0001
1000
0100
0010
0001
1000
0100
0010
0001
1000
0100
1000
0001
0010
0001
0010
,
0100
1000
0100
1000
0001
1000
0001
1000
0001
1000
0001
1000
0001
0010
0100
1000
,
0100
0010
0001
1000
0001
1000
0010
1000
0001
0100
0001
0100
0010
1000
0010
0100
,
0001
0100
0001
1000
0001
1000
0100
1000
0001
0010
0100
0010
0001
1000
0100
0010
,
0001
1000
0100
0010
0001
1000
0100
1000
0001
1000
0010
1000
0010
0100
0001
0100
,
0010
0100
0010
1000
0001
1000
0100
0010
0001
1000
0100
1000
0001
0010
0100
0010
,
0001
1000
0100
0010
0001
1000
0001
1000
0010
1000
0010
0100
0010
0100
0001
0100
,
0001
1000
0001
0010
0100
1000
0001
0010
0001
1000
0100
1000
0001
1000
0001
1000
,
0010
1000
0001
0100
0010
0100
0001
1000
0010
1000
0001
0100
0010
1000
0010
0100
,
0001
1000
0001
1000
0001
0010
0001
1000
0100
0010
0001
0010
0100
1000
0100
1000
,
0100
1000
0100
1000
0100
1000
0100
1000
0100
1000
0100
1000
0001
0100
0001
0100
,
0001
0100
0001
0100
0001
0100
0001
0100
0001
0100
0001
0100
0001
1000
0001
1000
,
0001
1000
0001
1000
0001
1000
0001
1000
0001
1000
0001
1000
0200
0000
0000
0000
,
0320
0000
0000
0000
0032
0000
0000
0000
2003
0000
0000
0000
3001
0100
0010
1000
,
0001
1000
0001
0100
0010
1000
0001
1000
0001
0010
0100
1000
0001
1000
0001
0010
,
0100
1000
0001
1000
0001
0100
0001
1000
0002
0000
0003
0000
0400
0000
0000
0000
,
0000
0000
0000
0000
0000
0000
0000
0000
0000
0000
0000
0000
0301
0100
0001
0000
,
1000
0010
1000
0000
0001
0100
0001
1000
0100
0010
0001
1000
0001
0100
0001
0000
,
1000
0010
1000
0000
0010
0000
0100
0000
0001
0100
0001
0000
1000
0001
1000
0000
,
0100
1000
0100
0000
0010
0000
0001
0000
0010
0100
0010
0000
0100
1000
0100
0000
,
1000
0001
1000
0000
0001
0000
0100
0000
0010
0100
0010
0000
1000
0010
1000
0000
,
0001
0100
0001
0000
1000
0000
0100
0000
0010
0100
0010
0000
0100
1000
0100
0000
,
1000
0001
1000
0000
0010
0000
0100
0000
0001
0100
0001
0000
0100
0010
0100
0000
,
0010
1000
0010
0000
0100
0000
0001
0000
1000
0001
1000
0000
0100
1000
0100
0000
,
0010
0100
0010
0000
0100
0000
1000
0000
0001
1000
0001
0000
1000
0001
1000
0001
,
0010
0100
1000
0001
0010
0100
1000
0001
1000
0010
1000
0010
0100
0000
0110
0000
,
0110
0220
0330
0100
1001
0001
1000
0010
,
0110
0100
0001
1000
1100
0100
0110
0110
,
0110
0220
0330
0010
0011
1000
0001
0100
,
0101
0100
0010
1000
1010
0001
1001
1001
,
1001
2002
3003
1000
1010
0010
0100
0001
,
0101
0000
0001
0000
0010
0000
0100
0000
0110
0000
0100
0000
1000
0100
1000
0000
,
0001
0100
0002
0000
0003
0000
1000
0000
1010
0000
0010
0000
0100
0000
0110
0000
,
0101
2002
3003
0100
0020
0030
0101
0101
,
0101
0202
0303
0100
0110
0010
1000
0100
,
1100
0100
0010
0001
1001
1000
1010
1010
,
1010
2020
3030
0010
0110
0100
0001
1000
,
1100
0100
1000
0001
0101
0010
0110
0110
,
0110
0220
0330
0010
1010
1000
0100
0010
,
0110
0000
0010
0000
0001
0000
0100
0000
0101
0000
0100
0000
0010
1000
0010
0000
,
0100
0001
0200
0000
0300
0000
0010
0000
1000
0000
0100
0000
0010
0000
0110
0000
,
0011
0000
2002
0000
3003
0000
1000
0000
0001
0100
0001
0100
0010
1000
0010
1000
,
0010
0100
0010
0100
0001
1000
0100
0010
0001
1000
0002
0000
0000
0000
0000
0000
,
0203
0000
0000
0320
2030
3200
0000
0320
,
0032
2003
0000
0000
0000
0000
3020
0000
,
0000
0000
0230
0302
2003
3200
0000
0320
,
0000
0230
2300
3002
0203
0302
0000
0000
,
0000
0000
0000
2003
0000
0000
0000
0000
0000
0000
0000
0000
3020
0000
0000
0230
0000
0000
0000
0000
0000
0301
0000
0100
,
0000
0000
0010
0000
0000
0000
1000
0000
0000
0000
0001
0000
0000
0000
1000
0000
0000
0000
0100
0000
0000
0000
0020
0000
0000
0000
0000
0000
0000
0000
0000
0000
0000
0000
0030
0000
0100
0000
0000
1000
0000
0000
0001
0000
0000
0100
0000
0000
,
0001
1000
0010
0100
0001
1000
0001
0010
0100
0010
0001
1000
0100
0010
0001
1000
,
0100
1000
0001
0010
0100
1000
0001
0100
0001
1000
0010
0100
0010
0000
0110
0000
,
0110
0220
0000
0000
0000
0000
0000
0000
,
0000
0000
0000
0000
,
0000
0000
0000
0000
,
0000
0000
0000
0000
,
0000
0000
0000
0000
,
0000
0000
0000
0000
,
0000
0000
0000
0000
,
0000
0000
0000
0000
,
0000
0000
0000
0330
,
0000
0000
0000
0000
1000
0000
0001
0100
0001
0100
0010
0000
1000
0010
1000
0010
,
0100
0000
0001
1000
0100
0010
0001
0000
1000
0100
1000
0100
0010
0000
0001
0010
,
0100
0000
1000
0000
1000
0000
0001
0100
0001
0100
0010
0000
1000
0001
0010
0100
,
1000
0000
0100
0010
0100
0010
0001
0000
0010
0100
1000
0100
0010
0000
0100
1000
,
0001
0000
0100
0000
0010
0000
1000
0010
0100
0001
1000
0000
0001
0100
0010
1000
,
0001
0000
1000
0100
1000
0100
0010
0000
0001
1000
0100
0010
0001
0000
0010
0100
,
1000
0000
0001
0000
0001
0000
1000
0010
1000
0010
0100
0000
0001
0100
0010
0100
,
0020
0000
0000
1030
0010
0100
0001
1000
,
0010
0000
1000
0000
0001
0010
0100
1000
0100
0010
0001
1000
0100
0010
0001
1000
,
0100
1000
0001
1000
0001
0100
0001
1000
0010
0100
0001
0100
0010
1000
0001
0100
,
0001
1000
0010
0100
0001
1000
0001
1000
0100
1000
0100
0010
0001
0010
0001
1000
,
0100
0010
0001
0010
0100
1000
0001
0010
0001
1000
0001
0100
0001
0100
0010
1000
,
0010
0100
0010
0100
0001
1000
0001
0010
0100
0010
0001
1000
0100
0010
0001
1000
,
0001
1000
0010
0100
0001
1000
0010
0100
0001
0100
0001
0100
0010
0100
0001
1000
,
0001
1000
0100
1000
0001
0010
0100
0010
0001
1000
0100
0010
0001
1000
0100
1000
,
0001
0010
0100
1000
0001
1000
0010
0100
0001
1000
0001
1000
0001
1000
0001
1000
,
0001
1000
0001
1000
0001
0010
0001
1000
0100
0010
0001
0010
0100
1000
0001
0010
,
0001
1000
0001
1000
0010
0100
0001
1000
0010
0100
0010
1000
0001
0100
0001
1000
,
0001
1000
0100
0010
0001
1000
0100
0010
0100
1000
0100
0010
0100
0010
0001
1000
,
0001
0100
0001
0100
0010
1000
0010
1000
0010
0100
0010
0100
0001
1000
0001
0010
,
0001
0010
0100
1000
0001
0010
0100
1000
0100
1000
0001
0010
0001
1000
0100
0010
,
0100
1000
0001
0010
0100
1000
0001
1000
0100
0010
0001
1000
0001
0100
0001
1000
,
0010
0100
0010
1000
0001
0100
0001
1000
0010
0100
0001
1000
0001
1000
0001
0100
,
0010
1000
0001
1000
0100
0010
0001
1000
0100
0010
0001
1000
0100
0010
0001
1000
,
0001
0100
0001
0100
0020
0000
0000
0000
0000
0000
0130
0001
0100
0000
0000
0100
,
0000
0000
0000
0000
0000
0000
0100
0000
0000
0000
0000
0000
0000
0000
0000
0001
0000
0100
0000
0001
0000
0100
0000
0000
0010
0000
0000
0100
0000
0000
0001
0000
0000
1000
0000
0000
0001
0000
0000
0000
0010
0000
0000
0000
0100
0000
0000
0000
,
1000
0000
0000
0000
0001
0000
0000
0000
1000
0000
0000
0000
0020
0000
0000
0000
0000
0000
0000
0000
0000
0000
0000
0000
0030
0000
0000
0000
0000
0000
1000
0000
0000
0100
0000
0000
1000
0000
0000
0000
0000
0000
0000
0000
0000
0000
0000
0000
,
0001
0010
0100
1000
0000
0000
0000
0000
0000
0001
0100
0010
,
1000
0000
0000
0000
0001
0000
0000
0000
1000
0000
0000
0000
0100
0000
0000
0000
0000
0000
0000
0000
0000
0000
0000
0000
0000
0000
0000
0000
0000
0000
0000
0000
0000
0000
0000
0000
0010
0000
0000
0001
0000
0000
0010
0000
0000
0000
0000
0000
,
0100
1000
0100
0010
0001
1000
0100
1000
0100
0010
0001
0010
0001
1000
0001
0100
,
0001
1000
0010
0100
0010
0000
0000
0000
0100
0000
0001
0100
0001
0000
0001
0000
,
1000
0100
0010
0001
1000
0001
0100
0000
0100
0000
0001
1000
0001
0100
0010
1000
,
0001
0100
0010
1000
0001
0010
0100
1000
0001
1000
0001
0010
0100
1000
0001
1000
,
0001
0010
0100
1000
0001
1000
0001
0010
0100
1000
0001
1000
0001
0010
0100
1000
,
0001
1000
0001
0100
0020
0000
0000
0000
0030
0000
0100
0000
0001
0100
0010
1000
,
0001
0100
0010
1000
0010
1000
0001
1000
0001
0010
0100
1000
0001
0010
0001
1000
,
0100
0010
0001
1000
0100
1000
0100
0010
0001
0010
0001
1000
0001
0100
0001
0100
,
0010
1000
0010
0100
0001
1000
0010
0100
0001
1000
0001
1000
0100
0010
0001
0010
,
0100
0000
0000
1000
0000
0000
0001
0000
0000
0010
0000
0000
0100
0000
0000
0000
0000
0000
0000
0000
0000
0000
0000
0000
1000
0000
0000
0100
0000
0000
0010
0000
0000
0001
0000
0000
1000
0000
0000
0000
0010
0000
0000
0000
0100
0000
0000
0000
,
0001
1000
0100
1000
0001
0010
0100
1000
0100
0010
0001
1000
,
0001
0100
0010
0200
0000
0000
0300
0000
0000
0001
0100
0010
,
1000
0000
0000
0000
0000
0000
0000
0000
0000
0000
0000
0000
0000
0000
0000
0000
0100
0000
0000
0000
0000
0000
0000
0000
0000
0000
0000
0000
0000
0000
0000
0000
0010
0000
0000
0000
0000
0000
0000
0000
0000
0000
0000
0000
0000
0000
0000
0000
0001
0000
0000
0000
0000
0000
0000
0000
0000
0000
0000
0000
0000
0000
0000
0000
1000
0000
0000
0000
0000
0000
0000
0000
0000
0000
0000
0000
0000
0000
0000
0000
0100
0000
0000
0000
0000
0000
0000
0000
0000
0000
0000
0000
0000
0000
0000
0000
0000
0000
0000
1000
0000
0000
0000
0000
0000
0000
0000
0000
0000
0000
0000
0000
0000
0000
0000
0000
0000
0001
0000
0000
0000
0000
0000
0000
0000
0000
0000
0000
0000
0000
0000
0000
0000
0000
0000
0000
0000
0000
0010
0000
0000
0000
0000
0000
0000
0000
0000
0000
0000
0000
0000
0000
0000
0000
0000
0000
0100
0000
0000
0000
0000
0000
0000
0000
0000
0000
0000
0000
0000
0000
0000
0000
0000
0000
0000
0000
0000
1000
0000
0000
0000
0000
0000
0000
0000
0000
0000
0000
0000
0000
0000
0000
,
0000
0100
0000
0000
0000
0000
0000
0000
0010
0000
0000
0000
0000
0000
0000
0000
0001
0000
0000
0000
0000
0000
0000
0000
0100
0000
0000
0000
0000
0000
0000
0000
0000
0000
0010
0000
0000
0000
0000
0000
0000
0000
0000
0000
0000
0000
1000
0000
0000
0000
0000
0000
0000
0000
0000
0000
0000
0000
0000
0000
0000
0020
0000
0000
,
0000
0000
0000
0000
,
0000
0000
0000
0000
,
0000
0000
0030
0000
0000
0000
00M0
00M0
;
