#TITLE:Crash;
#SUBTITLE:;
#ARTIST:m1dy;
#TITLETRANSLIT:;
#SUBTITLETRANSLIT:;
#ARTISTTRANSLIT:;
#CREDIT:;
#BANNER:Crash bn.png;
#BACKGROUND:Crash bg.png;
#LYRICSPATH:;
#CDTITLE:dragoon cd title.png;
#MUSIC:06-m1dy-crash.mp3;
#OFFSET:-3.222;
#SAMPLESTART:19.770;
#SAMPLELENGTH:12.000;
#SELECTABLE:YES;
#DISPLAYBPM:*;
#BPMS:0.000=300.000;
#STOPS:;
#BGCHANGES:;
// cache tags:
#FIRSTBEAT:0.000;
#LASTBEAT:691.000;
#SONGFILENAME:Songs/new again/Crash/Crash.sm;
#HASMUSIC:1;
#HASBANNER:1;
#MUSICLENGTH:141.408;
// end cache tags

//---------------dance-single - Blank----------------
#NOTES:
     dance-single:
     Blank:
     Challenge:
     16:
     1.000,1.000,1.000,0.799,0.647,875.000,377.000,113.000,0.000,40.000:

1000
0001
1000
0001
1000
0001
1001
0000
,
0110
0101
1010
0110
,
1100
0011
1001
1001
,
0110
0101
1010
0110
,
1200
0000
0300
0000
0001
1000
0000
0000
,
1000
0001
1000
0001
1000
0001
1000
0001
1000
0001
1000
0001
1000
0001
1000
0001
1000
0001
1001
0000
0000
0000
0000
0000
,
0110
0000
0000
0000
0000
0000
0101
0000
0000
0000
0000
0000
1010
0000
0000
0000
0000
0000
0100
0010
0100
0010
0100
0010
,
0100
0010
0100
0010
0100
0010
0100
0010
0100
0010
0100
0010
0100
0010
0100
0010
0100
0010
0200
0000
0000
0000
0000
0000
,
1300
0010
0001
0100
1000
0010
0001
0100
1000
0020
0000
0000
,
1030
0000
0100
0000
0010
0000
0001
0000
0010
0000
0100
0000
2000
0000
0000
3002
0000
0000
0000
0000
0000
0203
0000
0000
,
0300
1000
0010
0001
0100
1000
0010
0001
,
0200
2300
3000
0220
,
2332
0000
0000
0000
,
0000
0000
0000
0000
,
0000
0000
0000
0000
,
0000
0000
0000
0000
,
0000
0000
0000
0000
,
0000
0000
0000
0000
,
0000
0000
0000
0000
,
3203
0302
0023
0230
,
2302
0100
0000
0010
0000
0100
0000
0010
,
0000
0100
0000
0010
0000
0100
0000
0010
,
0000
0100
0000
0010
0000
0100
0000
0010
,
0000
0000
0100
0100
0010
0100
0010
0000
0000
0000
0100
0000
0000
0000
0010
0000
,
0000
0100
0000
0010
0000
0100
0000
0010
,
0000
0100
0000
0010
0000
0100
0000
0010
,
3223
0000
0330
0000
,
1000
0100
0010
0001
1000
0100
0010
0001
1000
0100
0010
0001
1000
0000
0100
0010
0001
1000
0100
0010
0001
1000
0100
0010
,
1001
0101
1010
0110
,
1001
0110
0101
1010
,
0110
0101
1010
0110
,
1001
0000
0011
0000
1010
0000
0101
0110
,
1001
0110
0011
1100
,
0110
0101
1010
0110
,
1001
1100
1001
0110
,
0011
0100
0010
0001
0100
1000
0010
0001
,
1100
0101
0110
0101
,
1010
0110
1001
1100
,
0101
0110
1001
0011
,
1100
0000
1010
0000
0101
0000
0110
1001
,
0110
0101
0011
1100
,
1010
0110
1001
0101
,
1010
0110
0101
0011
,
2020
0000
0000
0000
,
3131
0110
1001
0101
,
2200
3300
0110
0000
1001
0000
0101
0000
,
1010
0110
1001
0101
,
0022
0033
0011
0000
0110
0000
1100
0101
,
1010
0101
0110
1001
,
0202
0303
1100
0000
0110
0000
0011
0000
,
1100
0110
1001
0101
,
2020
3030
0110
0000
0101
0000
1010
0101
,
1010
0011
1100
0110
,
2002
3003
0110
0000
0101
0000
1010
0000
,
0110
0011
1100
0101
,
2200
3300
0110
0000
1001
0000
0110
1100
,
0101
0011
1010
1100
,
0022
0033
1001
0000
0101
0000
0110
0000
,
1001
0011
0101
1100
,
1010
0100
0001
0010
1000
0020
0000
0000
,
0131
1001
0101
1010
,
0220
0330
1001
0000
0110
0000
0101
0000
,
1010
0110
1001
0110
,
2020
3030
0101
0000
1010
0000
1100
0110
,
0011
0101
1010
0110
,
2200
3300
1010
0000
0110
0000
1001
0000
,
0101
1100
0011
0101
,
0220
0330
1100
0000
0110
0000
1001
1010
,
0101
1010
1001
0110
,
2020
3030
0101
0000
0110
0000
1010
0000
,
0101
0110
1001
0101
,
2020
3030
0110
0000
0101
0000
1001
0110
,
1001
0011
0011
1100
,
0220
0330
1100
0000
0110
0000
0011
0000
,
1001
0100
0010
0001
1000
0100
0010
0001
,
2000
0000
0000
0000
3002
0000
0203
0000
0301
0010
0001
0010
0001
0010
0001
0010
,
0001
0000
0000
0000
,
0000
0000
0000
0000
,
0000
0000
0000
0000
0000
0000
0000
1000
0001
1000
0001
1000
,
0001
1000
0001
1000
0000
0000
0000
0000
0000
0000
0000
0000
,
0000
0000
0000
0000
,
0000
0000
0000
0000
,
0000
0000
0000
0000
0000
0000
0000
0000
0000
0100
0010
0100
,
0010
0000
0100
0000
1000
0100
1000
0100
1000
0100
1000
0100
1000
0100
1000
0100
,
1000
0001
0010
0000
0000
0000
0000
0000
,
0000
0000
0000
0000
,
0000
2000
3020
0032
,
0203
0000
0000
1300
0100
0010
0001
0010
0100
1000
0000
0000
,
1001
0100
0010
0001
0010
0100
1000
0100
0010
0001
0010
0100
1000
0100
0010
0001
0010
0100
1000
0100
0010
0001
0010
0100
,
2002
3223
0000
0000
0330
1000
0000
0010
,
0000
0001
0000
0100
0000
0010
0000
1000
,
0000
0001
0000
0010
0000
0100
0000
0001
,
0000
0000
0000
0000
0000
0000
1000
0000
0000
0100
0000
0000
0010
0000
0000
1000
0000
0000
0001
0000
0000
0000
0000
0000
0100
0000
0000
0001
0000
0000
1000
0000
0000
0001
0000
0000
1000
0000
0000
0001
0100
0000
0010
0000
0100
0000
0010
0000
,
0110
0101
1010
0110
,
1001
1010
0101
0110
,
0001
1000
0001
0010
,
1000
1001
0010
0101
,
1000
0100
1001
0010
,
0101
1000
0011
0100
,
1010
0101
0010
1001
,
0101
0010
1000
0100
0001
0010
1000
0100
,
1001
0101
1010
0110
,
1001
0100
0001
0010
,
1000
1001
0101
1010
,
0110
0010
0101
0010
,
1100
0110
0101
1010
,
0110
0000
1001
0000
0101
1000
0100
0001
,
0010
0000
0000
0000
0000
0000
1000
0000
0000
0000
0000
0000
0100
0000
0000
0010
0000
0000
0100
0000
0000
0010
0000
0000
0100
0000
0000
0010
0000
0000
0100
0000
0000
0010
0000
0000
0100
0000
0001
0000
1000
0000
0001
0000
1000
0000
0001
0000
,
1000
0000
0000
0000
,
2002
0000
0000
0000
0000
0000
0000
0000
0000
0000
0000
0000
3013
0000
0000
0100
0000
0000
0001
0000
1000
0000
0001
0000
,
0100
0000
0000
1000
0000
0000
0100
0000
0000
0010
0000
0000
0001
0000
0100
0000
0010
0000
0100
0000
0010
0000
0100
0000
0220
0000
0000
0000
0000
0000
0000
0000
0000
0000
0000
0000
0330
0000
0000
0000
0000
0000
0000
0000
0000
0000
0000
0000
,
1000
0000
0000
0000
0000
0000
0010
0000
0000
0000
0000
0000
0001
0000
0000
0000
0100
0000
0000
0000
0010
0000
0000
0000
1000
0000
0000
0010
0000
0000
0001
0000
0000
0100
0000
0000
1000
0000
0100
0000
0010
0000
0001
0000
1000
0000
0100
0000
,
0022
0000
0000
0000
0000
0000
0033
0000
0000
0000
0000
0000
1000
0000
0000
0010
0000
0000
0001
0000
0100
0000
0001
0000
,
1000
0000
0000
0100
0000
0000
0010
0000
0000
0001
0000
0000
1000
0000
0001
0000
0010
0000
0100
0000
1000
0000
0001
0000
0220
0000
0000
0000
0000
0000
0000
0000
0000
0000
0000
0000
0330
0000
0000
0000
0000
0000
0000
0000
0000
0000
0000
0000
,
1000
0000
0000
0000
0000
0000
0001
0000
0000
0000
0000
0000
0100
0000
0000
0000
0010
0000
0000
0000
0001
0000
0000
0000
1000
0000
0000
0010
0000
0000
0001
0000
0000
0100
0000
0000
0001
0000
0010
0000
1000
0000
0001
0000
0100
0000
1000
0000
,
2020
0000
0000
0000
0000
0000
3030
0000
0000
0000
0000
0000
1000
0000
0000
0010
0000
0000
0001
0000
0100
0000
1000
0000
,
0001
0000
0000
0100
0000
0000
0010
0000
0000
0100
0000
0000
0010
0000
0100
0000
0010
0000
0100
0000
0010
0000
0100
0000
2002
0000
0000
0000
0000
0000
0000
0000
0000
0000
0000
0000
3003
0000
0000
0000
0000
0000
0000
0000
0000
0000
0000
0000
,
1000
0000
0000
0000
0000
0000
0100
0000
0000
0000
0000
0000
0010
0000
0000
0000
0001
0000
0000
0000
0010
0000
0000
0000
0100
0000
0000
1000
0000
0000
0100
0000
0000
0010
0000
0000
0001
0000
0010
0000
0100
0000
1000
0000
0100
0000
0010
0000
,
2002
0000
0000
0000
0000
0000
3003
0000
0000
0000
0000
0000
1000
0000
0000
0010
0000
0000
0001
0000
0100
0000
1000
0000
,
0010
0000
0000
0001
0000
0000
0010
0000
0000
0001
0000
0000
0010
0000
0100
0000
1000
0000
0100
0000
1000
0000
0100
0000
0022
0000
0000
0000
0000
0000
0000
0000
0000
0000
0000
0000
0000
0000
0000
0000
0000
0000
0000
0000
0000
0000
0000
0000
,
0000
0000
0000
0033
,
0000
0000
2002
3113
,
0000
0000
0000
1001
0000
0000
0000
0000
0000
0000
0000
0000
0110
0000
0000
0000
0000
0000
1000
0000
0100
0000
0010
0000
,
1000
0100
0010
0001
0010
0100
1000
0100
0011
0000
0000
0000
1100
0000
0000
0000
,
1010
0101
0110
1100
,
0011
0110
2000
3020
,
0032
0203
2300
3002
,
0203
0320
0131
1001
,
0101
1010
0110
1001
,
1100
0011
2000
3200
,
0302
0023
2030
3002
,
0203
0320
0131
1010
,
0110
1100
0011
1001
,
0011
1100
0011
1001
,
0101
1010
0110
0011
,
1100
0101
1010
0110
,
0011
0101
1001
0110
,
0101
1010
2000
3020
,
0032
0203
0302
2003
,
3020
0000
0032
2003
3001
0000
0101
0000
,
0011
1010
1100
1001
,
0110
1001
0001
0100
,
1000
0010
0001
1000
,
0100
0001
1000
1001
,
0101
0110
1010
1100
,
1001
0110
0101
0011
,
0101
1010
1100
1001
,
0101
0110
1100
1010
,
1001
0101
0110
1100
,
1010
0101
0110
0011
,
1010
0110
1001
0011
,
1100
0110
1001
0110
,
1001
0011
1100
0101
,
1010
0110
0101
0011
,
1010
1100
0011
0110
,
1001
0101
1010
0220
,
0000
0000
0000
0000
,
0000
0000
1330
1001
,
0101
1010
0110
1001
,
0101
1010
2002
0000
,
0000
0000
0000
0000
,
0000
0000
3003
0000
1001
0000
0000
0110
,
0000
0000
1010
0000
0000
0101
0000
0000
,
1000
0000
0000
0001
0000
0000
1000
0000
0000
0001
0000
0000
1000
0000
0100
0000
0010
0000
0100
0000
0010
0000
0100
0000
0010
0000
0000
0000
0000
0000
0001
0000
0000
0000
0000
0000
1000
0000
0000
0000
0000
0000
0001
0000
0000
0000
0000
0000
,
1000
0001
1000
0001
1000
0001
1000
0001
,
1000
0001
1000
0000
1001
0000
0101
0000
,
1010
0110
1001
0101
,
1100
0000
0011
0000
2002
0000
3103
0010
,
0100
0010
0100
0010
0100
0010
0100
0010
,
0100
0010
0100
0010
1100
0000
0000
0011
,
0000
0000
1010
0000
0000
0101
0000
0000
,
1000
0000
0000
0100
0000
0000
0010
0000
0000
0001
0000
0000
1000
0000
0100
0000
0010
0000
0001
0000
1000
0000
0100
0000
0022
0000
0000
0000
0000
0000
0000
0000
0000
0000
0000
0000
0000
0000
0000
0000
0000
0000
0000
0000
0000
0000
0000
0000
,
0000
0000
0000
0033
;
