#TITLE:Happy Theme;
#SUBTITLE:Trancebound Remix;
#ARTIST:The Cynic Project;
#TITLETRANSLIT:;
#SUBTITLETRANSLIT:;
#ARTISTTRANSLIT:;
#CREDIT:Plaguefox (gamecast.org/plaguemix);
#BANNER:happytheme-bn.png;
#BACKGROUND:happytheme-bg.jpg;
#LYRICSPATH:;
#CDTITLE:pmgcd.png;
#MUSIC:happytheme.ogg;
#OFFSET:0.010;
#SAMPLESTART:77.322;
#SAMPLELENGTH:13.314;
#SELECTABLE:YES;
#BPMS:0.000=180.000;
#STOPS:;
#BGCHANGES:;
// cache tags:
#FIRSTBEAT:32.000;
#LASTBEAT:303.000;
#SONGFILENAME:Songs/plaguemix series/Happy Theme/happytheme.sm;
#HASMUSIC:1;
#HASBANNER:1;
#MUSICLENGTH:109.333;
// end cache tags

//---------------dance-single - HARD----------------
#NOTES:
     dance-single:
     HARD:
     Hard:
     9:
     0.514,0.589,0.055,0.018,0.375,385.000,6.000,2.000,0.000,0.000:
0000
0000
0000
0000
,
0000
0000
0000
0000
,
0000
0000
0000
0000
,
0000
0000
0000
0000
,
0000
0000
0000
0000
,
0000
0000
0000
0000
,
0000
0000
0000
0000
,
0000
0000
0000
0000
,
1000
0000
0000
0000
0001
0000
0000
0000
1000
0000
0000
1000
0000
0000
1000
0000
,
0001
0000
0000
0000
1000
0000
0000
0000
0001
0000
0000
0001
0000
0000
0001
0000
,
1000
0000
0000
0000
0010
0000
0000
0000
0100
0000
0000
0100
0000
0000
0100
0000
,
0001
0000
0000
0000
0010
0000
0000
0000
0100
0000
0000
0100
0000
0000
0100
0000
,
1000
0000
0000
0000
1000
0000
0000
0000
0100
0000
0000
0010
0000
0000
0100
0000
,
1000
0000
0000
0000
1000
0000
0000
0000
0010
0000
0000
0100
0000
0000
0010
0000
,
1000
0000
0000
0000
0001
0000
0000
0000
0010
0000
0000
0100
0000
0000
0010
0000
,
0001
0000
0000
0000
0001
0000
0000
0000
0100
0000
0000
0010
0000
0000
0100
0000
,
0001
0000
0000
0000
1000
0000
0000
0000
0001
0000
0000
0001
0000
0000
0001
0000
,
1000
0000
0000
0000
0001
0000
0000
0000
1000
0000
0000
1000
0000
0000
1000
0000
,
0001
0000
0000
0000
0100
0000
0000
0000
0010
0000
0000
0010
0000
0000
0010
0000
,
1000
0000
0000
0000
0100
0000
0000
0000
0010
0000
0000
0010
0000
0000
0010
0000
,
0001
0000
0000
0000
0001
0000
0000
0000
0010
0000
0000
0100
0000
0000
0010
0000
,
0001
0000
0000
0000
0001
0000
0000
0000
0100
0000
0000
0010
0000
0000
0100
0000
,
0001
0000
0000
0000
1000
0000
0000
0000
0100
0000
0000
0010
0000
0000
0100
0000
,
1000
0000
0000
0000
1000
0000
0000
0000
0010
0000
0000
0100
0000
0000
0010
0000
,
1000
0000
0000
1000
0000
0000
1000
0000
0001
0000
0000
0001
0000
0000
0001
0000
,
1000
0000
0000
1000
0000
0000
1000
0000
0010
0000
0000
0010
0000
0000
0010
0000
,
0100
0000
0000
0100
0000
0000
0100
0000
0001
0000
0000
0001
0000
0000
0001
0000
,
0100
0000
0000
0100
0000
0000
0100
0000
0010
0000
0000
0010
0000
0000
0010
0000
,
1000
0000
0000
0100
0000
0000
0100
0000
1000
0000
0000
1000
0000
0000
1000
0000
,
0001
0000
0000
0100
0000
0000
0100
0000
0001
0000
0000
0001
0000
0000
0001
0000
,
0010
0000
0000
0100
0000
0000
0100
0000
0010
0000
0000
0010
0000
0000
0010
0000
,
0100
0000
0000
0100
0000
0000
0100
0000
1000
0000
0000
1000
0000
0000
1000
0000
,
0001
0000
1001
0000
0001
0000
0010
0100
,
1000
0000
0010
0100
1000
0100
0010
0000
,
1000
0000
1001
0000
1000
0000
0100
0010
,
0001
0000
0100
0010
0001
0010
0100
0000
,
1001
0000
0100
0000
1001
0000
0010
0100
,
0010
0000
1000
0001
0100
0010
0100
0000
,
1001
0000
0010
0000
1001
0000
0100
0010
,
0100
0000
0001
1000
0010
0100
0010
0000
,
1000
0000
1000
0000
1000
1000
0000
1000
,
0000
1000
0000
1000
0000
1000
0001
1000
,
0001
0000
0001
0000
0001
0001
0000
0001
,
0000
0001
0000
0001
0000
0001
0100
0001
,
0100
0000
0100
0000
0100
0100
0000
0100
,
0000
0100
0000
0100
0000
0100
0010
0100
,
0010
0000
0010
0000
0010
1000
0100
0010
,
0000
0010
0000
0010
0000
0001
0100
0010
,
1000
0000
0000
1000
0100
0000
0000
0100
0010
0000
0000
0010
0001
0000
1000
0000
,
0001
0000
0000
0001
0100
0000
0000
0100
0010
0000
1000
0000
0100
0000
0010
0000
,
0001
0000
0000
0001
0010
0000
0000
0010
0100
0000
0000
0100
1000
0000
0001
0000
,
1000
0000
0000
1000
0010
0000
0000
0010
0100
0000
0001
0000
0010
0000
0100
0000
,
1000
0000
0000
1000
0001
0000
0000
0001
1000
0000
0000
1000
0001
0000
1000
0000
,
0100
0000
0000
0100
0010
0000
0000
0010
0100
0000
1000
0000
0010
0000
0100
0000
,
0001
0000
0000
0001
1000
0000
0000
1000
0001
0000
1000
0000
0001
0000
0100
0000
,
0000
0100
0010
0000
0000
0010
0100
0000
0000
0100
0001
0000
0010
0000
0100
0000
,
2000
0000
0000
0000
,
0001
0001
0001
3001
,
0001
0000
0000
0100
0000
0000
1000
0000
1000
0000
0000
0100
0000
0000
0001
0000
,
0001
0000
0000
0100
0000
0000
1000
0000
1000
0000
0000
0100
0000
0000
0001
0000
,
1000
0000
0000
0100
0000
0000
0001
0000
0001
0000
0000
0100
0000
0000
1000
0000
,
1000
0000
0000
0100
0000
0000
0001
0000
0001
0000
0000
0100
0000
0000
1000
0000
,
0001
0000
0000
0010
0000
0000
0100
0000
1000
0000
0000
0010
0000
0000
0100
0000
,
0001
0000
0000
0010
0000
0000
0100
0000
1000
0000
0000
0010
0000
0000
0100
0000
,
0001
0000
0000
0100
0000
0000
0010
0000
1000
0000
0000
0100
0000
0000
0010
0000
,
0001
0000
0000
0100
0000
0000
0010
0000
1000
0000
0100
0000
0010
0000
0001
0000
,
0100
0000
0000
0001
0000
0000
0010
0000
0010
0000
0000
0001
0000
0000
0100
0000
,
0100
0000
0000
0001
0000
0000
0010
0000
0010
0000
0000
0001
0000
0000
0100
0000
,
0010
0000
0000
1000
0000
0000
0100
0000
0100
0000
0000
1000
0000
0000
0010
0000
,
0010
0000
0000
1000
0000
0000
0100
0000
0100
0000
0000
1000
0000
0000
0010
0000
,
0100
0000
0000
0001
0000
0000
0010
0000
0100
0000
0000
1000
0000
0000
0010
0000
,
0100
0000
0000
0001
0000
0000
0010
0000
0100
0000
0000
1000
0000
0000
0010
0000
,
0100
0000
0000
0010
0000
0000
1000
0000
0001
0000
0000
0010
0000
0000
0100
0000
,
1000
0000
0000
0010
0000
0000
0100
0000
0001
0000
0010
0000
0100
0000
1000
0000
,
0002
0000
0000
0000
,
1000
1000
1000
1003
;

//---------------dance-single - STANDARD----------------
#NOTES:
     dance-single:
     STANDARD:
     Medium:
     6:
     0.431,0.450,0.128,0.384,0.027,274.000,14.000,42.000,0.000,0.000:

0000
0000
0000
0000
,
0000
0000
0000
0000
,
0000
0000
0000
0000
,
0000
0000
0000
0000
,
0000
0000
0000
0000
,
0000
0000
0000
0000
,
0000
0000
0000
0000
,
0000
0000
0000
0000
,
1000
0100
1000
1100
,
0001
0000
0010
0000
0001
0010
0001
0010
,
0100
0010
0100
0110
,
1000
0000
0001
0000
1000
0001
1000
0001
,
0100
0001
0100
0101
,
1000
0000
0010
0000
1000
0010
1000
0010
,
0100
0010
0100
0110
,
0001
0000
1000
0000
0001
1000
0001
1000
,
0010
0000
0010
0000
0010
0000
1000
1000
,
0100
0000
0100
0000
0100
0010
0100
0000
,
1100
0000
0100
0000
0100
0000
1000
1000
,
0010
0000
0010
0000
0010
0100
0010
0000
,
1010
0000
0100
0000
0100
0000
0001
0001
,
0010
0000
0010
0000
0010
0100
0010
0000
,
0011
0000
0010
0000
0010
0000
0001
0001
,
0100
0000
0100
0000
0100
0010
0100
0000
,
0002
0000
2003
0000
,
3002
0000
1003
1000
,
0200
0000
0320
0000
,
0230
0000
1300
1000
,
0020
0000
0230
0000
,
0302
0000
0013
0010
,
0200
0000
2300
0000
,
3020
0000
0130
0100
,
0001
0000
0100
0000
0010
0000
0001
0100
,
0010
0000
0001
0100
0010
0100
0001
0000
,
1000
0000
0100
0000
0010
0000
1000
0100
,
0010
0000
1000
0100
0010
0100
1000
0000
,
0001
0000
0010
0000
0100
0000
0001
0010
,
0100
0000
0001
0010
0100
0010
0001
0000
,
1000
0000
0010
0000
0100
0000
1000
0010
,
0100
0000
1000
0010
0100
0010
1000
0000
,
0001
0000
0001
0000
0001
0001
0000
0001
,
0000
0001
0000
0002
0000
0000
0100
0000
,
1003
0000
1000
0000
1000
1000
0000
1000
,
0000
1000
0000
2000
0000
0000
0001
0000
,
3010
0000
0010
0000
0010
0010
0000
0010
,
0000
0010
0000
0020
0000
0000
1000
0000
,
0130
0000
0100
0000
0100
0100
0000
0100
,
0000
0100
0000
0200
0000
0000
0010
0000
,
0301
0000
0001
0000
0101
0000
0001
0100
,
0001
0100
0100
0101
,
1000
0000
1000
0000
1010
0000
0010
1000
,
0010
1000
1000
1010
,
0100
0000
0100
0000
0110
0000
1000
0001
,
1000
0000
0001
1000
0001
0000
0110
0000
,
0010
0000
0010
0000
0110
0000
1000
0010
,
0100
0000
0001
0010
0100
0000
0001
0000
,
2000
0000
0000
0000
,
0001
0001
0001
3001
,
0002
0000
0023
0000
,
0032
0000
0000
0000
0000
0000
0000
0000
0103
0000
0000
0010
0000
0000
1000
0000
,
0200
0000
0320
0000
,
0230
0000
0000
0000
0000
0000
0000
0000
1300
0000
0000
0010
0000
0000
0100
0000
,
0002
0000
0203
0000
,
0302
0000
0000
0000
0000
0000
0000
0000
0013
0000
0000
0100
0000
0000
1000
0000
,
0020
0000
0230
0000
,
0320
0000
0000
0000
1030
0100
0010
0001
,
2000
0000
3200
0000
,
2300
0000
0000
0000
0000
0000
0000
0000
3010
0000
0000
0100
0000
0000
0001
0000
,
0020
0000
0230
0000
,
0320
0000
0000
0000
0000
0000
0000
0000
0031
0000
0000
0100
0000
0000
0010
0000
,
2000
0000
3020
0000
,
2030
0000
0000
0000
0000
0000
0000
0000
3100
0000
0000
0010
0000
0000
0001
0000
,
0200
0000
0320
0000
,
0230
0000
0000
0000
0301
0010
0100
1000
,
0002
0000
0000
0000
,
1000
1000
1000
1003
,;

//---------------dance-single - LIGHT----------------
#NOTES:
     dance-single:
     LIGHT:
     Easy:
     5:
     0.338,0.416,0.265,0.018,0.000,228.000,29.000,2.000,0.000,0.000:
0000
0000
0000
0000
,
0000
0000
0000
0000
,
0000
0000
0000
0000
,
0000
0000
0000
0000
,
0000
0000
0000
0000
,
0000
0000
0000
0000
,
0000
0000
0000
0000
,
0000
0000
0000
0000
,
0100
0000
0100
0010
,
1000
0000
0000
0000
1000
0000
1000
0010
,
0100
0000
0010
0100
,
0001
0000
0000
0000
0001
0000
0001
0100
,
0010
0000
1000
0100
,
0001
0000
0000
0000
0001
0000
0001
0100
,
0010
0000
0001
0100
,
1000
0000
0000
0000
1000
0000
1000
0100
,
0010
0000
0010
0100
,
0001
0000
0000
0000
0001
0000
0001
0100
,
0010
0000
0100
0010
,
1000
0000
0000
0000
1000
0000
1000
0010
,
0100
0000
0001
0010
,
1000
0000
0000
0000
1000
0000
1000
0010
,
0100
0000
1000
0010
,
0001
0000
0000
0000
0001
0000
0001
0010
,
0100
0000
1000
0000
,
0010
0000
0001
0000
,
0100
0000
1000
0000
,
0010
0000
0001
0000
,
0010
0000
1000
0000
,
0100
0000
0001
0000
,
0010
0000
1000
0000
,
0100
0000
0001
0000
,
1001
0100
0001
0000
,
1001
0100
0001
0010
,
1001
0100
1000
0000
,
1001
0100
1000
0010
,
0001
1001
0100
0000
,
0010
1001
0100
1000
,
0010
1001
0100
0000
,
0010
1001
0100
0001
,
0010
0000
0010
0000
0010
0000
0000
0100
,
0000
0100
0000
0100
0000
0000
0000
0000
,
0001
0000
0001
0000
0001
0000
0000
1000
,
0000
1000
0000
1000
0000
0000
0000
0000
,
1000
0000
1000
0000
1000
0000
0000
0010
,
0000
0010
0000
0010
0000
0000
0000
0000
,
0100
0000
0100
0000
0100
0000
0000
0001
,
0000
0001
0000
0001
0000
0000
0000
0000
,
1001
0000
0010
0000
1001
0000
0000
1001
,
0000
0100
0000
1001
0000
0000
0000
0000
,
0101
0000
0010
0000
0101
0000
0000
0101
,
0000
0010
0000
0101
0000
0000
0000
0000
,
1010
0000
0100
0000
1010
0000
0000
1010
,
0000
0100
0000
1010
0000
0000
0000
0000
,
0110
0000
1000
0000
0110
0000
0000
0110
,
0000
0001
0000
0110
0000
0000
0000
0000
,
2000
0000
0000
0000
,
0100
0100
0100
3100
,
0001
0001
0010
0010
,
0100
0000
0100
0000
1000
0000
1000
0100
,
0010
0010
0001
0001
,
0100
0000
0100
0000
0010
0000
0010
0100
,
0001
0001
1000
1000
,
0010
0000
0010
0000
0100
0000
0100
0010
,
1000
1000
0100
0100
,
0010
0010
0001
0001
,
1001
1000
0100
0100
,
1001
0000
0001
0000
0100
0000
0100
0010
,
0100
0100
0001
0010
,
1001
0000
1000
0000
0100
0000
0001
0100
,
0001
0010
0100
0100
,
1001
0000
0010
0000
0100
0000
1000
0010
,
1000
0100
0010
0010
,
1001
0100
0010
0001
,
0002
0000
0000
0000
,
0010
0010
0010
0013
;
