#TITLE:Mayahem Temple;
#SUBTITLE:(Banjo Tooie);
#ARTIST:Rareware;
#TITLETRANSLIT:;
#SUBTITLETRANSLIT:;
#ARTISTTRANSLIT:;
#CREDIT:;
#BANNER:mayahem.png;
#BACKGROUND:mayahem-bg.png;
#LYRICSPATH:;
#CDTITLE:kykaCD.png;
#MUSIC:Mayahem Temple.mp3;
#OFFSET:-0.120;
#SAMPLESTART:56.100;
#SAMPLELENGTH:20.000;
#SELECTABLE:YES;
#BPMS:0.000=120.010,98.000=122.850,99.000=120.010;
#STOPS:;
#BGCHANGES:;
// cache tags:
#FIRSTBEAT:8.000;
#LASTBEAT:256.000;
#SONGFILENAME:Songs/toune 6/Mayahem Temple/tooie.sm;
#HASMUSIC:1;
#HASBANNER:1;
#MUSICLENGTH:136.150;
// end cache tags

//---------------dance-single - ----------------
#NOTES:
     dance-single:
     :
     Beginner:
     1:
     0.122,0.165,0.000,0.029,0.000,112.000,0.000,4.000,0.000,0.000:
0000
0000
0000
0000
,
0000
0000
0000
0000
,
1000
0000
0000
0000
,
0001
0000
0001
0000
,
1000
0000
1000
0000
,
0010
0000
0010
0010
,
0010
0000
0000
0000
,
0100
0000
0100
0000
,
0010
0000
0010
0000
,
1000
0000
1000
1000
,
1000
0000
0000
0000
,
0001
0000
0001
0000
,
0001
0000
0001
0000
,
0100
0000
0100
0100
,
0100
0000
0000
0000
,
0010
0000
0010
0000
,
1000
0000
1000
0000
,
0001
0000
0001
0001
,
0001
0000
0000
0000
,
1000
0000
0000
0000
,
0001
0000
0000
0000
,
0100
0000
0000
0000
,
0001
0000
0000
0000
,
1000
0000
0000
0000
,
0010
0000
0010
0000
,
0100
0000
0100
0000
,
0001
0000
0001
0000
,
1000
0000
0000
0000
,
0010
0000
0010
0000
,
0100
0000
0100
0000
,
0001
0000
1000
0000
,
0001
0001
0001
0001
,
0001
0000
0010
0000
,
0001
0000
1000
0000
,
0010
0000
0100
0000
,
0010
0000
0000
0000
,
0100
0000
0100
0000
,
0100
0000
0100
0100
,
0100
0000
0001
0000
,
0100
0000
0010
0000
,
1000
0000
0100
0000
,
1000
0000
0000
0000
,
0001
0000
0100
0000
,
0001
0000
1000
0000
,
0010
0000
0100
0000
,
0010
0010
0010
0010
,
0010
0000
1000
0000
,
0010
0000
0100
0000
,
0001
0000
1000
0000
,
0001
0000
0000
0000
,
0100
0000
0100
0000
,
0001
0000
0000
0000
,
1000
0000
1000
0000
,
0001
0000
0000
0000
,
0100
0000
0100
0000
,
0001
0000
0000
0000
,
1000
0000
1000
0000
,
0010
0000
0000
0000
,
0100
0000
0100
0000
,
0010
0000
0010
0000
,
2000
0000
0000
0000
,
3002
0000
0000
0000
,
0203
0000
0000
0000
,
0320
0000
0000
0000
,
1030
0000
0000
0000
;

//---------------dance-single - ----------------
#NOTES:
     dance-single:
     :
     Easy:
     3:
     0.220,0.306,0.044,0.132,0.000,186.000,6.000,18.000,0.000,0.000:
0000
0000
0000
0000
,
0000
0000
0000
0000
,
1000
0010
0100
0001
,
2000
0000
3001
0000
,
0200
0000
0310
0000
,
2000
0000
3001
0100
,
0020
0000
0000
0000
,
1030
0100
0010
0001
,
0100
0001
0010
0001
,
0100
0010
1000
0100
,
1000
0010
0100
0001
,
1000
0000
0001
0000
,
0100
0000
0010
0000
,
1000
0000
0001
1000
,
0002
0000
0000
0000
,
1003
0000
0100
0000
,
0010
0000
0100
0000
,
1000
0000
0010
0100
,
0002
0000
0000
0000
,
1003
0100
0010
0000
,
0001
0100
0010
0000
,
1000
0100
1000
0000
,
0001
0100
0001
0000
,
1001
0000
0000
0000
,
1000
0100
1000
0010
,
0100
0010
2000
0000
,
3001
0100
0001
1000
,
0002
0000
0000
0000
,
0103
0010
1000
0100
,
1000
0010
0200
0000
,
0310
1000
0001
0100
,
1001
1001
0110
0110
,
0001
1000
0100
1000
,
0010
0100
0001
0000
,
1000
0100
1000
0100
,
0020
0000
0000
0000
,
0031
0001
1000
1000
,
0100
0100
0010
0010
,
0001
1000
0001
1000
,
0010
0100
0010
0000
,
1000
0100
1000
0100
,
0010
0000
0000
0000
,
0001
0100
0001
0100
,
0010
1000
0010
0000
,
1000
0100
1000
0100
,
0010
0010
0010
0010
,
0001
0100
0001
1000
,
0100
1000
0010
0000
,
0100
0010
1000
0001
,
1000
0000
0000
0000
,
0020
0030
0020
0030
,
0100
0010
0100
0010
,
2000
3000
2000
3000
,
0001
1000
0001
0000
,
0200
0300
0200
0300
,
0010
1000
0001
0100
,
0002
0003
0002
0003
,
0100
0010
1000
0000
,
0100
0100
0010
0010
,
1000
1000
0100
0100
,
0001
0100
0010
0000
,
1000
0100
1000
0000
,
0001
0100
0001
0000
,
1000
0001
1000
0000
,
0101
0000
0000
0000
;

//---------------dance-single - ----------------
#NOTES:
     dance-single:
     :
     Medium:
     6:
     0.328,0.329,0.184,0.184,0.015,263.000,25.000,25.000,0.000,0.000:
0000
0000
0000
0000
,
0000
0000
0000
0000
,
1000
0001
0000
1000
0000
0001
0000
0100
,
0020
1000
1030
0000
,
2000
0001
3001
0000
,
0200
0010
0320
2030
,
3002
1000
0100
1003
,
0100
0000
0001
1000
0001
0000
1000
0001
,
1000
0000
0100
1000
0100
0000
0010
0001
,
0010
0000
0001
0100
0001
0000
1000
0010
,
1000
0000
0010
0100
0010
0000
1000
0001
,
1000
0001
0100
0001
0100
0000
0000
0000
,
0010
1000
0010
1000
0010
0000
0100
0000
,
0110
0000
1001
1001
,
2002
0000
0000
3003
,
0010
0000
0110
0000
,
1000
0000
1001
0000
,
0101
0000
1001
0110
,
1001
0000
0000
0000
,
1000
0000
0000
0100
0000
1000
0100
0000
0000
0010
0000
0000
,
0001
0000
0000
0100
0000
0010
0100
0000
0000
0010
0000
0000
,
1000
0000
0000
0001
0000
0100
0001
0000
0000
1000
0000
0000
,
0100
0000
0000
0100
0000
0001
0100
0000
0000
0010
0000
0000
,
1000
0000
0001
0100
0001
0000
1000
0000
,
0010
0000
0100
0010
0200
0000
0000
0000
,
0310
0000
1000
0001
1000
0000
0001
0000
,
1000
0000
0100
1000
0100
0000
0010
0000
,
0220
0000
0000
0000
0000
0000
0000
0330
,
0010
0000
1000
0010
1000
0000
0001
0000
,
0100
0010
0100
0000
0020
0000
0000
0000
,
1030
0100
0010
0001
,
0101
1001
1100
1010
,
0110
0000
0010
1000
0001
0000
0100
0000
,
0010
1000
0010
0000
1100
0000
0000
0000
,
0001
0000
1000
0100
1000
0000
0010
0000
,
2002
0000
0000
0000
0000
0000
0000
3003
,
1000
0000
0010
0100
0010
0000
0100
0010
,
0100
0000
0010
0100
0010
0100
0010
0000
,
1000
0000
0010
0100
0010
0000
1000
0000
,
0001
0000
0100
0010
0200
0000
0000
0000
,
0310
0000
1000
0001
1000
0000
0001
0000
,
0101
0000
0000
0000
,
1000
0000
0100
1000
0100
0000
0010
0000
,
0001
0000
0100
0010
2000
0000
0000
0000
,
3010
0100
0010
1000
,
0002
0203
0302
2003
,
3001
0000
0100
0001
0100
0000
0010
0000
,
1000
0000
0100
1000
0200
0000
0000
0000
,
0310
0000
0001
1000
0001
0000
0100
0000
,
1010
0000
0000
0000
,
0001
0001
0001
0001
,
1000
0100
1000
0100
1000
0100
1000
0100
,
0010
0010
0010
0010
,
0001
0100
0001
0100
0001
0000
0000
0000
,
1000
1000
1000
1000
,
0010
0100
0010
0100
0010
0100
0010
0000
,
1000
1000
1000
1000
,
0001
0100
0001
0100
0001
0000
0000
0000
,
1000
1100
0010
0110
,
0100
0101
0001
1001
,
1000
0100
0020
0031
,
0100
0010
2000
3001
,
0100
0001
0020
0031
,
0100
0010
2000
3001
,
1001
0000
0000
0000
;

//---------------dance-single - ----------------
#NOTES:
     dance-single:
     :
     Hard:
     10:
     0.584,1.000,0.294,0.294,0.518,477.000,40.000,40.000,0.000,0.000:
0000
0000
0000
0000
,
0000
0000
0000
0000
,
1000
0000
0100
0000
0000
0000
0010
0000
0000
0000
0001
0000
0000
0000
0100
0010
,
1000
0001
0100
0010
1001
0000
0000
0000
,
1000
0010
0100
0010
1001
0001
0100
0000
,
2020
3030
2000
3020
,
0230
0000
0000
0000
,
0301
0010
0100
1000
0010
0100
0001
1000
,
0100
1000
0010
0100
0001
0010
0001
0100
,
0010
1000
0100
1000
0010
0100
0001
0010
,
0001
0100
0010
1000
0100
1000
0010
0100
,
0001
1000
0100
1000
1100
0000
0000
0000
,
0010
0100
0001
0100
0011
0001
1000
0000
,
2002
3003
0020
2030
,
3002
0000
0000
0000
,
2003
0000
0000
3000
1010
0000
0000
0000
,
0020
0000
0000
0030
1001
0000
0000
0000
,
2002
0000
0000
3003
0002
0000
0203
0000
,
0302
0000
0000
0000
,
1003
0100
1000
0100
1000
0100
1000
0100
1000
0100
1000
0100
1000
0100
1000
0100
1000
0100
1000
0100
1000
0100
1000
0100
,
0010
0001
0010
0001
0010
0001
0010
0001
0010
0001
0010
0001
0010
0001
0010
0001
0010
0001
0010
0001
0010
0001
0010
0001
,
0100
0010
0100
0010
0100
0010
0100
0010
0100
0010
0100
0010
0100
0010
0100
0010
0100
0010
0100
0010
0100
0010
0100
0010
,
1000
0001
1000
0001
1000
0001
1000
0001
1000
0001
1000
0001
1000
0001
1000
0001
1000
0001
1000
0001
1000
0001
1000
0001
,
0100
0010
1001
1000
0110
0001
1010
0100
,
0001
0000
1000
0100
1000
0000
0101
0000
,
1001
0000
0000
1000
0000
0000
0100
0000
0000
1000
0000
0000
0010
1000
0010
1000
0010
1000
0010
1000
0010
1000
0010
1000
,
0001
0000
0100
0010
0100
0000
0001
0000
,
1000
0001
1000
0001
1000
0001
1000
0001
1000
0001
1000
0001
1000
0001
1000
0001
1000
0001
1000
0001
1000
0001
1000
0001
,
1000
0000
0010
1000
0001
0000
0101
0000
,
0001
0000
0000
1000
0000
0000
0100
0000
0000
1000
0000
0000
0010
1000
0010
1000
0010
1000
0010
1000
0010
1000
0010
1000
,
0010
1000
0001
0100
0001
0000
1001
0000
,
1000
0100
1000
0100
1000
0100
0010
0001
0010
0001
0010
0001
1000
0010
1000
0010
1000
0010
0100
0001
0100
0001
0100
0001
,
1000
0000
0001
0010
0001
0000
1010
0000
,
1001
0000
0000
0001
0000
0000
0010
0000
0000
0001
0000
0000
0100
0001
0100
0001
0100
0001
0100
0010
0100
0010
0100
0010
,
1000
0000
0010
0100
0010
0000
1000
0000
,
0001
1000
0001
1000
0001
1000
0001
1000
0001
1000
0001
1000
0001
1000
0001
1000
0001
1000
0001
1000
0001
1000
0001
1000
,
0001
1000
0100
1000
0010
0100
0001
1000
,
0001
0100
0010
1000
0100
1000
1100
0000
,
1001
0000
1000
0010
0100
0000
0001
0000
,
1000
0001
0100
0010
2000
0000
0000
0000
,
3010
0000
1000
0001
0100
0000
0001
0000
,
2002
0000
0000
0000
0000
0000
0000
3003
,
0110
0000
0010
1000
0001
0000
0011
0000
,
0001
1000
0100
1000
0020
0000
0000
0000
,
0130
0001
1000
0001
2000
0000
3200
0000
,
0320
0032
0203
0320
,
1030
0000
0001
0100
0001
0000
1000
0000
,
0100
1000
0010
0100
0002
0000
0000
0000
,
0103
0000
0010
1000
0100
0000
0010
0000
,
2002
0000
0000
0000
0000
0000
0000
3003
,
1001
1100
0110
1001
,
0100
0010
1000
0100
1000
0010
0100
0001
,
1001
0011
0101
1001
,
1000
0010
0100
0001
2000
0000
0000
3000
,
1001
0011
0101
1010
,
0010
1000
0001
0100
0001
1000
0100
0000
,
0110
1001
0101
1001
,
1000
0100
1000
0010
0200
0000
0000
0000
,
0301
0010
0100
1000
0001
0010
0100
1000
,
0001
0010
0100
1000
0001
0010
0100
0000
,
0010
0000
0000
0001
0000
1000
0002
0000
0000
0203
0000
0000
,
0310
0000
0000
1000
0000
0100
2000
0000
0000
3020
0000
0000
,
0130
0000
0000
0001
0000
0010
0002
0000
0000
0203
0000
0000
,
0310
0000
0000
1000
0000
0100
0020
0000
0000
0032
0000
0000
,
0103
0000
0000
0000
;
