#TITLE:Ocean of Memories;
#SUBTITLE:(Trance Mix);
#ARTIST:Theme of TITANIC;
#TITLETRANSLIT:;
#SUBTITLETRANSLIT:;
#ARTISTTRANSLIT:;
#CREDIT:;
#BANNER:Ocean of Memories BN.png;
#BACKGROUND:Ocean of Memories BG.png;
#LYRICSPATH:;
#CDTITLE:ncdx_cdtitle.png;
#MUSIC:Ocean of memories.mp3;
#OFFSET:0.000;
#SAMPLESTART:33.367;
#SAMPLELENGTH:16.000;
#SELECTABLE:YES;
#BPMS:0.000=66.400,36.000=137.900;
#STOPS:36.000=1.360
,153.000=1.320
;
#BGCHANGES:;
// cache tags:
#FIRSTBEAT:12.500;
#LASTBEAT:164.000;
#SONGFILENAME:Songs/NC.DX Originals/Ocean of Memories (Trance Mix)/Ocean of Memories.sm;
#HASMUSIC:1;
#HASBANNER:1;
#MUSICLENGTH:93.604;
// end cache tags

//---------------dance-single - ----------------
#NOTES:
     dance-single:
     :
     Hard:
     7:
     0.368,0.416,0.353,0.171,0.000,192.000,33.000,16.000,0.000,0.000:
0000
0000
0000
0000
,
0000
0000
0000
0000
,
0000
0000
0000
0000
,
0000
1000
0000
0000
0000
0000
0001
0000
,
0000
0000
0000
0000
1000
0001
2000
0000
,
3000
0001
0020
0030
,
1000
0001
0202
0000
0303
0000
1000
0001
,
2000
0000
3000
0000
0010
0100
0002
0000
,
0003
0000
1000
0200
2000
0000
3300
0000
,
1001
0000
0100
0001
0010
0001
1000
0001
,
0101
0000
0010
0100
1100
0000
0010
0001
,
0101
0000
0010
0001
1000
0010
0100
0010
,
1010
0000
1000
0010
0011
0000
0100
0010
,
1100
0000
0010
0001
0100
0001
1000
0001
,
0101
0010
1100
0001
,
0101
0000
0010
0001
1001
0000
0100
0010
,
1010
0000
0100
0001
0011
0000
1000
0001
,
0010
0001
0101
0010
0001
1000
0001
0010
,
1100
0010
0000
0001
0000
0100
0000
0001
,
0010
0001
0100
0001
0101
0001
0010
0001
,
1010
0010
0000
0100
0000
0001
0000
0010
,
0000
0001
1000
0100
1100
0000
0001
0000
,
0101
0000
0010
0000
1100
0000
0010
0001
,
0100
0001
0010
0010
0001
0000
1000
1000
,
0100
0000
0010
0010
0001
0000
1000
1000
,
0100
2000
3001
0200
,
0310
2000
3001
0101
,
0101
0000
1000
0001
0010
0000
0100
0001
,
0010
0001
1000
0001
0100
0000
0002
0000
,
0013
2000
3100
0010
,
0001
0000
1100
0000
1100
0000
0010
0001
,
0101
0000
0010
0001
1000
0001
0100
0100
,
0001
0000
0010
0010
1000
0000
0100
0100
,
0001
0010
1100
0010
,
0101
0001
1000
0020
,
0000
0000
0030
1000
,
0100
0000
1100
0000
1100
0000
0100
0001
,
0011
0000
1000
0001
0100
0001
0010
0001
,
1000
0001
1001
0000
1000
0000
1000
0000
,
0001
0001
1000
1000
,
0001
0001
2002
0000
,
3003
0000
0000
0000
;

//---------------dance-single - ----------------
#NOTES:
     dance-single:
     :
     Medium:
     5:
     0.285,0.307,0.235,0.171,0.000,149.000,22.000,16.000,0.000,0.000:
0000
0000
0000
0000
,
0000
0000
0000
0000
,
0000
0000
0000
0000
,
0000
0001
0000
0000
0000
0000
1000
0000
,
0000
0000
0000
0000
0001
1000
0002
0000
,
0003
1000
0200
0300
,
0001
1000
2200
0000
3300
0000
0001
1000
,
0002
0000
0003
0000
0100
0010
2000
0000
,
3000
0000
0001
0200
0002
0000
0303
0000
,
1001
0001
0101
0010
,
1000
0001
1100
0010
,
0001
0000
1000
0001
1000
0000
0001
0000
,
0100
0001
0101
1000
,
1100
0000
1000
0000
0001
0000
0010
0100
,
0010
0000
1000
0100
1000
0000
0001
0000
,
0100
0001
1000
0001
,
0101
0101
1100
0010
,
0001
1001
1001
0100
,
0010
0000
1000
0100
1000
0000
0001
0100
,
0001
2000
3100
0002
,
0103
0020
0031
2000
,
3100
0000
0010
0000
0100
0000
0010
0001
,
0010
1000
0001
0100
,
0001
0101
0010
1100
,
0010
0101
0010
0001
,
1000
1001
1000
1000
,
0001
0001
1000
0101
,
0101
1000
0001
1000
,
0001
0000
1000
0000
0010
0000
0100
0010
,
0100
0001
1000
0100
,
1000
0000
0100
0010
0100
0000
1000
0001
,
1000
0001
0100
0102
,
1000
0010
1003
1000
,
0001
1000
1000
0001
,
1000
0010
0100
0101
,
0010
1000
0001
0100
,
0010
0200
0000
0000
,
0300
1001
0010
0001
,
0100
1001
1000
0000
,
0001
0000
1000
0000
,
0001
1000
2002
0000
,
3003
0000
0000
0000
;

//---------------dance-single - ----------------
#NOTES:
     dance-single:
     :
     Easy:
     3:
     0.182,0.263,0.118,0.150,0.000,94.000,11.000,14.000,0.000,0.000:
0000
0000
0000
0000
,
0000
0000
0000
0000
,
0000
0000
0000
0000
,
0000
1000
0000
0000
0000
0000
0001
0000
,
0000
0000
0000
0000
1000
0001
2000
0000
,
3000
0001
0020
0030
,
1000
0001
0200
0000
0300
0000
1000
0001
,
2000
0000
3000
0000
0010
0100
0002
0000
,
0003
0000
0001
0200
0002
0000
0303
0000
,
1001
1000
0000
1100
,
0000
0001
0000
0101
,
0000
1000
0000
0001
,
0000
1000
0000
0001
,
1000
0001
0001
1000
,
1000
0001
0000
0010
,
0100
0001
0001
1000
,
1000
0100
0000
1000
,
0000
1100
0000
0001
,
0000
0101
0000
1000
,
0001
0200
0000
0000
,
0300
1100
0000
0010
,
0001
0020
0000
0000
,
0030
0011
0000
1000
,
0000
0001
0000
1000
,
0000
0001
0000
1000
,
0001
1001
0000
1000
,
0000
0100
0000
0001
,
0000
0010
0000
0001
,
0000
0100
0000
1100
,
0000
1000
0000
0001
,
0000
0020
0000
0000
,
0030
0100
0001
2000
,
3000
1000
1000
1000
,
0000
0010
0000
0100
,
0000
0001
0001
0020
,
0000
0000
0030
0010
,
0000
0100
0000
0001
,
0000
1000
0000
0010
,
1000
1001
1000
0000
,
0001
0000
1000
0000
,
0001
1000
2002
0000
,
3003
0000
0000
0000
;

//---------------dance-single - ----------------
#NOTES:
     dance-single:
     :
     Challenge:
     9:
     0.580,0.679,0.481,0.085,0.513,327.000,45.000,8.000,0.000,0.000:
0000
0000
0000
0000
,
0000
0000
0000
0000
,
0000
0000
0000
0000
,
0000
1000
0000
0000
0000
0000
0001
0000
,
0000
0000
0000
0000
0000
0000
0000
0000
1000
0100
0010
0001
2000
0000
0000
0000
,
3000
0000
0000
0000
0100
0001
0010
0001
0202
0000
0000
0000
0303
0000
0000
0000
,
1000
0001
0010
0001
0101
0000
0101
0000
0101
0000
0101
0000
1000
0100
0010
0100
,
1000
0000
1000
0000
1000
0000
1000
0000
0010
0001
0100
0001
0020
0000
0000
0000
,
0030
0000
0000
0000
1000
0001
0100
0001
0202
0000
0000
0000
0303
0000
0010
0001
,
1001
0000
0000
0000
1000
0100
0010
0100
1000
0100
0010
0100
1000
0100
0010
0000
,
1100
0010
1100
0010
,
1100
0000
0000
0000
0010
0001
0100
0001
0010
0001
0100
0001
0010
0001
0100
0000
,
0101
0010
0101
0010
,
0101
0000
0000
0000
1000
0001
0010
0100
1000
0100
0010
0100
1000
0001
0010
0000
,
0101
0010
1100
0010
,
0101
0000
0000
0000
1000
0010
0001
0010
1000
0010
0001
0010
1000
0010
0001
0010
,
1000
0000
0000
0000
0010
0100
1000
0100
0010
0000
0000
0000
1000
0100
0010
0100
,
1000
0000
0000
0000
0011
0000
0000
0000
0011
0000
0000
0000
1000
0100
0010
0100
,
1000
0000
0000
0000
0010
0001
0100
0001
0010
0000
0000
0000
1000
0001
0010
0001
,
0100
0000
0000
0000
1000
0100
0010
0100
1000
0001
0010
0001
0100
0001
0010
0001
,
1000
0010
0100
0010
1000
0010
0100
0010
1000
0100
0010
0100
1000
0100
0010
0100
,
1000
0000
0010
0100
1100
0010
0001
0100
,
0101
0010
0001
1000
1001
0010
0100
0001
,
1001
0010
1100
0010
0101
0010
1001
0100
,
1001
1000
1100
0010
0101
0010
1000
0001
,
0100
0000
0001
0000
1001
0000
0000
0000
1001
0000
0000
0000
0010
0001
0010
0001
,
0010
0000
0000
0000
1000
0100
1000
0100
1000
0000
0000
0000
0110
0000
0000
0000
,
0110
0000
0000
0000
1000
0000
0001
0000
0101
0000
0000
0000
0010
0001
0010
0001
,
0010
0000
0000
0000
1000
0100
1000
0100
1000
0000
0000
0000
0010
0000
0001
0000
,
0101
0010
0001
1000
1001
0000
0100
0001
,
0101
0000
0010
0010
0010
0000
1000
0100
,
0110
0000
0000
0000
1000
0001
0100
0001
0010
0001
0100
0000
0101
0000
0000
0000
,
0101
0000
0010
0100
1100
0000
0010
0001
,
0101
0000
0000
0000
1000
0100
0010
0100
1000
0100
0010
0100
1000
0100
0010
0100
,
1000
0000
0000
0000
0100
0001
0010
0001
0100
0001
0010
0001
0100
0001
0010
0001
,
0100
0000
1000
0001
0011
0000
1000
0100
,
0110
0000
0000
0000
1000
0001
0100
0001
0010
0001
1000
0010
0100
0010
1000
0010
,
0100
0010
1000
0100
0010
0100
0010
0100
0010
0100
1000
0001
0010
0001
0100
0001
,
0010
0001
0100
0000
1001
0000
0000
0000
1000
0000
1000
0000
0100
0000
0100
0000
,
0010
0010
0001
0000
0001
0001
0010
0010
,
0100
0100
1000
0000
2002
0000
0000
0000
,
3003
0000
0000
0000
;
