#TITLE:Bonnie Dancing with Clyde;
#SUBTITLE:;
#ARTIST:M1dy;
#TITLETRANSLIT:;
#SUBTITLETRANSLIT:;
#ARTISTTRANSLIT:;
#CREDIT:;
#BANNER:../speedcore rejects ban.png;
#BACKGROUND:../speedcore rejects bg.png;
#LYRICSPATH:;
#CDTITLE:;
#MUSIC:Bonnie Dancing with Clyde.ogg;
#OFFSET:-0.040;
#SAMPLESTART:10.000;
#SAMPLELENGTH:15.000;
#SELECTABLE:YES;
#BPMS:0.000=180.000;
#STOPS:;
#BGCHANGES:;
// cache tags:
#FIRSTBEAT:16.000;
#LASTBEAT:403.000;
#SONGFILENAME:Songs/Speedcore Rejects/Bonnie Dancing with Clyde - [Happy Feet!]/Bonnie Dancing with Clyde.sm;
#HASMUSIC:1;
#HASBANNER:1;
#MUSICLENGTH:137.932;
// end cache tags

//---------------dance-single - Happy Feet----------------
#NOTES:
     dance-single:
     Happy Feet:
     Challenge:
     12:
     1.000,1.000,0.051,0.449,1.000,1040.000,7.000,62.000,40.000,6.000:

0000
0000
0000
0000
,
0000
0000
0000
0000
,
0000
0000
0000
0000
,
0000
0000
0000
0000
,
1000
0000
0001
0010
0001
0000
1000
0000
0100
0000
1000
0000
0010
0000
0100
0000
,
0001
0000
1000
0001
1000
0000
0010
0000
0100
0000
0001
0000
0010
0100
0010
0000
,
0100
0000
0000
0000
0000
0000
1000
0000
0000
0010
0000
0000
1000
0000
0000
0000
0000
0000
0001
0000
0000
0000
0000
0000
0010
0000
0001
0000
0010
0000
0001
0000
0000
1000
0000
0000
0001
0000
0000
1000
0000
0000
0001
0000
0100
0000
0001
0000
,
0200
0000
0000
0000
M32M
0000
0000
1030
,
0001
0000
1000
0100
1000
0000
0001
0000
0010
0000
0100
0000
0010
0000
0001
0000
,
1000
0000
0010
0100
0010
0000
1000
0000
0100
0000
1000
0100
0010
0001
0010
0100
,
1000
0000
0010
0000
0100
0000
0001
0000
1000
0000
0001
0010
0001
0000
0100
0000
,
0001
0000
1000
0000
0001
0000
1000
0000
0000
0000
0000
0000
0100
0000
0000
0000
0000
0000
1000
0000
0000
0000
0000
0000
0010
0000
0000
1000
0000
0000
0010
0000
0000
0000
0000
0000
1000
0000
0000
0001
0000
0000
1000
0000
0000
0000
0000
0000
,
0100
0000
0010
0001
0010
0000
0001
0000
1000
0000
0100
0000
0010
0000
0001
0000
,
0010
0000
0100
0010
0100
0000
1000
0000
0001
0000
1000
0001
1000
0001
1000
0100
,
1000
0000
0001
0000
0010
0000
0001
0000
0100
0000
0010
1000
0010
0000
0100
0000
,
0001
0000
1000
0000
0001
0000
1000
0000
0000
0000
0000
0000
0001
0000
0000
0000
0000
0000
0100
0000
0000
0000
0000
0000
0001
0000
0000
0010
0000
0000
0001
0000
0000
1000
0000
0000
0001
0000
0000
0100
0000
0000
0010
0000
0000
0100
0000
0000
,
0001
0000
1000
0100
1000
0000
0100
0000
1000
0000
0001
0000
0100
0000
0001
0000
,
0010
0000
0001
1000
0001
0000
0100
0000
0010
0000
1000
0001
1000
0001
0010
0100
,
1000
0000
0100
0000
1000
0000
0001
0000
0100
0000
0001
0100
0001
0000
1000
0000
,
0100
0010
0100
0000
1000
0000
0001
0000
0100
0001
0100
0000
0010
1000
0010
0000
,
0100
0000
0001
0010
0001
0000
1000
0000
0100
0000
1000
0000
0001
0000
0100
0000
,
0001
0000
0010
0100
0010
0000
0001
0000
0010
0000
0001
1000
0001
1000
0100
0010
,
0001
0000
1000
0000
0100
0000
0010
0000
0100
0000
1000
0001
1000
0000
0100
0000
,
1000
0000
0001
0000
1000
0000
0001
0000
0000
0010
0000
0000
0001
0000
0000
1000
0000
0000
0001
0000
0000
1000
0000
0000
0100
0000
0000
0010
0000
0000
0100
0000
0000
1000
0000
0000
0001
0000
0000
1000
0000
0000
0010
0000
0000
1000
0000
0000
,
0002
0003
4000
0000
,
3111
0000
0004
0000
,
1113
0000
0400
0000
,
1311
0000
0000
0000
0000
0000
0000
0000
MMMM
0000
0000
0000
0000
0000
0000
0000
0002
0003
0020
0030
0200
0300
2000
3000
0200
0000
0320
0000
0032
0000
2003
0000
,
3002
0003
1000
0100
1000
0000
0001
0000
0010
0000
0100
0000
1000
0000
0001
0000
,
0010
0000
0100
0010
0100
0000
0010
0000
0001
0000
1000
0000
0001
1000
0001
0000
,
1000
0000
0000
0000
0000
0000
0010
0000
0000
1000
0000
0000
0010
0000
0000
0000
0000
0000
0100
0000
0000
0000
0000
0000
0001
0000
1000
0000
0001
0000
1000
0000
0000
0010
0000
0000
1000
0000
0000
0001
0000
0000
1000
0000
0100
0000
1000
0000
,
0200
0000
0000
0000
M32M
0000
0000
0031
,
1000
0000
0001
0100
0001
0000
1000
0000
0100
0000
0010
0000
0100
0000
1000
0000
,
0001
0000
0100
0001
0100
0000
0010
0000
1000
0000
0001
0010
0001
1000
0001
0100
,
0001
0000
0010
0000
0100
0000
0010
0000
0001
0000
1000
0001
1000
0000
0100
0000
,
0010
0001
0010
0000
0100
0000
1000
0000
0001
1000
0001
0000
1000
0010
1000
0000
,
0100
0000
1000
0001
1000
0000
0100
0000
0010
0000
0001
0000
1000
0000
0010
0000
,
0100
0000
0001
0010
0001
0000
1000
0000
0001
0000
0010
0001
0010
0100
1000
0001
,
1000
0000
0010
0000
0100
0000
0001
0000
1000
0000
0001
0100
0001
0000
1000
0000
,
0100
1000
0100
0000
0010
0000
0001
0000
1000
0001
1000
0001
1000
0010
0100
0001
,
1000
0000
0010
1000
0010
0000
1000
0000
0001
0000
0010
0000
0001
0000
0100
0000
,
0010
0000
1000
0001
1000
0000
0100
0000
0010
0000
0001
0010
0001
1000
0001
1000
,
0001
0000
0100
0000
0010
0000
1000
0000
0001
0000
1000
0010
1000
0000
0100
0000
,
0010
0001
0010
0000
0100
0000
1000
0000
0001
1000
0001
0000
0100
0001
0100
0000
,
0010
0000
1000
0001
1000
0000
0010
0000
0100
0000
0001
0000
1000
0000
0001
0000
,
0010
0000
0100
0010
0100
0000
0010
0000
0001
0000
1000
0100
1000
0001
1000
0010
,
0100
0001
1000
0001
0010
0100
1000
0100
1000
0001
1000
0001
0100
0001
0100
0010
,
0100
0000
0000
0000
0010
0000
0000
0000
1000
0000
0000
0000
0100
0000
0000
0000
0010
0000
0000
0000
0001
0000
0000
0000
2M00
0000
3000
0000
002M
0000
0030
0000
M200
0000
0000
0300
00M2
0000
0000
0003
2M00
0000
0000
0000
00M2
0000
0000
3000
2M00
0000
0000
0003
00M2
0000
0000
3000
2M00
0000
0000
0003
00M2
0000
0000
3000
,
1M03
0000
0001
1000
0100
0000
0010
0000
0001
0000
1000
0000
0010
0000
0100
0000
,
0001
0000
0010
0100
1000
0000
0100
0010
0001
0000
1000
0000
0010
0000
0100
0010
,
1000
0000
0001
0010
0100
0000
0010
0000
0001
0000
1000
0000
0010
0000
1000
0000
,
0001
0100
0001
0100
0001
0000
1000
0000
0100
0010
0100
0010
0100
0000
0010
0000
,
0001
0000
1000
0100
0010
0000
0100
0000
0010
0000
0001
0000
1000
0000
0001
0000
,
0010
0000
0001
1000
0010
0000
0100
0010
1000
0000
0001
0000
0010
0000
0100
0010
,
0001
0000
1000
0010
0100
0000
0010
0000
1000
0000
0001
0000
0010
0000
0001
0000
,
1000
0001
1000
0001
1000
0001
1000
0004
4000
0000
0000
0000
0000
0000
3000
0003
,
0100
0010
0100
0000
0010
1000
0010
0000
1000
0100
1000
0000
0001
0010
0001
0000
,
0010
0100
0010
0000
0100
1000
0100
0000
1000
0001
1000
0100
0010
0001
1000
0000
,
0001
0100
0001
0000
1000
0001
1000
0000
0100
1000
0100
0000
0010
0001
0010
0000
,
0001
1000
0001
1000
0001
0000
1000
0010
1000
0100
0010
0001
1000
0001
1000
0000
,
0010
0100
0010
0000
1000
0001
1000
0000
0001
0010
0001
0000
0010
0100
0010
0000
,
0100
1000
0100
0000
1000
0010
1000
0000
0001
0100
0001
0100
0010
1000
0001
0000
,
4000
0000
0000
0000
0000
0000
0000
0000
3002
0203
0302
0203
0302
0203
0302
0203
,
0302
0000
MMM3
0000
2000
0000
0000
3001
,
0100
0000
0001
0010
0001
0000
1000
0000
0100
0000
1000
0000
0010
0000
0100
0000
,
0001
0000
0010
0100
0010
0000
0001
0000
1000
0000
0100
1000
0100
1000
0010
1000
,
0001
0100
0001
0100
0001
0100
0001
0100
0001
0100
0001
0100
0010
1000
0001
1000
,
0001
0100
0001
0000
1000
0000
0100
0000
0010
0001
0010
0000
0001
1000
0001
0000
,
1000
0000
0010
0100
0010
0000
1000
0000
0100
0000
0010
0000
0100
0000
1000
0000
,
0001
0000
0100
0010
0100
0000
0010
0000
1000
0000
0001
0010
0001
0010
0100
1000
,
0001
0000
1000
0000
0001
0000
0010
0000
0100
0000
1000
0001
1000
0000
0010
0000
,
0100
0001
0100
0000
0010
0000
1000
0000
0001
1000
0001
0010
0100
1000
0001
1000
,
0001
0000
1000
0100
1000
0000
0010
0000
0100
0000
0001
0000
0010
0000
0001
0000
,
1000
0000
0100
0010
0100
0000
0010
0000
0001
0000
0010
0001
0010
0001
0100
0010
,
1000
0100
1000
0100
1000
0100
1000
0100
1000
0100
1000
0100
0010
0001
1000
0001
,
1000
0010
1000
0000
0001
0000
0010
0000
0100
1000
0100
0000
1000
0001
1000
0000
,
0010
0000
0100
0001
0100
0000
0010
0000
1000
0000
0100
0000
0010
0000
0100
0000
,
1000
0000
0001
0100
0001
0000
0010
0000
0001
0000
0010
0001
0010
0001
0010
0100
,
1000
0000
0010
0000
0100
0000
0010
0000
1000
0000
0100
0010
0100
0000
0010
0000
,
0001
0000
0000
0000
0000
0000
0000
0000
0100
0000
0000
0000
0000
0000
0000
0000
0001
0000
0000
0000
0000
0000
0000
0000
0100
0000
0000
0000
0000
0000
0000
0000
0000
0000
0000
0000
0010
0000
0000
0000
0000
0000
0000
0000
0000
0000
0000
0000
0100
0000
0000
0000
0000
0000
0000
0000
0000
0000
0000
0000
0001
0000
0000
0000
0000
0000
0000
0000
0000
0000
0000
0000
0200
0000
0000
0000
0000
0000
0000
0000
0000
0300
0000
0000
0002
0000
0000
0000
0000
0000
0000
0000
0000
0003
0000
0000
2M00
0000
0000
0000
0000
0000
0000
0000
0000
0000
0000
0000
00M2
0000
0000
0000
0000
0000
0000
0000
0000
3000
0000
0000
2M00
0000
0000
0000
0000
0000
0000
0000
0000
0003
0000
0000
00M2
0000
0000
0000
0000
0000
0000
0000
0000
3000
0000
0000
2M00
0000
0000
0000
0000
0000
0000
0000
0000
0003
0000
0000
00M2
0000
0000
0000
0000
0000
0000
0000
0000
3000
0000
0000
2M00
0000
0000
0000
0000
0000
0000
0000
0000
0003
0000
0000
00M2
0000
0000
0000
0000
0000
0000
0000
0000
3000
0000
0000
,
1M03
0010
1000
0001
0100
0001
1000
0001
0010
0100
1000
0100
0010
0001
0010
0100
,
0010
0001
1000
0100
1000
0001
0010
0001
0010
0100
1000
0010
0100
0001
0100
0001
,
1000
0010
0100
0001
1000
0100
1000
0001
0100
0001
1000
0010
0100
0010
1000
0001
,
0010
0100
1000
0001
1000
0010
0100
0001
1000
0100
0010
0001
0010
0100
0010
0001
,
0010
0100
1000
0001
1000
0001
0100
0001
1000
0100
1000
0010
0100
0010
1000
0100
,
1000
0001
1000
0001
0100
0010
0100
0001
0010
0100
1000
0100
1000
0010
0100
0001
,
1000
0100
1000
0001
0010
0001
0010
0100
0010
0001
1000
0001
0100
0001
1000
0100
,
1000
0010
1000
0010
0100
0001
0100
0001
1000
0100
1000
0100
0010
0001
0010
0001
,
1000
0100
1000
0000
0001
0010
0001
0000
1000
0001
1000
0000
0010
0100
0010
0000
,
1000
0010
1000
0000
0001
0100
0001
0000
0010
0001
0010
0100
1000
0001
1000
0000
,
0001
0100
0001
0000
0010
0001
0010
0000
0100
1000
0100
0000
1000
0001
1000
0000
,
0010
0100
0010
0000
0100
0001
0100
0000
0010
1000
0010
0100
0001
1000
0001
0000
,
1000
0100
1000
0000
0001
0100
0001
0000
0010
0100
0010
0000
0100
1000
0100
0000
,
1000
0010
1000
0000
0001
1000
0001
0000
0100
0010
0100
0001
1000
0100
1000
0000
,
0001
0000
0010
0001
0010
0000
0100
0000
1000
0000
0010
0000
0100
0001
0100
0000
,
0001
0000
0000
1000
0000
0000
0001
0000
0000
1000
0000
0000
0001
0000
0000
0100
0000
0000
0010
0000
0000
1000
0000
0000
0001
0000
1000
0000
0001
0000
1000
0000
0000
0100
0000
0000
1000
0000
0000
0001
0000
0000
0100
0000
0001
0000
0100
0000
,
0002
0003
4000
0000
,
3111
0000
0004
0000
,
1113
0000
0400
0000
,
1311
0000
0000
0000
0000
0000
0000
0000
MMMM
0000
0000
0000
0000
0000
0000
0000
0002
0003
2000
3000
0002
0003
2000
3000
0200
0000
2300
0000
3020
0000
0230
0000
,
0320
0000
0000
0000
2030
0000
0000
0000
3002
0000
0000
0000
0023
0000
0000
0000
0M32
0000
0000
0000
20M0
0000
0000
0003
0M02
0000
0000
3000
20M0
0000
0000
0003
3M02
0000
0000
0000
0000
0000
0000
0000
0000
0000
0000
0000
0000
0000
0000
0000
0003
0000
0000
0000
0000
0000
0000
0000
0000
0000
0000
0000
0000
0000
0000
0000
;
