#TITLE:Evolution Canceler;
#SUBTITLE:;
#ARTIST:Kobaryo;
#TITLETRANSLIT:;
#SUBTITLETRANSLIT:;
#ARTISTTRANSLIT:;
#CREDIT:;
#BANNER:evolutioncanceler-bn.png;
#BACKGROUND:evolutioncanceler-bg.png;
#LYRICSPATH:;
#CDTITLE:;
#MUSIC:Evolution Canceler.ogg;
#OFFSET:0.662;
#SAMPLESTART:141.980;
#SAMPLELENGTH:18.000;
#SELECTABLE:YES;
#BPMS:0.000=175.000;
#STOPS:;
#BGCHANGES:;
// cache tags:
#FIRSTBEAT:32.000;
#LASTBEAT:600.000;
#SONGFILENAME:Songs/Index Tournament 1/Evolution Canceler/Evolution Canceler.sm;
#HASMUSIC:1;
#HASBANNER:1;
#MUSICLENGTH:205.141;
// end cache tags

//---------------dance-single - Happy Feet----------------
#NOTES:
     dance-single:
     Happy Feet:
     Challenge:
     14:
     1.000,1.000,0.307,0.146,1.000,1303.000,63.000,30.000,4.000,9.000:

0000
0000
0000
0000
,
0000
0000
0000
0000
,
0000
0000
0000
0000
,
0000
0000
0000
0000
,
0000
0000
0000
0000
,
0000
0000
0000
0000
,
0000
0000
0000
0000
,
0000
0000
0000
0000
,
1000
0000
0001
0000
1000
0100
1000
0001
0010
0100
1000
0000
0001
0100
0001
1000
,
0010
0100
0001
0000
1000
0001
0100
0010
1000
0001
0100
0000
0001
0100
0010
0100
,
0001
1000
0100
0000
0010
0001
1000
0100
1000
0001
0100
0000
0001
1000
0100
0010
,
0001
1000
0100
0000
0010
0001
1000
0001
0100
0010
1000
0000
0001
0100
0001
1000
,
0100
0010
0001
0000
1000
0100
1000
0001
0100
0001
1000
0000
0001
1000
0100
0010
,
0001
1000
0001
0000
0100
0010
1000
0001
1000
0100
0010
0000
0001
0010
0100
1000
,
0001
0100
0001
0000
1000
0010
0100
0010
1000
0001
0100
0000
0001
0100
0001
1000
,
0100
0010
0001
0000
1000
0100
1000
0001
0010
0100
1000
0000
0001
0100
0001
1000
,
0100
0000
0000
1000
0000
0000
0001
0000
1001
0000
0000
0000
0000
0000
0000
0000
,
0000
0000
0000
0000
,
1000
0000
0000
0010
0000
0000
0100
0000
0101
0000
0000
0000
0000
0000
0000
0000
,
0001
0100
0001
1000
0200
0300
0200
0300
1000
0100
1000
0100
0020
0000
0000
0030
,
0001
0000
0000
1000
0000
0000
0010
0000
0110
0000
0000
0000
0000
0000
0000
0000
,
0000
0000
0000
0000
,
0100
0000
0000
0001
0000
0000
1000
0000
1100
0000
0000
0000
0000
0000
0000
0000
,
0100
1000
0001
0010
0200
0300
0200
0300
1000
0001
1000
0001
0200
0000
0000
0300
,
0001
1000
0100
0000
1000
0100
1000
0001
0100
0001
1000
0000
0001
0100
0001
1000
,
0100
0010
0001
0000
0010
0001
1000
0001
0100
0010
1000
0000
0001
0100
0010
0100
,
0001
1000
0100
0000
0010
0100
1000
0001
0100
0001
1000
0000
0010
0100
0001
1000
,
0100
0010
0001
0000
1000
0100
1000
0001
0100
0010
1000
0000
0001
0100
0001
1000
,
0100
0010
0001
0000
0010
0100
1000
0001
0100
0001
1000
0000
0010
0100
0010
1000
,
0001
0010
0100
0000
0010
0001
1000
0100
1000
0001
0100
0000
0010
0100
0001
1000
,
0100
0010
0001
1000
0010
0100
0001
1000
,
0000
0000
0000
1101
,
0001
0100
0001
1000
0100
1000
0001
0010
,
0100
1000
0001
0100
0010
0100
0201
0000
,
0301
1000
0100
0010
0001
1000
0010
0100
,
0010
0000
1000
0000
0001
0000
0010
0000
0100
1000
0001
0000
1101
0000
0000
0000
,
1000
0100
1000
0001
0100
0010
0100
0001
,
1000
0100
0010
0001
0100
0010
1020
0000
,
1030
0001
0100
0010
1000
0001
0010
0100
,
1200
0000
0000
0300
1100
0000
1000
0000
0001
0100
0010
1000
0100
0000
0000
0000
,
1000
0001
0010
0100
0010
0001
1000
0001
,
0010
0000
0100
0000
1000
0000
0010
0100
0002
0000
0000
0003
0111
0000
0000
0000
,
1000
0001
0100
0001
1000
0100
1000
0001
,
0100
0000
0010
0000
1000
0001
0010
0000
0011
0000
0001
0000
1011
0000
0000
0000
,
1000
0100
1000
0001
0100
0010
0100
0001
,
1000
0000
0100
0000
0010
0001
0010
0001
2000
0000
0000
3000
1101
0000
0000
0000
,
0001
0000
0100
0000
0110
0000
0010
0000
1010
0000
1000
0000
0010
0100
0001
0010
,
0100
0000
1000
0000
1001
0000
0001
0000
0100
0010
1000
0100
0010
0000
0000
0000
,
0001
0000
1000
0000
1001
0000
0001
0000
0010
0001
1000
0000
0001
0000
0010
0000
,
0100
0000
1000
0000
1100
0000
0100
0000
0010
0000
0010
0001
1000
0000
0001
0000
,
0100
0000
0001
0000
1001
0000
1000
0000
0100
0010
0001
0000
1000
0000
0010
0000
,
0100
0000
0001
0000
1001
0000
1000
0000
1020
0000
0000
0030
1110
0000
0000
0000
,
0001
0000
0100
0000
0101
0000
0001
0000
1000
0001
0010
0000
0100
0000
1000
0000
,
0001
0000
0100
0000
0110
0000
0010
0000
0100
0000
0100
0001
1000
0000
0100
0000
,
1000
0000
0001
0000
0011
0000
0010
0000
0100
1000
0001
0000
1000
0000
0001
0000
,
0100
0000
0010
0000
1010
0000
1000
0000
0010
0100
0001
0010
0100
0000
0000
0000
,
1000
0000
0001
0000
1001
0000
1000
0000
0100
1000
0001
0000
1000
0000
0100
0000
,
0010
0000
0001
0000
0011
0000
0010
0000
0100
0000
0100
1000
0001
0000
0000
0000
,
1000
0000
0001
0000
1001
0000
1000
0000
0100
0010
0001
0000
1000
0000
0010
0000
,
0100
0000
0001
0000
0101
0000
0100
0000
0410
0000
0000
0300
1101
0000
0000
0000
,
0001
0000
0100
0000
0101
0000
0001
0000
1000
0001
0010
0000
0100
0000
1000
0000
,
0001
0000
0100
0000
0110
0000
0010
0000
0100
0000
0100
0001
1000
0000
0000
0000
,
0001
0000
1000
0000
1100
0000
0100
0000
0110
0000
0010
0000
0001
0010
0100
1000
,
0001
0100
0010
1000
0100
0010
0001
0100
0010
1000
0100
0010
0001
0000
0000
0000
,
1001
0000
0000
0000
,
0000
0000
0000
0000
,
0000
0000
0000
0000
,
0000
0000
0000
0000
,
0000
0000
0000
0000
,
0000
0000
0000
0000
,
0000
0000
0000
0000
,
0000
0000
0000
0000
,
1000
0001
0100
0010
,
1000
0001
0010
0100
,
4000
3000
0000
0000
0004
0003
0000
0000
0400
0300
0000
0000
0004
0003
0000
0000
,
4000
3000
0400
0300
4000
3000
0004
0003
,
0040
0000
0000
0030
0400
0000
0000
0300
0040
0000
0000
0030
0002
0000
0000
0000
,
2003
3020
0230
0302
,
2003
3020
0430
0000
,
0300
0000
0000
1101
,
0001
0100
0001
0000
1000
0000
0001
1000
0001
0000
0100
0000
0010
1000
0010
0000
0100
0000
0001
0000
1000
0000
0100
0000
,
0010
0001
0010
0000
0100
0000
4000
0000
3001
0000
0100
0000
0001
0000
1000
0000
0010
0000
0100
0000
0001
0000
1000
0000
,
0001
0010
0001
0000
0010
0000
0100
1000
0100
0000
1000
0000
0001
0000
1000
0000
0010
0000
0100
0000
0010
0000
1000
0000
,
0001
0100
0001
0000
0100
0000
0040
0000
1030
0000
0001
0000
0040
0000
0031
0000
1000
0000
1001
0000
0000
0000
0000
0000
,
0001
0010
0001
0000
0010
0000
0100
1000
0100
0000
1000
0000
0001
1000
0001
0000
1000
0000
0010
0000
0100
0000
0010
0000
,
1000
0010
1000
0000
0001
0000
0400
0000
0310
0000
1000
0000
0001
0000
0010
0000
0100
0000
1000
0000
0010
0000
0100
0000
,
0001
0100
0001
0000
1000
0000
0001
1000
0001
0000
0010
0000
0100
1000
0100
0000
0010
0000
0001
0000
1000
0000
0010
0000
,
0200
0000
0000
0000
0000
0000
0000
0000
0000
0000
0000
0000
0340
0000
0000
0030
1000
0000
1001
0000
0000
0000
0000
0000
,
0001
0010
0001
0000
1000
0000
0020
0000
0000
0000
1030
0000
0010
0000
0100
0000
0001
0000
1000
0000
0100
0000
0010
0000
,
0001
0010
0001
0000
1000
0000
0020
0000
0000
0000
0130
0000
0010
0000
1000
0000
0001
0000
0010
0000
0100
0000
1000
0000
,
0001
1000
0001
0000
1000
0000
0200
0000
0000
0000
0310
0000
0001
0000
1000
0000
0010
0000
0100
0000
0010
0000
1000
0000
,
0001
1000
0001
0000
0010
0000
0001
0000
0100
0000
0010
0000
4000
0000
3010
0000
1000
0000
1001
0000
0000
0000
0000
0000
,
0001
0010
0001
0000
1000
0000
0002
0000
0000
0000
1003
0000
0100
0000
0010
0000
0001
0000
0100
0000
0010
0000
1000
0000
,
0001
0100
0001
0000
1000
0000
0002
0000
0000
0000
0103
0000
0010
0000
1000
0000
0001
0000
0010
0000
0100
0000
0010
0000
,
0022
0000
0033
0021
0000
0031
2000
0000
0000
3010
0100
0010
,
2000
0000
0000
3001
0000
0100
0010
0000
0100
0101
0000
0000
,
1001
0000
0000
0000
,
0000
0000
0000
0000
,
0000
0000
0000
0000
,
0000
0000
0000
0000
,
1000
0001
0100
0000
0001
0100
0001
1000
0010
1000
0001
0000
1000
0010
1000
0001
,
0010
0100
1000
0000
0100
1000
0001
1000
0010
0100
0001
0000
1000
0010
0100
0010
,
1000
0001
0010
0000
0100
0010
0001
1000
0010
1000
0001
0000
0100
0010
1000
0001
,
0010
0100
1000
0000
0001
0010
0001
1000
0010
0100
0001
0000
1000
0010
1000
0001
,
0100
0000
0001
0000
1000
0000
0001
0000
0101
0000
0100
0010
1000
0100
0010
0000
,
0001
0100
0010
1000
0100
0000
1000
0010
0100
0001
0010
0000
0100
1000
0010
0000
,
0100
0001
4000
0000
3010
0100
0001
0000
0001
0000
1100
0001
0000
1100
0001
0000
,
1000
0000
0011
1000
0000
0001
1100
0000
0001
0100
0010
1000
0100
0000
0000
0000
,
1000
0001
1000
0001
1000
0001
1000
0001
0100
0010
1000
0100
0010
0001
0100
0010
,
1000
0100
0010
0001
0100
0010
1000
0100
0010
0001
0100
0010
1000
0100
0010
0100
,
1000
0001
0100
0010
0100
0001
1000
0010
0400
0000
0340
0000
4030
0000
3004
0000
,
0003
0000
0000
1101
,
0001
0100
0010
1000
0001
0100
0010
1000
0001
0100
0010
1000
0100
0010
0001
1000
,
0040
0030
0100
0000
0010
0000
1000
0000
0001
0000
0010
0000
0100
0000
0010
0000
0001
0000
0010
0000
0100
0000
1000
0000
0001
0000
0100
0000
0040
0000
1030
0000
,
0001
0010
0100
1000
0001
0010
0100
1000
0001
0010
0100
1000
0001
0100
0010
1000
,
0400
0300
0010
0000
0100
0000
1000
0000
0001
0000
0100
0000
0010
0000
0100
0000
0001
0000
1000
0000
0010
0000
0100
0000
0001
0000
0010
0000
0100
0000
0000
0000
,
1000
0010
0100
0001
1000
0010
0100
0001
1000
0010
0100
0001
0010
0100
1000
0001
,
0400
0300
0010
0000
0100
0000
0001
0000
1000
0000
0100
0000
0010
0000
0100
0000
1000
0000
0100
0000
0010
0000
0001
0000
1000
0000
0010
0000
0400
0000
0301
0000
,
1000
0100
0010
0001
1000
0100
0010
0001
1000
0100
0010
0001
1000
0010
0100
0001
,
0040
0030
0100
0000
0040
0030
0001
0000
1000
0000
0010
0000
0100
0000
0010
0000
1000
0000
0100
0000
0010
0000
0001
0000
0100
0000
0000
0000
0000
0000
0000
0000
,
0001
0100
0010
1000
0100
0010
0001
1000
0001
0100
0010
1000
0100
0010
0001
1000
,
0004
0003
0100
0000
0010
0000
1000
0000
0100
0000
0010
0000
0001
0000
1000
0000
0100
0000
0010
0000
0001
0000
0100
0000
0010
0000
1000
0000
0100
0000
0000
0000
,
1000
0010
0100
0001
0010
0100
1000
0001
1000
0010
0100
0001
0010
0100
1000
0001
,
4000
3000
0010
0000
0100
0000
0001
0000
0010
0000
0100
0000
1000
0000
0001
0000
0010
0000
0100
0000
1000
0000
0010
0000
0100
0000
0000
0000
0000
0000
0000
0000
,
0001
0100
0010
1000
0100
0010
0001
1000
0001
0100
0010
1000
0100
0010
0001
1000
,
0004
0003
0100
0000
0010
0000
1000
0000
0100
0000
0010
0000
0001
0000
1000
0000
0100
0000
0010
0000
0001
0000
0100
0000
0010
0000
1000
0000
0100
0000
0000
0000
,
1000
0100
0010
0001
0100
0010
1000
0001
0100
0010
1000
0100
0010
0001
1000
0001
,
0400
0300
0004
0003
4000
3000
0040
1030
0100
0010
0001
0100
0010
0000
0000
0000
,
1000
0010
0100
0001
1000
0010
0100
0001
1000
0010
0100
0001
0010
0100
1000
0001
,
0400
0300
0010
0000
0100
0000
0001
0000
1000
0000
0100
0000
0010
0000
0100
0000
1000
0000
0100
0000
0010
0000
0001
0000
1000
0000
0010
0000
0400
0000
0301
0000
,
1000
0100
0010
0001
1000
0100
0010
0001
1000
0100
0010
0001
1000
0010
0100
0001
,
0040
0030
0100
0000
0010
0000
0001
0000
1000
0000
0010
0000
0100
0000
0010
0000
1000
0000
0001
0000
0100
0000
0010
0000
1000
0000
0100
0000
0010
0000
0000
0000
,
0001
0100
0010
1000
0001
0100
0010
1000
0001
0100
0010
1000
0100
0010
0001
1000
,
0040
0030
0100
0000
0010
0000
1000
0000
0001
0000
0010
0000
0100
0000
0010
0000
0001
0000
0010
0000
0100
0000
1000
0000
0001
0000
0100
0000
0040
0000
1030
0000
,
0001
0010
0100
1000
0001
0010
0100
1000
0001
0010
0100
1000
0001
0100
0010
1000
,
0400
0300
0010
0000
0400
0300
1000
0000
0001
0000
0100
0000
0010
0000
0100
0000
0001
0000
0010
0000
0100
0000
1000
0000
0010
0000
0000
0000
0000
0000
0000
0000
,
1000
0010
0100
0001
0010
0100
1000
0001
1000
0010
0100
0001
0010
0100
1000
0001
,
4000
3000
0010
0000
0100
0000
0001
0000
0010
0000
0100
0000
1000
0000
0001
0000
0010
0000
0100
0000
1000
0000
0010
0000
0100
0000
0001
0000
0010
0000
0000
0000
,
0001
0100
0010
1000
0100
0010
0001
1000
0001
0100
0010
1000
0100
0010
0001
1000
,
0004
0003
0100
0000
0010
0000
1000
0000
0100
0000
0010
0000
0001
0000
1000
0000
0100
0000
0010
0000
0001
0000
0100
0000
0010
0000
0000
0000
0000
0000
0000
0000
,
1000
0010
0100
0001
0010
0100
1000
0001
1000
0010
0100
0001
0010
0100
1000
0001
,
4000
3000
0010
0000
0100
0000
0001
0000
0010
0000
0100
0000
1000
0000
0001
0000
0010
0000
0100
0000
1000
0000
0010
0000
0100
0000
0001
0000
0010
0000
0000
0000
,
0001
0010
0100
1000
0010
0100
0001
1000
0010
0100
0001
0010
0100
1000
0010
0100
,
0004
0003
0000
0000
4000
3000
0000
0000
0004
0003
0000
0000
0100
0000
0001
0000
0010
0000
0100
0000
1000
0000
0010
0000
0100
0000
0000
0000
0000
0000
0000
0000
,
0101
0000
0000
0000
,
0000
0000
0000
0000
,
0000
0000
0000
0000
,
0000
0000
0000
0000
,
0000
0000
0000
0000
,
0000
0000
0000
0000
,
MMMM
0000
0000
0000
;
