#TITLE:Original!;
#SUBTITLE:- SHUFFLE! On The Stage Opening;
#ARTIST:YURIA;
#TITLETRANSLIT:;
#SUBTITLETRANSLIT:;
#ARTISTTRANSLIT:;
#CREDIT:Jubo;
#BANNER:Shuffle! On the Stage OP Banner.png;
#BACKGROUND:Shuffle! On The Stage BG1.jpg;
#LYRICSPATH:Orijinaru-Lyrics.lrc;
#CDTITLE:Jubo.png;
#MUSIC:Shuffle! On the Stage OP.mp3;
#OFFSET:2.100;
#SAMPLESTART:40.200;
#SAMPLELENGTH:29.960;
#SELECTABLE:YES;
#BPMS:0.000=177.040;
#STOPS:;
#BGCHANGES:6.167=Shuffle! On the Stage OP Video.avi=1.000=1=0=0,
259.000=Shuffle! On The Stage BG2.jpg=1.000=1=0=0,
99999=-nosongbg-=1.000=0=0=0 // don't automatically add -songbackground-
;
// cache tags:
#FIRSTBEAT:8.000;
#LASTBEAT:260.000;
#SONGFILENAME:Songs/Otaku's Dream 1st Anime Mix/Jubo - SHUFFLE! on the Stage OP/Shuffle! On the Stage OP.sm;
#HASMUSIC:1;
#HASBANNER:1;
#MUSICLENGTH:89.918;
// end cache tags

//---------------dance-single - ----------------
#NOTES:
     dance-single:
     :
     Challenge:
     9:
     0.729,0.828,0.990,0.156,0.056,356.000,89.000,14.000,0.000,0.000:
0000
0000
0000
0000
,
0000
0000
0000
0000
,
1000
0001
1000
0001
1000
0001
1000
0001
1000
0001
1000
0001
1000
0000
0000
0000
,
1100
1001
1100
1001
,
0110
0000
0110
0000
0001
0100
0010
1000
,
1001
0101
1001
0101
,
0110
0000
0110
0000
1000
0001
1000
0001
,
0011
0101
0011
0101
,
0110
0000
0110
0000
1000
0010
0100
0001
,
0101
0000
1010
0000
0200
0310
0000
0110
,
0000
0000
1000
0000
0001
0000
1000
0000
2002
0000
0000
0000
0000
3003
0000
0000
,
1000
0010
0100
0001
1000
1001
0000
1000
,
0000
0100
0000
0010
0110
0000
1000
0000
,
0100
1000
0010
0000
0100
0010
0000
1001
,
0000
0100
0001
1000
0001
1000
0001
0000
,
0100
0000
0010
0001
1000
1001
0000
0010
,
0000
0100
0000
1000
1010
0000
0000
0100
,
0010
0100
0010
1000
0010
0000
0100
1100
,
0000
0010
0001
0100
0010
0001
1000
0000
,
0100
0001
0010
0100
1000
1010
0000
0100
,
0000
0010
0000
0001
0101
0000
0100
0000
,
0010
0001
0010
0000
0100
1000
0000
0110
,
0000
1000
0001
1000
0010
0100
0010
0000
,
0101
0000
0100
1000
0100
1000
0000
0010
,
0000
0100
0000
0010
1010
0000
0000
1000
,
0010
0001
0100
1000
0001
0000
0100
1100
,
0000
0001
0100
0010
0100
0001
1001
0000
,
0010
1000
0010
1000
0010
1010
1010
0000
,
0100
0001
0100
0001
0100
0101
0101
0000
,
0010
0000
0100
0001
0000
0010
0000
0100
,
0001
1000
0000
1001
0000
0001
1000
0000
,
0001
0010
0001
0010
0001
0011
0011
0000
,
1000
0100
1000
0100
1000
1100
1100
0000
,
0020
0000
0000
0000
0032
0000
0000
0000
2003
0000
0000
0000
3200
0000
0000
0300
,
0110
0000
1001
1001
0000
0110
0110
0000
,
1100
0000
0011
0000
1100
0011
0000
0010
,
0000
0001
0100
1100
0000
0100
0010
0100
,
0010
0000
1000
0001
1001
0000
0100
0010
,
0000
0100
0001
0100
1000
0000
0011
0000
,
0010
0000
0100
0000
1000
0100
0000
1000
,
0000
0010
0001
0110
0000
0100
1000
0100
,
1000
0000
0010
0001
0011
0000
0100
0010
,
0000
0001
1000
0001
1000
0010
0100
0010
,
0001
0000
1000
0000
0100
1000
0000
0010
,
0000
0100
0001
0101
0000
1000
0100
0000
,
1001
0000
0100
0010
0110
0000
0010
1000
,
0001
0001
0100
0001
0110
0000
0101
0000
,
0011
0000
0100
0001
1000
1000
0000
0010
,
0000
1000
0010
0110
0000
0000
0100
1000
,
0101
0000
0010
0001
1010
0000
0000
0001
,
0010
0100
1000
0010
0001
0010
1000
1000
,
1100
1001
1100
1001
,
0110
0000
0110
0000
0001
0100
0010
1000
,
1001
0101
1001
0101
,
0110
0000
0110
0000
1000
0001
1000
0001
,
0011
0101
0011
0101
,
0110
0000
0110
0000
1000
0010
0100
0001
,
0101
0000
1010
0000
0200
0310
0000
0110
,
0000
0000
0000
0000
0100
0000
0010
0100
0010
0100
0010
0000
0100
0000
0020
0000
,
0000
0100
0030
0200
0000
0300
2000
0000
,
0000
0001
0010
0100
0010
0001
0010
0100
,
0010
0001
0010
0100
0010
0001
0100
0010
,
0001
0000
0100
0001
0001
0000
0010
0100
,
0000
0100
0000
0000
0010
0000
0001
0000
0000
0001
0000
0000
0002
0000
3003
0000
,
0000
0000
0000
0000
0000
0000
0000
0000
0000
0000
0000
0000
0000
0000
0000
0000
0000
0000
0000
0000
0000
0000
0000
0000
0000
0000
0000
0000
0000
0000
0000
0000
0000
0000
0000
0000
0000
0000
0000
0000
0000
0000
0000
0000
0000
0000
0000
0000
2002
0000
0000
0000
0000
0000
0000
0000
0000
0000
0000
0000
0000
0000
0000
0000
0000
0000
0000
0000
0000
0000
0000
0000
0000
0000
0000
0000
0000
0000
0000
0000
0000
0000
0000
0000
0000
0000
0000
0000
0000
0000
0000
0000
0000
0000
0000
0000
0000
0000
0000
0000
0000
0000
0000
0000
0000
0000
0000
0000
0000
0000
0000
0000
0000
0000
0000
0000
0000
0000
0000
0000
0000
0000
0000
0000
0000
0000
0000
0000
0000
0000
0000
0000
0000
0000
0000
0000
0000
0000
0000
0000
0000
0000
0000
0000
0000
0000
3003
0000
0000
0000
0000
0000
0000
0000
0000
0000
0000
0000
0000
0000
0000
0000
0000
0000
0000
0000
0000
0000
0000
0000
0000
0000
0000
0000
0000
0000
0000
0000
0000
0000
0000
0000
0000
0000
0000
0000
0000
0000
0000
0000
0000
0000
;

//---------------dance-single - ----------------
#NOTES:
     dance-single:
     :
     Hard:
     7:
     0.527,0.612,0.500,0.111,0.000,277.000,45.000,10.000,0.000,0.000:
0000
0000
0000
0000
,
0000
0000
0000
0000
,
1000
0001
1000
0001
1000
0001
1000
0000
,
1100
1100
1100
1100
,
0110
0000
0100
0000
0001
0100
0010
1000
,
1001
1001
1001
1001
,
0110
0000
0010
0000
0001
1000
0001
1000
,
0011
0011
0011
0011
,
0110
0000
0100
0000
1000
0010
0100
0001
,
1000
0000
0001
0000
0100
0010
0000
0110
,
0000
1000
0001
1000
1001
0000
0000
0000
,
1000
0010
0001
1000
,
0010
0100
0010
0001
,
1000
0010
0100
0010
,
0001
1000
0001
1000
0001
1000
0001
0000
,
0010
0100
0010
0001
,
1000
0100
0010
0100
,
0010
0000
0001
0000
1000
0000
0001
1000
,
0000
0010
0100
0010
,
0001
1000
0100
0010
,
0001
1000
0010
0100
,
1000
0000
0010
0000
0001
1000
0000
0010
,
0000
1000
0001
1000
0001
1000
0001
0000
,
0010
0000
0100
0000
1000
0010
0000
0100
,
0000
0010
0000
0001
1000
0000
0010
0000
,
0100
0000
0010
0000
0001
0000
1000
0100
,
0000
1000
0010
0000
0001
0000
1001
0000
,
1000
0000
0001
1000
0001
1000
1001
0000
,
0100
0000
0010
0100
0010
0100
0110
0000
,
0010
0000
0100
1000
0000
0100
0000
0010
,
0001
1000
0000
1001
0000
1000
0001
0000
,
0010
0000
0100
0010
0100
0010
0110
0000
,
0001
0000
1000
0001
1000
0001
1001
0000
,
0020
0000
0100
0000
0100
0000
0100
0030
,
0220
0000
0330
0000
0000
0110
0110
0000
,
1000
0000
0010
0000
1000
0010
0000
0000
,
0010
1000
0100
0010
,
0100
0010
0001
0100
,
0010
0100
1000
0010
,
0100
0000
0010
0000
0001
0000
0001
0010
,
0000
0100
0010
0001
0000
0000
1000
0000
,
0100
0010
0001
1000
,
0001
1000
0001
1000
0001
1000
0001
1000
,
0010
0100
0010
0001
,
1000
0010
0100
1000
,
0010
0100
0001
0010
,
0100
1000
0100
0000
0010
0100
1000
0000
,
0010
0100
0010
1000
,
0100
0010
1000
0001
,
0010
0000
0100
0000
1000
0000
0000
0100
,
0010
0100
0010
0100
0010
0100
0010
0000
,
1100
1100
1100
1100
,
0110
0000
0100
0000
1000
0100
1000
0001
,
1001
1001
1001
1001
,
0110
0000
0010
0000
0100
1000
0001
1000
,
0011
0011
0011
0011
,
0110
0000
0100
0000
1000
0010
0100
0001
,
1000
0000
0001
0000
0100
0010
0000
0110
,
0000
0000
0010
0100
0010
0100
0010
0220
,
0000
0000
0330
0200
0000
0300
2002
0000
,
0000
0000
0000
0000
,
0000
0000
0000
0000
,
0000
0000
0000
0000
,
0000
0000
0000
0000
0000
0000
0000
3003
,
0000
0220
0000
0330
;

//---------------dance-single - ----------------
#NOTES:
     dance-single:
     :
     Medium:
     5:
     0.418,0.468,0.245,0.189,0.000,224.000,22.000,17.000,0.000,0.000:
0000
0000
0000
0000
,
0000
0000
0000
0000
,
1000
0100
1000
0100
,
1000
1000
0100
0100
,
0110
0100
0001
1000
,
0001
0001
1000
1000
,
0110
0010
0001
1000
,
0001
0001
0010
0010
,
0110
0100
1000
0001
,
0100
0000
0010
0000
0100
0010
0000
0110
,
0000
0001
1000
1000
1001
0000
0000
0000
,
0001
0010
0001
1000
,
0010
0100
2000
3000
,
0010
0001
0100
0010
,
0002
0003
0000
0000
,
1000
0010
0100
1000
,
0010
0100
0002
0003
,
0010
0100
1000
0010
,
2000
3000
0000
0000
,
0010
0100
0010
0001
,
1000
0010
0200
0300
,
0010
0001
1000
0010
,
0200
0300
0000
0000
,
0010
0001
1000
0010
,
0100
0010
2000
3000
,
0010
0000
0100
0000
0010
0000
0001
1000
,
0000
0001
1000
0001
1000
0001
1000
0000
,
1000
0010
1000
0010
0000
1000
1000
0000
,
0100
0001
0100
0001
0000
0100
0100
0000
,
0010
0000
0001
1000
0000
0100
0000
1000
,
0000
0001
0000
1001
0000
0001
1000
0000
,
0001
0010
0001
0010
0000
0010
0010
0000
,
1000
0001
1000
0001
0000
0001
0001
0000
,
0220
0000
0000
0330
,
0220
0000
0000
0330
0000
0110
0110
0000
,
1000
0000
0001
0000
1000
0001
0000
0000
,
0010
0100
0001
0000
,
1000
0010
0100
0000
,
0010
1000
0010
1100
,
0010
0100
0010
0001
,
1000
0010
1100
0000
,
0010
0001
0100
0010
,
0001
1000
0010
0101
,
0010
0100
1000
0010
,
0100
1000
1100
0000
,
0010
0001
0100
0010
,
1000
0100
0010
0110
,
1000
0100
0010
0100
,
1000
0010
1010
0000
,
0010
0001
0100
0000
,
1000
0010
0100
1000
,
1000
1000
0100
0100
,
0110
0100
0001
1000
,
0001
0001
1000
1000
,
0110
0010
0001
1000
,
0001
0001
0010
0010
,
0110
0100
1000
0001
,
0100
0000
0010
0000
0100
0010
0000
0110
,
0000
0000
0100
0100
0010
0010
0100
0020
,
0000
0000
0030
0200
0000
0300
0220
0000
,
0000
0000
0000
0000
,
0000
0000
0000
0000
,
0000
0000
0000
0000
,
0000
0000
0000
0000
,
0000
0000
0000
0000
0000
0000
0000
0000
0000
0000
0000
0000
0000
0000
0000
0000
0000
0000
0000
0000
0000
0000
0000
0000
0330
0000
0000
0000
0000
0000
0000
0000
0000
0000
0000
0000
0000
0000
0000
0000
0000
0000
0000
0000
0000
0000
0000
0000
2002
0000
0000
0000
0000
0000
0000
0000
0000
0000
0000
0000
0000
0000
0000
0000
0000
0000
0000
0000
0000
0000
0000
0000
0000
0000
0000
0000
0000
0000
0000
0000
0000
0000
0000
0000
0000
0000
0000
0000
0000
0000
0000
0000
0000
0000
0000
0000
0000
0000
0000
0000
0000
0000
0000
0000
0000
0000
0000
0000
0000
0000
0000
0000
0000
0000
0000
0000
0000
0000
0000
0000
0000
0000
0000
0000
0000
0000
0000
0000
0000
0000
0000
0000
0000
0000
0000
0000
0000
0000
0000
0000
0000
0000
0000
0000
0000
0000
3003
0000
0000
0000
0000
0000
0000
0000
0000
0000
0000
0000
0000
0000
0000
0000
0000
0000
0000
0000
0000
0000
0000
0000
0000
0000
0000
0000
0000
0000
0000
0000
0000
0000
0000
0000
0000
0000
0000
0000
0000
0000
0000
0000
0000
0000
;

//---------------dance-single - ----------------
#NOTES:
     dance-single:
     :
     Easy:
     3:
     0.248,0.398,0.145,0.222,0.000,123.000,13.000,20.000,0.000,0.000:
0000
0000
0000
0000
,
0000
0000
0000
0000
,
0000
0000
0000
0000
,
1000
1000
1000
1000
,
2002
3003
0000
0000
,
0001
0001
0001
0001
,
2002
3003
0000
0000
,
1000
1000
1000
1000
,
2002
3003
0000
0000
,
0220
0000
0000
0000
0000
0000
0000
0330
,
0000
0000
0000
0000
2002
3003
0000
0000
,
1000
0000
0010
0000
,
0100
0000
0001
0000
,
1000
0000
0001
0000
,
1000
0000
0000
0000
,
0010
0000
0100
0000
,
0010
0000
0000
0000
,
1000
0000
0001
0000
,
1000
0000
0000
0000
,
0010
0000
0100
0000
,
0010
0000
0000
0000
,
1000
0000
1000
0000
,
1000
0000
0000
0000
,
0001
0000
0010
0000
,
0001
0000
0000
0000
,
1000
0000
0100
0000
,
1000
0000
0000
0000
,
0001
0001
0001
0001
,
0000
0000
0000
0000
,
1000
1000
1000
1000
,
0000
0000
0000
0000
,
0010
0010
0010
0010
,
0000
0000
0000
0000
,
0100
0100
0100
0100
,
0000
0000
0000
0000
,
1000
0000
1000
0000
,
0001
0000
0001
0000
,
0010
0100
0010
0000
,
1000
0000
1000
0000
,
0100
0010
0100
0000
,
0001
0000
0001
0000
,
0010
0000
0010
0000
,
0001
1000
0001
1000
,
0001
0000
1000
0000
,
1000
0000
0010
0000
,
0100
0010
1000
0000
,
0100
0000
0100
0000
,
0100
0010
0100
0000
,
0001
0010
0100
0000
,
1000
0010
0100
0000
,
0100
0100
0100
1000
,
1000
1000
1000
1000
,
1001
0001
0000
0000
,
0001
0001
0001
0001
,
1001
1000
0000
0000
,
1000
1000
1000
1000
,
1001
0001
0000
0000
,
0220
0000
0330
0000
0220
0000
0000
0330
,
0000
0000
0000
0000
0000
0000
2002
3003
,
0000
0000
0000
2002
,
0000
0000
0000
0000
,
0000
0000
0000
0000
,
0000
0000
0000
0000
,
0000
0000
0000
0000
,
3003
2002
0000
0000
,
3003
0000
0000
0000
;

//---------------dance-single - ----------------
#NOTES:
     dance-single:
     :
     Beginner:
     1:
     0.122,0.217,0.022,0.133,0.000,63.000,2.000,12.000,0.000,0.000:
0000
0000
0000
0000
,
0000
0000
0000
0000
,
0000
0000
0000
0000
,
1000
0000
1000
0000
,
2000
3000
0000
0000
,
0001
0000
0001
0000
,
0002
0003
0000
0000
,
1000
0000
1000
0000
,
0002
0003
0000
0000
,
0220
0000
0000
0000
0000
0000
0000
0330
,
0000
0000
0000
0000
,
0001
0000
0000
0000
,
0001
0000
0000
0000
,
0010
0000
0000
0000
,
0010
0000
0000
0000
,
0100
0000
0000
0000
,
1000
0000
0000
0000
,
0100
0000
0000
0000
,
0010
0000
0000
0000
,
0001
0000
0000
0000
,
0001
0000
0000
0000
,
1000
0000
0000
0000
,
1000
0000
0000
0000
,
0100
0000
0000
0000
,
0010
0000
0000
0000
,
0100
0000
0000
0000
,
0001
0000
0000
0000
,
1000
0000
0000
0000
,
1000
0000
0000
0000
,
1000
0000
0000
0000
,
1000
0000
0000
0000
,
0001
0000
0000
0000
,
0001
0000
0000
0000
,
0001
0000
0000
0000
,
0001
0000
0000
0000
,
0010
0000
0000
0000
,
0010
0000
0000
0000
,
0010
0000
0000
0000
,
0100
0000
0000
0000
,
0100
0000
0000
0000
,
0100
0000
0000
0000
,
0010
0000
0000
0000
,
0100
0000
0000
0000
,
1000
0000
0000
0000
,
1000
0000
0000
0000
,
0001
0000
0000
0000
,
0001
0000
0000
0000
,
0001
0000
0000
0000
,
1000
0000
0000
0000
,
1000
0000
0000
0000
,
0010
0000
0000
0000
,
1000
0000
1000
0000
,
2000
3000
0000
0000
,
0001
0000
0001
0000
,
0002
0003
0000
0000
,
1000
0000
1000
0000
,
2000
3000
0000
0000
,
0220
0000
0000
0000
0000
0000
0000
0330
,
0000
0000
0000
0100
,
0000
0000
0000
0200
,
0000
0000
0000
0000
,
0000
0000
0000
0000
,
0000
0000
0000
0000
,
0000
0000
0000
0000
,
0300
0020
0000
0000
,
0030
0000
0000
0000
;
