#TITLE:Final Fantasy Symphony;
#SUBTITLE:new version;
#ARTIST:newgrounds;
#TITLETRANSLIT:;
#SUBTITLETRANSLIT:;
#ARTISTTRANSLIT:;
#CREDIT:;
#BANNER:;
#BACKGROUND:final_fantasy_7_art.gif;
#LYRICSPATH:;
#CDTITLE:;
#MUSIC:Final Fantasy Battle Symphony.mp3;
#OFFSET:-0.100;
#SAMPLESTART:49.627;
#SAMPLELENGTH:12.000;
#SELECTABLE:YES;
#BPMS:0.000=88.000,5.500=95.000,8.000=112.000,14.000=117.000,16.000=135.000,22.000=140.000,24.000=160.000,32.000=170.000;
#STOPS:;
#BGCHANGES:;
// cache tags:
#FIRSTBEAT:0.000;
#LASTBEAT:239.500;
#SONGFILENAME:Songs/juju steps/Final Fantasy Symphony/Final Fatasy simfile.sm;
#HASMUSIC:1;
#HASBANNER:0;
#MUSICLENGTH:89.636;
// end cache tags

//---------------dance-single - not so off this time----------------
#NOTES:
     dance-single:
     not so off this time:
     Hard:
     9:
     0.853,0.768,0.223,1.000,0.006,422.000,20.000,93.000,0.000,0.000:
1001
0001
1000
1100
0100
0010
0011
0001
,
1000
1100
0010
0001
1000
0100
0010
0001
,
0001
0100
0010
1000
0100
1000
0010
0100
,
0001
0010
0001
0100
0010
1000
0100
0010
,
0001
0010
1000
0010
0001
0100
1000
0100
,
0001
1000
0010
0100
0001
1000
0100
0010
,
0001
1000
0001
1000
0010
0100
0010
0100
,
0001
0010
0100
1000
0100
0010
0001
0011
,
0010
0001
0001
0100
0010
0010
1000
0100
,
0100
0010
0001
0001
0100
0010
1000
0100
,
1000
0100
0100
0010
0001
0001
0100
0010
,
0010
1000
0001
0001
0100
1000
0100
0001
,
2002
3003
0000
0202
0303
0000
2002
3003
,
0000
2200
3300
0000
2002
0000
3003
0000
,
0001
0010
0001
1000
0001
0100
0001
1000
,
0001
0010
0001
0100
0010
1000
0100
0010
,
0001
0010
0100
1000
0100
0010
0001
0010
,
0001
0010
0100
1000
0010
0100
0001
0100
,
0001
0100
0001
0100
0010
0100
0010
1000
,
0010
1000
0100
1000
0100
0010
0001
1000
,
0100
1000
0001
1000
0100
1000
0100
0010
,
0100
0010
0001
0010
0001
0100
0001
0010
,
2002
3003
0000
2200
3300
0000
2002
3003
,
0000
0202
0303
0000
2002
0000
3003
0000
,
0001
0010
0001
1000
0100
1000
0010
0100
,
0010
0100
0001
0100
0001
0100
0010
1000
,
0100
0010
0001
0010
0100
1000
0010
0100
,
0001
0010
1000
0010
0001
0100
1000
0100
,
0001
1000
1000
0010
1000
1000
0010
0100
,
0100
0010
1000
0010
0100
0001
0010
0100
,
1000
0100
1000
0001
0010
0001
1000
0100
,
0010
0001
0100
0010
1000
0100
0010
0002
,
0000
1003
0010
0100
0001
0100
0010
1000
,
0200
0000
0320
0002
0030
0203
0020
0300
,
2030
0000
3002
0023
0000
0130
1000
0010
,
0200
0000
0320
2030
0000
3100
0010
0001
,
1000
0010
0100
0001
0010
1000
0010
0001
,
0100
0010
1000
0100
0001
0100
1000
0010
,
0220
0330
0000
2002
3003
0000
2200
3300
,
0000
0010
0001
0010
0100
1000
0100
0020
,
0000
0032
0203
0000
0320
2030
3000
0020
,
0230
0300
0200
0302
0000
0103
0010
2000
,
0001
3001
0002
0003
2000
3200
0300
0002
,
0203
0300
2000
3002
0013
0100
2000
0010
,
3010
0020
2030
3000
0002
0203
0300
0020
,
2030
3010
0100
0002
0100
0103
0200
0320
,
0030
2000
3020
0030
0200
0302
0003
0002
,
0023
0030
0200
2300
3000
1000
0100
0010
,
0001
0002
2003
3000
0200
0320
0030
0020
,
0230
0300
2000
3001
0100
0010
1000
0100
,
0001
0200
2300
3000
2000
3200
0300
0020
,
0032
0003
0002
0203
0310
1000
0010
0100
,
0001
0010
0100
1000
0010
0100
0002
1000
,
1003
0010
0100
0001
1000
0100
0010
0100
,
0001
0100
0010
0001
0010
0100
1000
0100
,
0010
0001
0100
0010
0100
0001
0100
0010
,
1000
0100
0010
0001
0100
0010
1000
0100
,
0001
0100
1000
0010
0001
0010
1000
0100
,
0001
0100
1000
0010
0001
0010
1000
0100
,
0001
0000
0100
0000
1000
0100
1000
0000
2200
0000
3300
0000
2002
0000
3003
0000
;
