#TITLE:The Deceived;
#SUBTITLE:;
#ARTIST:Trivium;
#TITLETRANSLIT:;
#SUBTITLETRANSLIT:;
#ARTISTTRANSLIT:;
#CREDIT:MURDER.V01DKeng07;
#BANNER:../fallback-bn.png;
#BACKGROUND:../fallback-bg.png;
#LYRICSPATH:;
#CDTITLE:;
#MUSIC:The Deceived.ogg;
#OFFSET:0.892;
#SAMPLESTART:117.859;
#SAMPLELENGTH:12.000;
#SELECTABLE:YES;
#BPMS:0.000=212.000;
#STOPS:636.000=0.849
;
#BGCHANGES:;
// cache tags:
#FIRSTBEAT:4.000;
#LASTBEAT:1090.000;
#SONGFILENAME:Songs/SSSC PACK/[VO1D] - The Deceived/The Deceived.sm;
#HASMUSIC:1;
#HASBANNER:1;
#MUSICLENGTH:311.867;
// end cache tags

//---------------dance-single - V01DKeng07----------------
#NOTES:
     dance-single:
     V01DKeng07:
     Challenge:
     15:
     1.000,1.000,0.484,0.273,1.000,2490.000,151.000,85.000,61.000,3.000:

0000
0000
0000
0000
,
0010
0100
0010
0000
1000
0100
1000
0000
0001
1000
0001
1000
0001
0000
1000
0000
,
0010
0100
0001
0100
0001
0000
1000
0000
0001
0100
0001
0100
0001
0000
0010
0000
,
0001
0010
0001
0010
0001
0000
1000
0000
0010
0100
0010
0100
0010
0000
1000
0000
,
0001
1000
0001
1000
0010
1000
0010
0100
0001
0100
0010
1000
0100
0010
0002
0000
,
1MM3
0000
0010
0000
0100
0010
1000
0001
1000
0000
0001
0000
0010
0001
0100
0001
,
0100
0000
0010
0000
1000
0100
0010
0001
1000
0000
0001
0000
0100
0000
0010
0000
,
0100
0010
1000
0001
0100
0000
0010
0000
1000
0100
0010
0000
0001
1000
0001
0000
,
0100
0010
0100
0010
1000
00M0
0001
0100
0001
0100
0010
1000
0001
0MM0
1000
0000
,
0001
1000
0001
1000
0001
0000
0110
0000
1000
0001
1000
0001
1000
0000
0110
0000
,
0010
1000
0010
1000
0010
0000
1000
0000
0100
0000
0011
0000
0010
0000
0001
0000
,
0100
0001
0100
0001
0100
0000
1001
0000
0001
0010
0001
0010
0001
0000
0011
0000
,
0001
1000
0010
1000
0001
0010
0001
1000
0100
1000
0001
0010
0001
0100
0020
0000
,
M13M
0000
0001
0000
1000
0100
0010
0100
1000
0000
0001
0000
0100
0001
0100
0010
,
1000
0000
0001
0000
1000
0001
1000
0000
0001
0000
0010
0000
0001
0000
0100
0000
,
0010
0100
0010
0100
0010
0000
1000
0000
0001
1000
0001
1000
0001
0000
0010
0001
,
0100
0001
0100
0010
1000
0010
1000
0001
1000
0100
0010
0001
1000
0001
2000
0000
,
3MM1
1000
0001
1000
0001
0000
1010
0000
0010
0100
0010
0100
0010
0000
1001
0000
,
1000
0100
1000
0100
1000
0000
0001
0000
1000
0000
0100
0000
0010
0000
0001
0000
,
0100
0001
0100
0001
0100
0000
0110
0000
0010
1000
0010
1000
0010
0000
1000
0010
,
1000
0010
0100
0010
0100
0001
1000
0010
1000
0100
0010
0001
1000
0010
2000
0000
,
31MM
0000
0010
0000
0001
0010
0001
0010
0001
0000
0100
0000
0010
0100
0010
0100
,
0010
0000
0100
0000
0001
1000
0001
1000
0001
0000
1000
0000
0001
0000
0010
0000
,
0001
0010
0001
0010
0001
0000
0100
0010
0100
0000
0010
1000
0010
0000
1000
0001
,
1000
0010
1000
0001
0010
0001
1000
0100
1000
0001
0010
0001
0100
0010
1000
0001
,
1000
0000
0110
0000
,
1010
1000
0100
0010
0011
0001
0010
0101
,
0000
0110
1010
0000
,
1001
0000
0001
0010
0001
0000
0100
0000
0010
0000
1000
0000
0100
0000
0040
0000
,
0000
0000
0031
0100
0001
0000
0000
0000
0011
0000
0000
0000
0000
0000
0000
0000
,
1010
0010
0100
0101
0000
0011
0001
0400
,
0000
0000
0310
1000
0001
0000
0000
0000
1001
0000
0000
0000
0000
0000
0000
0000
,
1MM1
0000
1000
0100
M010
0000
0001
0000
01M0
0000
0010
0000
100M
0000
0001
0000
,
MM11
0000
0101
0000
,
0110
0010
1000
0100
0011
0001
0100
1010
,
0000
1001
0011
0000
,
0101
0010
1000
0100
0001
0100
1000
0004
,
0000
0000
0103
0010
0100
0000
0000
0000
1010
0000
0000
0000
0000
0000
0000
0000
,
0011
0001
0100
0110
0010
1010
1000
0004
,
0000
0000
1003
0100
0010
0000
0000
0000
0011
0000
0000
0000
0000
0000
0000
0000
,
M1M1
0000
0010
0000
1000
0100
0010
0100
1000
0001
0100
0010
0100
0000
0010
0000
,
0100
0001
0100
0001
0100
0000
0010
0000
1000
0001
1000
0001
1000
0000
0001
0000
,
0010
0001
0010
0001
0010
0000
0001
0000
0100
0001
0100
0001
0100
0000
0010
0000
,
0100
0010
0100
0010
0100
0000
0010
0000
1000
0100
0010
0001
1000
0000
0001
0000
,
0010
0001
0010
0100
1000
0000
0001
0000
0101
0000
0100
0000
0110
0000
0010
0000
,
1000
0010
0100
0001
1000
0000
0001
0000
1000
0100
0010
0100
1000
0000
0001
0000
,
0100
0010
0100
0001
1000
0000
0100
0000
0010
0001
0100
0001
0100
0000
0010
0000
,
0100
0001
1000
0010
1000
0000
0001
0000
0010
0001
0010
0001
0100
0000
0010
0000
,
1000
0001
1000
0001
1000
0000
0M01
0000
0M10
0000
M001
0000
010M
0000
M010
0000
,
1000
0100
0010
0001
0010
0100
1000
0001
0010
0001
1000
0100
0010
0100
1000
0001
,
0100
0010
1000
0010
0100
0001
1000
0010
0100
0001
0100
0010
1000
0001
0010
0100
,
1000
0001
0010
0001
1000
0100
1000
0010
0100
0001
0010
0001
1000
0100
0010
0001
,
0010
0100
1000
0010
0100
0001
0100
0010
1000
0001
0010
0100
1000
0010
0100
0001
,
1000
0001
0010
0001
0100
0010
1000
0100
1000
0010
0100
0001
0010
0001
1000
0100
,
0010
0100
1000
0001
0010
0100
0010
0001
1000
0010
0100
0001
0010
0001
1000
0010
,
1000
0001
0010
0001
1000
0100
1000
0001
0010
0001
0100
0010
1000
0010
0100
0001
,
1000
0100
0010
0001
0010
0100
1000
0001
0100
0010
1000
0001
1000
0010
0100
0001
,
2000
0000
0000
0000
3001
0000
0100
0001
1000
0010
0100
0001
1000
0000
0010
0000
,
1000
0000
0001
0000
1000
0001
1000
0001
1000
0000
0001
0010
0100
1000
0100
0010
,
0001
0000
0000
0000
0100
0000
0010
0100
0001
0100
0010
1000
0001
0000
1000
0000
,
0100
0000
0010
0001
0010
0100
1000
0010
0100
0000
0001
0100
0010
1000
0010
0100
,
0001
0000
0000
0000
1000
0000
0001
0000
1000
0100
0010
0100
1000
0000
0001
0000
,
0100
0000
0010
0100
0010
0100
0001
1000
0001
0000
0010
0000
0001
0010
0001
0100
,
0010
0000
0000
0000
0100
0000
0001
0000
1000
0100
0010
0001
0010
0000
0001
0000
,
0100
0000
0010
0100
0010
0100
0001
1000
0001
0000
0010
0000
0001
0000
0100
0000
,
0010
0100
0001
1000
0100
0010
0001
0010
,
0100
0000
1000
0000
0010
0000
0100
0000
0001
0100
0010
0000
1000
0000
0001
0000
,
1000
0100
1000
0010
0001
0010
1000
0001
,
0010
0000
0100
0000
1000
0000
0100
0000
0010
0100
1000
0000
0001
0000
0100
0000
,
0020
0000
0000
0000
0000
0000
0100
0030
0110
0000
0000
0000
1010
0000
0000
0000
,
0000
0000
1001
0000
0000
0000
0001
0000
0010
0001
0200
0000
0310
0000
0000
0000
,
0110
0010
0100
0001
1001
1000
0100
0010
,
0011
0001
0100
0010
1010
1000
0010
0010
,
1001
1000
0100
0010
0001
1000
0010
0100
,
1000
0000
0100
0000
0010
0000
0100
0000
0001
1000
0100
0000
0010
0000
0001
0000
,
0010
0001
0100
0010
1000
0001
1000
0100
,
0010
0000
0001
0000
0100
0000
0010
0000
0100
0010
1000
0000
0001
0000
1000
0000
,
0200
0000
0000
0000
0000
0000
0010
0300
0011
0000
0000
0000
0101
0000
0000
0000
,
0000
0000
0110
0000
0000
0000
1000
0000
0001
1000
0200
0000
0310
0000
0010
0000
,
0002
0000
0000
0000
0000
0000
0200
0000
0000
0000
0000
0000
0010
0000
0000
0303
,
0000
MMMM
0000
0000
0002
0000
0000
0000
1003
0100
0020
0030
1001
0000
MMMM
0000
,
1000
0001
0010
0001
1000
0000
0110
0000
0001
1000
0010
1000
0001
0000
0101
0000
,
1000
0001
0100
0010
0100
0000
0001
0000
0100
0000
0101
0000
0010
0000
1000
0000
,
0010
1000
0010
1000
0010
0000
1000
0000
0001
0010
0001
0010
0001
0000
1001
0000
,
1000
0001
0100
0001
1000
0100
1000
0001
0010
0001
1000
0100
1000
0010
0200
0000
,
M31M
0000
1000
0000
0001
0010
0001
0010
0001
0000
1000
0000
0010
1000
0010
0100
,
0001
0000
1000
0000
0001
1000
0001
0000
1000
0000
0100
0000
1000
0000
0010
0000
,
0100
0010
0100
0010
0100
0000
0001
0000
1000
0001
1000
0001
1000
0000
0100
1000
,
0010
1000
0010
0100
0001
0100
0001
1000
0001
0010
0100
1000
0001
1000
0002
0000
,
1MM3
0001
1000
0001
1000
0000
0101
0000
0100
0010
0100
0010
0100
0000
1001
0000
,
0001
0010
0001
0010
0001
0000
1000
0000
0001
0000
0010
0000
0100
0000
1000
0000
,
0010
1000
0010
1000
0010
0000
0110
0000
0100
0001
0100
0001
0100
0000
0001
0100
,
0001
0100
0010
0100
0010
1000
0001
0100
0001
0010
0100
1000
0001
0100
0002
0000
,
MM13
0000
0100
0000
1000
0100
1000
0100
1000
0000
0010
0000
0100
0010
0100
0010
,
0100
0000
0010
0000
1000
0001
1000
0001
1000
0000
0001
0000
1000
0000
0100
0000
,
1000
0100
1000
0100
1000
0000
0010
0100
0010
0000
0100
0001
0100
0000
0001
1000
,
0001
0100
0001
1000
0100
1000
0001
0010
0001
1000
0100
1000
0010
0100
0001
1000
,
0001
0000
0110
0000
,
0101
0001
0010
0100
1100
1000
0100
0011
,
0000
0110
0101
0000
,
1001
0000
1000
0100
1000
0000
0010
0000
0100
0000
0001
0000
0010
0000
0400
0000
,
0000
0000
1300
0001
1000
0000
0000
0000
1001
0000
0000
0000
0000
0000
0000
0000
,
0101
0100
0010
1010
0000
1100
1000
0040
,
0000
0000
0130
0001
1000
0000
0000
0000
1001
0000
0000
0000
0000
0000
0000
0000
,
1MM1
0000
0001
0010
010M
0000
1000
0000
0M10
0000
0100
0000
M001
0000
1000
0000
,
11MM
0000
1010
0000
,
0110
0100
0001
0010
1100
1000
0010
0101
,
0000
1001
1100
0000
,
1010
0000
0010
0100
0001
0000
0010
0000
0100
0000
0010
0000
0001
0000
4000
0000
,
0000
0000
3010
0100
0010
0000
0000
0000
0101
0000
0000
0000
0000
0000
0000
0000
,
1100
1000
0010
0110
0100
0101
0001
4000
,
0000
0000
3001
0010
0100
0000
0000
0000
1100
0000
0000
0000
0000
0000
0000
0000
,
1M1M
0000
0100
0000
0001
0010
0100
0010
0001
1000
0010
0100
0010
0000
0100
0000
,
0010
1000
0100
1000
0010
0000
0100
0000
0001
1000
0100
1000
0001
0000
1000
0000
,
0001
0010
0001
0100
0010
0000
1000
0000
0010
1000
0010
1000
0010
0000
0100
0000
,
0010
0100
0010
0100
0010
0000
0100
0000
0001
0010
0100
1000
0001
0000
1000
0000
,
0100
1000
0100
0010
0001
0000
1000
0000
1010
0000
0010
0000
0110
0000
0100
0000
,
0001
0100
0010
1000
0001
0000
1000
0000
0001
0010
0100
0010
0001
0000
1000
0000
,
0010
0100
0010
1000
0001
0000
0010
0000
0100
1000
0010
1000
0010
0000
0100
0000
,
0010
1000
0001
0100
0001
0000
1000
0000
0100
1000
0100
1000
0010
0000
0100
0000
,
0001
1000
0001
1000
0001
0000
10M0
0000
01M0
0000
100M
0000
M010
0000
010M
0000
,
0001
0010
0100
1000
0100
0010
0001
1000
0100
1000
0001
0010
0100
0010
0001
1000
,
0010
0100
0001
0100
0010
1000
0001
0100
0010
1000
0010
0100
0001
1000
0100
0010
,
0001
1000
0100
1000
0001
0010
0001
0100
0010
1000
0100
1000
0001
0010
0100
1000
,
0100
0010
0001
0100
0010
1000
0010
0100
0001
1000
0100
0010
0001
0100
0010
1000
,
0001
1000
0100
1000
0010
0100
0001
0010
0001
0100
0010
1000
0100
1000
0001
0010
,
0100
0010
0001
1000
0100
0010
0100
1000
0001
0100
0010
1000
0100
1000
0001
0100
,
0001
1000
0100
1000
0001
0010
0001
1000
0100
1000
0010
0100
0001
0100
0010
1000
,
0001
0010
0100
1000
0100
0010
0001
1000
0010
0100
0001
1000
0001
0100
0010
1000
,
0002
0000
0000
0000
1003
0000
0010
1000
0001
0100
0010
1000
0001
0000
0100
0000
,
0001
0000
1000
0000
0001
1000
0001
1000
0001
0000
1000
0100
0010
0001
0010
0100
,
1000
0000
0000
0000
0010
0000
0100
0010
1000
0010
0100
0001
1000
0000
0001
0000
,
0010
0000
0100
1000
0100
0010
0001
0100
0010
0000
1000
0010
0100
0001
0100
0010
,
1000
0000
0000
0000
0001
0000
1000
0000
0001
0010
0100
0010
0001
0000
1000
0000
,
0010
0000
0100
0010
0100
0010
1000
0001
1000
0000
0100
0000
1000
0100
1000
0010
,
0100
0000
0000
0000
0010
0000
1000
0000
0001
0010
0100
1000
0100
0000
1000
0000
,
0010
0100
0010
1000
0001
0010
0001
1000
0100
1000
0010
0000
1000
0000
0010
0000
,
0100
0010
1000
0001
0010
0100
1000
0100
,
0010
0000
0001
0000
0100
0000
0010
0000
1000
0010
0100
0000
0001
0000
1000
0000
,
0001
0010
0001
0100
1000
0100
0001
1000
,
0100
0000
0010
0000
0001
0000
0010
0000
0100
0010
0001
0000
1000
0000
0010
0000
,
0200
0000
0000
0000
0000
0000
0010
0300
0110
0000
0000
0000
0101
0000
0000
0000
,
0000
0000
1001
0000
0000
0000
1000
0000
0100
1000
0020
0000
0130
0000
0000
0000
,
0110
0100
0010
1000
1001
0001
0010
0100
,
1100
1000
0010
0100
0101
0001
0100
0100
,
1001
0001
0010
0100
1000
0001
0100
0010
,
0001
0000
0010
0000
0100
0000
0010
0000
1000
0001
0010
0000
0100
0000
1000
0000
,
0100
1000
0010
0100
0001
1000
0001
0010
,
0100
0000
1000
0000
0010
0000
0100
0000
0010
0100
0001
0000
1000
0000
0001
0000
,
0020
0000
0000
0000
0000
0000
0100
0030
1100
0000
0000
0000
1010
0000
0000
0000
,
0000
0000
0110
0000
0000
0000
0001
0000
1000
0001
0020
0000
0130
0000
1000
0000
,
0020
0000
0000
0000
0000
0000
0200
0000
0000
0000
0000
0000
1000
0000
0000
0330
,
0000
MMMM
0000
0000
1001
0000
0001
0000
0010
0001
0200
0010
1300
0000
0000
0000
,
1001
1000
0001
0010
0001
1000
0010
1000
,
0001
0010
0001
1000
0100
1000
0001
0100
,
0001
0100
0010
1000
0001
1000
0100
0010
,
0001
0010
0100
1000
0010
1000
0100
0010
,
0001
0100
0001
0010
0100
1000
0001
0100
,
0010
0000
0100
0000
0001
0000
1000
0000
0100
0000
0010
0000
0001
0000
0100
0010
,
0100
0000
0000
0000
0001
0010
0100
1000
0100
0010
0100
1000
0001
0010
0001
0100
,
0010
1000
0010
0100
0001
1000
0100
0010
0001
0010
0001
0100
0010
1000
0010
0100
,
0001
0100
0010
1000
0001
1000
0100
0010
0100
1000
0001
0010
0100
0010
0001
0100
,
0010
0100
0001
0010
0100
0010
0001
1000
0100
0010
0001
0010
0100
1000
0010
0100
,
0001
0100
0010
1000
0001
0010
0001
0100
0010
1000
0100
1000
0010
0100
0001
0100
,
0010
1000
0010
0100
0001
0100
0010
1000
0100
0010
0001
0100
0001
0010
0100
1000
,
0010
1000
0010
0100
0001
0100
0010
1000
0001
0010
0001
0100
0010
1000
0001
1000
,
0100
0010
0001
0100
0010
0100
0001
1000
0100
0010
0001
1000
0001
0100
0010
1000
,
0001
0010
0100
1000
0100
0010
0100
1000
0001
0010
0001
0100
0010
1000
0010
0100
,
0001
1000
0100
0010
0001
0010
0001
0100
0010
1000
0010
0100
0001
0100
0010
1000
,
0001
1000
0100
0010
0100
1000
0001
0010
0100
0010
0001
0100
0010
0100
0001
0010
,
0100
0010
0001
1000
0100
0010
0001
0010
0100
1000
0010
0100
0001
0100
0010
1000
,
0001
0010
0001
0100
0010
1000
0100
1000
0010
0100
0001
0100
0010
1000
0010
0100
,
0001
0100
0010
1000
0100
0010
0001
0100
0001
0010
0100
1000
0010
1000
0010
0100
,
0002
0000
0203
0000
0310
0010
0100
0100
,
0002
0000
0000
0000
2003
0000
0000
0000
3100
0000
0100
0000
0020
0000
0000
0030
,
0011
0000
0000
0001
0000
0000
0100
0000
0010
0000
0100
0000
0001
0000
1000
0000
0100
0000
0010
0000
0000
0000
0000
0000
,
0000
0000
0000
0101
0000
0000
0000
0000
0000
0010
0001
0100
,
0001
0010
0001
0100
0010
0100
1000
0100
0010
0100
0000
0000
,
0000
0000
0000
1001
0000
0000
0000
0000
0000
0001
0010
0001
,
0100
0010
0100
0010
0001
0010
0100
0001
1000
0001
0000
0000
,
0000
0000
0000
1001
0000
0000
0000
0000
0000
1000
0100
0010
,
0100
1000
0100
0001
0100
1000
0010
0100
0001
1000
0000
0000
,
0000
0000
0000
0011
0000
0000
0000
0000
0000
0100
0010
0100
,
0001
1000
0100
0010
0001
0010
0100
1000
0001
1000
0000
0000
,
0000
0000
0000
0110
0000
0000
0000
0000
0000
0010
0100
0001
,
1000
0100
0010
0100
1000
0001
0010
0001
0100
0010
0000
0000
,
0000
0000
0000
0101
0000
0000
0000
0000
0000
0100
0010
0100
,
0001
0010
0001
0100
0010
1000
0001
0010
0001
0100
0000
0000
,
0000
0000
0000
0011
0000
0000
0000
0000
0000
0001
0010
0001
,
0100
0000
0010
0000
1000
0000
0002
0000
0000
0000
0000
0000
0000
0000
0000
0100
0003
0000
0001
0000
0000
0000
0000
0000
,
0110
0000
0000
0000
0000
0000
0000
0000
0000
0000
0000
0000
1010
0000
0000
0000
0000
0000
1000
0000
0000
0000
0000
0000
0001
0000
0000
1000
0000
0000
0100
0000
0000
0010
0000
0000
0001
0000
0000
0000
0100
0000
0000
0000
0010
0000
0000
0000
,
1000
0001
0100
0020
0000
0000
0000
0000
0000
0000
0000
0000
,
1030
0100
0010
0001
0100
0001
0010
0100
,
1000
0000
0100
0000
0010
0002
0000
0000
0000
0000
0000
0000
0000
0000
0003
0000
,
0100
0000
0010
0000
0200
0000
0000
0000
0000
0000
0000
0000
0310
0100
0001
1000
,
0001
1000
0100
0010
0002
0000
0000
0000
0000
0000
0000
0000
0000
0000
0000
0000
,
0013
0001
0200
0000
0310
1000
0001
1000
,
0100
0010
0002
0000
0000
0000
0000
0000
,
0203
0000
0310
2000
0000
0000
3001
0020
,
0000
0000
0000
0000
0000
0000
0000
0000
0000
0030
0000
0000
0001
0000
0000
0000
0010
0000
0000
0000
0001
0000
0000
0000
0100
0000
0000
0000
0010
0000
0000
0000
1000
0000
0000
0000
0100
0000
0000
0000
0010
0000
0000
0000
0001
0000
0000
0000
,
1000
0000
0000
0000
0001
0000
0000
0000
0010
0000
0000
0000
0100
0000
0000
0000
1000
0000
0000
0000
0100
0000
0000
0000
0010
0000
0000
0000
0001
0000
0100
0000
0000
0010
0000
0000
0100
0000
0000
0000
0010
0000
0000
0000
0100
0000
0000
0000
,
0001
0000
1000
0000
0001
0000
2000
0000
0000
0000
0000
0000
0000
0000
0000
3002
0000
0000
0000
0000
0000
0000
0000
0000
,
0023
0000
0000
0000
0000
0000
0000
0000
0031
0200
0000
0000
0000
0000
0000
0000
0000
0000
0000
0000
0320
0000
0000
0000
0000
0000
0000
0000
0030
0000
2000
0000
,
0000
3002
0000
0000
,
0103
0100
0010
1000
0001
0002
0000
0000
,
0000
0000
1003
1000
1000
0001
0001
0001
,
0100
0100
0010
0010
1000
0001
2000
0000
,
3001
0000
0000
0100
0000
0000
0010
0000
0100
0000
0010
0000
1000
0000
0001
0000
0010
0000
0100
0000
0000
0000
0000
0000
,
0000
0000
0000
1010
0000
0000
0000
0000
0000
0001
1000
0010
,
1000
0100
1000
0010
0100
0010
0001
0010
0100
0010
0000
0000
,
0000
0000
0000
1001
0000
0000
0000
0000
0000
1000
0100
1000
,
0010
0100
0010
0100
1000
0100
0010
1000
0001
1000
0000
0000
,
0000
0000
0000
1001
0000
0000
0000
0000
0000
0001
0010
0100
,
0010
0001
0010
1000
0010
0001
0100
0010
1000
0001
0000
0000
,
0000
0000
0000
1001
0000
0000
0000
0000
0000
0010
0100
0010
,
1000
0001
0010
0100
1000
0100
0010
0001
1000
0001
0000
0000
,
0000
0000
0000
0110
0000
0000
0000
0000
0000
0100
0010
1000
,
0001
0010
0100
0010
0001
1000
0100
1000
0010
0100
0000
0000
,
0000
0000
0000
1010
0000
0000
0000
0000
0000
0010
0100
0010
,
1000
0100
1000
0010
0100
0001
1000
0100
1000
0010
0000
0000
,
0000
0000
0000
1100
0000
0000
0000
0000
0000
1000
0100
1000
,
0010
0000
0100
0000
0001
0000
2000
0000
0000
0000
0000
0000
0000
0000
0000
0010
3000
0000
1000
0000
0000
0000
0000
0000
,
0110
0000
0000
0000
0010
0100
0001
1000
0001
0000
0100
0000
0001
0000
0010
0000
,
0001
0100
0020
0130
0001
1000
0100
0010
,
0001
0100
0010
0100
1000
0100
0010
0100
,
0001
1000
0100
0010
0001
0100
0010
1000
,
0001
1000
0100
0010
0001
0100
0010
1000
,
0001
0010
0002
0000
0000
0200
0003
0000
,
2000
0300
0200
3000
0000
0002
0300
0000
,
1003
0000
0000
0000
0000
0000
0001
0000
0000
0000
0000
0000
0010
0000
0000
0000
0001
0000
0000
0000
0100
0000
0000
0000
0010
0000
0000
0000
0100
0000
0000
0000
0001
0000
0000
0000
1000
0000
0000
0100
0000
0000
0010
0000
0000
0001
0000
0000
,
1000
0001
0010
0100
1000
0010
0100
0001
1000
0100
0010
0001
0100
0001
0010
0100
,
0010
0001
0010
0100
0020
0000
0000
0000
0031
0000
0200
0000
0000
0000
0310
0000
,
2000
0000
0000
0000
3001
0000
0020
0000
0000
0000
0130
0000
2000
0000
0000
3001
,
1000
0010
0100
0001
2000
0000
0000
0000
0000
0000
0000
0000
0000
0000
3010
0100
,
0010
1000
0001
1000
0002
0000
0000
0020
0000
0000
0000
0000
0000
0000
0000
0033
,
0000
0101
0100
0010
1000
0001
0010
0001
,
0100
0010
1000
0100
0010
0100
1000
0001
,
0100
0010
0220
0000
0000
0000
0330
0100
,
0010
0000
0100
0000
0004
4000
0000
0000
0000
0000
0000
3003
0010
0000
0200
0000
,
0000
0300
0002
0000
0000
0020
0000
0000
,
0100
0000
0000
0033
0000
MMMM
0000
0000
0110
0000
0000
0000
0010
1000
0001
0200
,
0000
0000
0000
0300
0010
0000
0100
0000
0001
0000
1000
0000
0100
0000
0010
0000
,
0001
0000
0010
0000
0100
0000
1000
0000
0010
0000
0100
0000
0001
0100
0010
0000
,
1000
0001
1000
0100
1000
0010
0001
0010
,
1000
0000
0001
0000
0010
0000
0100
0000
1000
0000
0100
0000
0010
0100
1000
0000
,
0001
0000
0100
0000
0020
0000
0000
0000
0000
0000
0100
0030
0110
0000
0000
0000
,
1010
0000
0000
0000
0101
0000
0001
0000
0000
0000
0001
0000
0010
0001
0200
0000
,
0310
0000
0110
0010
0100
0001
1001
1000
,
0100
0000
0010
0000
0001
0100
0001
0000
0100
0000
0010
0000
0110
0000
0010
0000
,
1000
0001
0011
1000
0100
0010
0001
1000
,
0010
0000
0100
0000
1000
0000
0100
0000
0010
0000
0100
0000
0001
1000
0100
0000
,
0010
0001
0010
0001
0100
0010
1000
0001
,
1000
0000
0100
0000
0010
0000
0001
0000
0100
0000
0010
0000
0100
0010
1000
0000
,
0001
0000
1000
0000
0200
0000
0000
0000
0000
0000
0010
0300
0011
0000
0000
0000
,
0101
0000
0000
0000
0110
0000
0000
0000
1010
0000
1000
0000
0001
1000
0200
0000
,
0310
0010
0002
0103
0020
1030
0002
2003
,
3001
0000
0000
0000
1001
0000
0001
0000
0100
0010
0100
0010
1000
0000
0001
0000
,
1001
1000
0100
0010
0001
1000
0010
0100
,
0001
0000
0010
0000
0100
0000
1000
0000
0010
0000
0100
0000
0001
1000
0100
0000
,
0010
0001
1000
0100
1000
0010
0001
0010
,
1000
0000
0001
0000
0010
0000
0100
0000
1000
0000
0100
0000
0010
0100
1000
0000
,
0001
0000
0100
0000
0002
0000
0000
0000
0000
0000
1000
0003
1001
0000
0000
0000
,
1010
0000
0000
0000
1001
0000
0000
0000
0011
0000
0001
0000
0010
0001
0200
0000
,
0310
0000
0000
0000
0000
0000
0110
0000
0000
0010
0000
0000
0100
0000
0001
1000
0001
1000
0001
0000
0000
1000
0000
0000
,
0100
0000
0010
0000
0011
0000
0001
0000
0100
0000
0010
1000
0010
0000
1000
0000
,
0010
1000
1001
1000
0100
0010
0001
1000
,
0010
0000
0100
0000
1000
0000
0100
0000
0010
0000
0100
0000
0001
1000
0100
0000
,
0010
0001
0100
0001
0100
0010
1000
0001
,
1000
0000
0100
0000
0010
0000
0001
0000
0100
0000
0010
0000
0100
0010
1000
0000
,
0001
0000
1000
0000
0020
0000
0000
0000
0000
0000
1000
0030
0110
0000
0000
0000
,
0101
0000
0000
0000
0011
0000
0010
0000
0001
0000
1000
0000
0001
1000
0200
0000
,
0310
0000
0010
0000
0002
0000
0000
0000
0000
0000
0200
0000
0000
0003
0000
0000
,
0020
0000
0000
0300
2000
0000
0000
0000
3030
0000
0000
0000
0000
0000
0000
0000
;
