#TITLE:witchcraft;
#SUBTITLE:;
#ARTIST:paraoka;
#TITLETRANSLIT:;
#SUBTITLETRANSLIT:;
#ARTISTTRANSLIT:;
#CREDIT:;
#BANNER:witchcraft-banner.png;
#BACKGROUND:witchcraft-bg.png;
#LYRICSPATH:;
#CDTITLE:141logo.png;
#MUSIC:wc.mp3;
#OFFSET:0.714;
#SAMPLESTART:57.116;
#SAMPLELENGTH:12.000;
#SELECTABLE:YES;
#BPMS:0.000=115.000,80.000=28.750,83.000=115.000;
#STOPS:80.000=0.980
,127.000=0.783
;
#BGCHANGES:;
// cache tags:
#FIRSTBEAT:16.000;
#LASTBEAT:160.500;
#SONGFILENAME:Songs/Japanese Collaboration Mix/wc_dwi/witchcraft.sm;
#HASMUSIC:1;
#HASBANNER:1;
#MUSICLENGTH:90.132;
// end cache tags

//---------------dance-single - MANIAC----------------
#NOTES:
     dance-single:
     MANIAC:
     Hard:
     9:
     0.620,0.579,0.244,0.166,0.677,354.000,22.000,15.000,0.000,0.000:
0000
0000
0000
0000
,
0000
0000
0000
0000
,
0000
0000
0000
0000
,
0000
0000
0000
0000
,
2002
0000
0000
3003
0100
0000
0010
0000
2002
0000
0000
3003
0100
0000
0010
0000
,
0202
0000
0000
0303
1000
0000
0100
0000
0001
0000
0000
0100
0000
0000
1000
0010
,
2000
0000
0000
3000
0001
0000
0100
0000
2020
0000
0000
3030
0001
0000
1000
0000
,
0202
0000
0000
0303
0010
0000
0001
0000
1000
0001
1000
0001
0000
0100
0010
0100
,
0010
0000
1000
0000
0001
0010
0001
0010
0100
0000
1100
0000
0100
0000
0000
0000
,
1000
0000
0001
0000
0010
1000
0010
1000
0100
0000
0100
0000
0010
0100
0000
0000
,
0001
0000
0010
0000
0100
1000
0100
1000
0010
0000
0110
0000
0010
0000
0000
0000
,
0100
0000
0010
0000
1000
0001
1000
0001
0100
0000
0100
0000
1010
0000
0100
0000
,
0010
0100
0010
0100
0001
0000
1000
0100
1000
0100
0010
0000
1000
0000
0010
0000
,
0100
0010
0100
0010
0001
0000
0010
0100
0010
0100
1000
0000
0001
0000
0100
0000
,
1000
0010
1000
0010
0100
0000
0001
0100
0001
0100
0001
0000
0100
0000
1000
0000
,
0010
1000
0010
1000
0100
0000
0001
0100
0001
0100
0010
0000
1010
0000
0000
0000
,
0100
0001
0100
0001
0100
0000
0010
1000
0010
1000
0001
0000
0100
0000
0100
0000
,
1000
0001
1000
0001
1000
0000
0010
0100
0010
0100
0010
0000
0001
0000
0001
0000
,
1000
0010
1000
0010
1000
0000
0001
0100
0001
0100
0010
0000
1000
0000
1000
0000
,
0001
0010
0001
0010
0001
0000
1000
0001
1000
0001
0100
0010
0100
0010
0000
0000
,
0000
0000
0000
0100
,
1001
0000
0000
0110
0000
0000
0100
0010
1000
0000
0001
0100
0000
0010
0000
1000
,
0000
0100
0010
0000
2000
0000
3001
0000
0010
0100
0000
0010
0000
1000
0000
0100
,
0010
0100
0001
0000
1000
0000
0100
0010
0000
1000
0000
0001
0000
0010
0001
0000
,
0200
0000
0301
0000
0010
0100
0000
0010
0000
1000
0100
0010
0000
0100
0010
0000
,
0001
1000
0001
0000
1000
0100
0000
0010
0000
0001
0000
0100
0010
0000
0002
0000
,
1003
0000
0010
0100
0000
0010
0000
0001
0000
0100
0010
0100
1000
0000
0001
0000
,
0100
0010
0000
0001
0000
1000
0000
0010
1000
0000
0200
0000
0301
0000
0010
0100
,
0010
0000
0000
0000
0100
0001
0000
1000
0000
0100
0010
0000
0100
0000
0000
0000
,
0100
0100
0100
0100
,
0100
0000
0100
0000
0110
0000
1001
1001
,
0100
0110
1000
1010
0001
0101
1001
1001
,
0000
0110
0000
0000
0010
0100
1000
0001
1000
0001
1000
0000
0010
0100
0010
0100
,
0010
0000
0001
0000
0001
0000
0100
0010
0100
0010
0001
0000
0010
0100
0010
0100
,
1000
0000
0001
0000
0100
0000
1000
0010
1000
0010
0100
0000
0001
0100
0001
0100
,
0001
0000
0100
0000
1000
0000
0100
0001
0100
0001
0100
0000
0010
1000
0010
1000
,
0001
0000
0110
0000
0000
0000
0010
0100
0010
0100
0001
0000
1000
0100
1000
0100
,
0010
0000
1000
0000
0010
0000
0010
1000
0010
1000
0100
0000
0001
0100
0001
0100
,
0010
0000
0001
0000
0100
0000
1000
0010
1000
0010
1000
0000
0001
0100
0001
0100
,
0010
0000
1000
0000
1000
0000
0001
0010
0001
0010
0100
1000
0100
1000
0100
0001
,
0100
1001
0000
0000
0000
0000
0000
0000
;
