#TITLE:The Cage;
#SUBTITLE:Winterheart's Guild (2003);
#ARTIST:Sonata Arctica;
#TITLETRANSLIT:;
#SUBTITLETRANSLIT:;
#ARTISTTRANSLIT:;
#CREDIT:Dog_E;
#BANNER:banner.PNG;
#BACKGROUND:bg.PNG;
#LYRICSPATH:;
#CDTITLE:DogETitle.PNG;
#MUSIC:Sonata Arctica - The Cage.mp3;
#OFFSET:1.216;
#SAMPLESTART:180.963;
#SAMPLELENGTH:22.460;
#SELECTABLE:YES;
#BPMS:0.000=160.000,4.000=320.000,132.000=160.000,268.000=158.000,272.000=160.000,614.000=152.000;
#STOPS:;
#BGCHANGES:;
// cache tags:
#FIRSTBEAT:4.000;
#LASTBEAT:617.250;
#SONGFILENAME:Songs/Astronomic Metal Collection/The Cage (Dog_E)/[sonata arctica] winterheart's guild (03) - the cage.sm;
#HASMUSIC:1;
#HASBANNER:1;
#MUSICLENGTH:211.409;
// end cache tags

//---------------dance-single - Blank----------------
#NOTES:
     dance-single:
     Blank:
     Hard:
     11:
     1.000,1.000,1.000,0.520,1.000,1694.000,322.000,110.000,0.000,34.000:
0000
0000
0000
0000
,
1021
0000
0000
0000
,
0000
0000
0000
0000
0000
0000
0000
0000
0000
0000
0000
0030
0000
0000
0000
0000
,
0000
0000
0000
0010
0100
1000
0100
0000
0000
1000
0000
0000
,
0001
0000
0000
0100
0000
0000
0010
0000
0000
0002
0000
0003
,
0200
0000
0000
0000
0000
0000
0000
0000
0000
0000
0000
0000
0000
0300
0000
0000
0000
0000
0010
0000
0000
0000
0100
0000
,
0000
0000
0000
0000
1000
0000
0010
0000
0000
0000
0001
0000
0100
0000
0000
0000
1000
0000
0000
0001
0000
0000
0000
1000
,
0000
0000
0012
0000
0000
0000
0000
0000
0000
0000
0000
0003
,
0000
0000
0000
0000
0000
0000
0000
0000
0000
0000
0000
0000
0000
0000
0000
0000
0000
0000
0000
0000
0000
0000
0000
0000
0000
0000
0000
0000
0000
0000
0000
0000
0000
0000
0000
0000
0000
0000
0000
0000
0000
0000
0000
0000
0000
0000
0000
0000
0001
0000
0000
0000
0000
0000
0000
0000
0000
0000
0000
0000
0000
0000
0000
0000
0010
0000
0000
0000
0000
0000
0000
0000
0000
0000
0000
0000
0000
0000
0000
0000
0100
0000
0000
0000
0000
0000
0000
0000
0000
0000
0000
0000
0000
0000
0000
0000
1000
0000
0000
0000
0000
0000
0000
0000
0000
0000
0000
0000
0000
0000
0000
0000
0001
0000
0000
0000
0000
0000
0000
0000
0000
0000
0000
0000
0000
0000
0000
0000
0000
0000
0000
0000
0000
0000
0000
0000
0000
0000
0000
0000
0000
0000
0000
0000
0200
0000
0000
0000
0000
0000
0000
0000
0000
0000
0000
0000
0000
0000
0000
0000
0000
0000
0000
0000
0000
0300
0000
0000
0000
0000
0000
0000
0000
0000
0000
0000
0000
0000
0000
0000
0000
0000
0000
0000
0000
0000
0000
0000
0000
0000
0000
0000
,
2010
0000
0000
0000
0000
0000
0000
0000
0000
0000
0000
0000
0000
0000
0000
0000
0000
0000
0000
0000
0000
0000
0000
0000
0000
0000
0000
0000
0000
0000
0000
0000
0000
0000
0000
0000
0000
0000
0000
0000
0000
0000
0000
0000
0000
0000
0000
3000
1000
0000
0000
0000
0000
0000
0000
0000
0100
0000
0000
0000
0000
0000
0000
0000
,
0010
0100
0010
0001
1000
0010
0001
1000
,
0100
0001
0100
0010
0100
1000
0100
0001
,
0020
0000
0000
0000
0000
0000
0000
0000
0000
0000
0000
0000
0000
0000
0000
0000
0000
0000
0000
0000
0000
0000
0000
0000
0000
0000
0000
0000
0000
0000
0000
0000
0000
0000
0000
0000
0000
0000
0000
0000
0000
0000
0030
0000
0000
0000
0000
0000
0000
0000
0000
0000
0000
0000
0000
0000
0000
0000
0000
0000
0000
0000
0000
0000
0010
0000
0000
0000
0000
0000
0000
0000
0000
0000
0000
0000
0000
0000
0000
0000
0100
0000
0000
0000
0000
0000
0000
0000
0000
0000
0000
0000
0000
0000
0000
0000
1000
0000
0000
0000
0000
0000
0000
0000
0000
0000
0000
0000
0000
0000
0000
0000
0001
0000
0000
0000
0000
0000
0000
0000
0000
0000
0000
0000
0000
0000
0000
0000
0000
0000
0000
0000
0000
0000
0000
0000
0000
0000
0000
0000
0000
0000
0000
0000
2000
0000
0000
0000
0000
0000
0000
0000
0000
0000
0000
0000
0000
0000
0000
0000
3000
0000
0000
0000
0000
0000
0000
0000
0000
0000
0000
0000
0000
0000
0000
0000
0000
0000
0000
0000
0000
0000
0000
0000
0000
0000
0000
0000
0000
0000
0000
0000
,
0100
0000
0000
0000
0000
0000
0000
0000
0000
0000
0000
0000
0000
0000
0000
0030
0000
0000
0000
0000
1000
0000
0100
0000
,
0012
0000
0000
0000
0000
0000
0000
0000
0000
0000
0003
0000
0001
0010
0100
1000
,
0002
0000
0000
0000
0000
0000
0000
0000
0000
0000
0000
0003
,
0000
0000
0000
0001
0010
0100
0020
0000
0030
2000
0000
3000
,
0201
0000
0000
0000
0000
0000
0000
0000
0000
0000
0000
0000
0310
0000
0000
1000
0000
0000
0100
0000
0000
0010
0000
0000
0001
0000
0000
0000
0010
0000
0000
0000
0000
0000
0000
0000
1000
0000
0000
0000
0100
0000
0000
0000
0010
0000
0000
0000
,
0001
0000
1000
0100
0000
0000
0010
0000
0000
0001
0000
0000
0010
0000
0000
0100
0000
0000
0010
0000
0000
1000
0000
0000
,
0001
0100
0010
0100
0010
1000
0100
0010
,
0001
0100
0010
1000
0100
0010
0001
0010
,
0000
0000
0000
0000
0000
0000
0000
0000
0000
0000
0000
0000
0000
0000
0000
0000
0000
0000
0000
0000
0000
0000
0000
3000
0000
0000
0000
0000
0000
0000
0000
0000
0000
0000
0000
0000
0020
0000
0000
0000
0030
0000
1000
0000
0000
0000
0000
0000
,
0002
0000
0000
0000
0003
0000
1000
0000
0000
0000
0000
0000
0200
0000
0000
0000
0300
0000
1000
0000
0000
0000
0000
0000
0020
0000
0000
0000
0030
0000
1000
0000
0000
0000
0000
0000
0020
0000
0000
0030
0000
0000
0200
0000
0000
0000
0000
0000
,
0300
0000
0000
0000
0200
0300
0000
0000
0020
0030
0000
0000
1000
0000
0000
0000
,
0002
0003
0000
0100
0000
0000
0020
0030
0000
0100
0000
0000
2000
3000
0000
0100
0000
0000
0002
0003
0000
0010
0000
0000
,
0100
1000
0100
0010
0001
0100
0010
0001
1000
0100
0010
0001
,
0010
0001
1000
0001
0010
0100
1000
0100
0010
0001
1000
0010
,
1000
0000
0000
0000
0100
0000
0010
0000
0000
0001
0000
0000
0010
0000
0000
0100
0000
0000
1000
0000
0000
0100
0000
0000
0001
0000
0000
0000
0010
0000
0000
0000
0100
0000
0000
0000
1000
0000
0000
0000
0100
0000
0000
0000
1000
0000
0000
0000
,
0001
0000
1000
0000
0100
0000
0010
0000
0001
0000
0010
0000
0100
0000
1000
0000
0100
0000
0010
0000
0001
2000
0000
0000
,
0000
0000
0000
3000
0100
0000
0010
0000
0000
1000
0000
0000
0001
0000
0000
0100
0000
0000
0010
0000
0000
0001
0000
0000
,
0010
0000
0000
0100
0000
0000
1000
0000
0000
0001
0000
0000
0100
0000
0000
0010
0000
0000
0001
0000
0010
0100
1000
0000
,
0001
0000
0010
1000
0000
0000
0100
0000
0000
0001
0000
0000
1000
0000
0000
0010
0000
0000
0100
0000
0000
0001
0000
0000
,
0010
0100
1000
0100
0010
0001
1000
0100
,
2000
0000
0000
0000
0000
0000
0011
0000
3000
0000
0000
0000
1000
0000
0000
1000
0000
0000
0011
0000
0000
0000
0000
0000
0100
0000
0000
0000
0000
0000
1001
0000
0000
0000
0000
0000
0100
0000
0000
0100
0000
0000
1001
0000
0000
0000
0000
0000
,
0001
0000
1010
0000
0001
0001
1010
0000
0001
0000
0110
0000
0001
0001
0110
0000
,
1000
0000
0101
0000
1000
1000
0101
0000
0010
0000
1001
0000
0010
0010
1001
0000
,
1100
0110
0011
1001
0011
0100
1001
0100
,
0010
0000
0101
0000
0010
0010
0101
0000
1000
0000
0110
0000
1000
1000
0110
0000
,
0001
0000
1010
0000
0001
0001
1010
0000
0100
0000
0011
0000
0100
0100
0011
0000
,
1000
0000
0101
0000
1000
1000
0101
0000
0010
0000
1001
0000
0010
0010
1001
0000
,
0110
0000
1001
0000
0100
0100
0011
0000
1000
0000
0011
0000
0100
0100
1010
0000
,
1001
0000
0010
0100
0010
0100
0022
0000
0000
0000
0000
0000
0000
0033
0010
0100
,
1010
0000
0010
0100
0010
0100
2020
0000
0000
3030
0010
0100
0010
0100
1010
0100
,
2002
3003
0010
0100
0010
0100
2002
0000
0000
3003
0010
0100
2002
0000
3003
0000
,
2002
3003
0010
0100
0010
0100
2020
3030
2200
3300
0100
0010
0100
0010
0100
0010
,
2200
3300
0100
0010
0100
0010
2200
0000
0000
0000
0000
0000
0000
0000
3300
0000
,
1010
0000
0100
0010
0100
0010
0202
0303
0001
0100
0001
0100
0001
0100
0022
0033
,
2002
3003
0100
0010
0100
0010
2002
0000
0000
3003
0100
0010
2002
3003
0100
0010
,
2002
3003
0100
0010
0100
0010
2200
3300
0010
0000
0010
1000
0010
1000
0010
1000
,
0001
1000
0100
0010
0001
0010
0100
1000
0001
0100
0010
1000
0001
0100
0010
0100
,
0001
0010
0100
1000
0010
1000
0100
1000
0001
0100
0010
1000
0001
0010
0100
1000
,
0010
0100
0001
1000
0010
1000
0100
1000
0001
0100
0010
0100
0001
0100
0010
0100
,
0001
0010
0100
1000
0001
1000
0010
1000
0001
1000
0100
0010
0001
0010
0100
0010
,
0001
0010
0100
1000
0011
0100
0010
0001
1100
0001
0100
0010
1100
0010
0100
0001
,
0110
1000
0100
0010
0101
0010
1000
0100
0011
0100
1000
0010
1100
0001
1000
0001
,
0110
1000
0010
1000
0101
0010
1000
0010
1100
0001
0010
0001
1010
0100
0010
0100
,
0011
0100
0010
0100
1001
0100
0010
0001
1100
0010
0001
1100
0011
0000
0011
0000
,
1010
0100
0010
0100
0011
1000
0100
0010
1001
0100
0010
0100
1010
0001
0010
0001
,
1100
0010
0100
0010
1001
0100
0010
0001
0110
1000
0010
0100
1010
0100
0010
0100
,
0011
0100
1000
0001
0110
1000
0001
0010
1100
0010
0001
0010
1001
0100
0010
1000
,
0101
0010
0100
1000
0011
0100
0010
1000
0001
1000
0010
1000
0001
1000
0010
1000
,
0101
0010
0100
1000
0001
0010
0001
0100
0010
1000
0010
1000
0010
0100
0010
0100
,
0010
1000
0010
1000
0001
0100
0001
0010
0100
1000
0001
1000
0010
0100
0010
0100
,
0010
1000
0010
1000
0001
0100
0001
1000
0010
0100
0010
0100
0001
0100
0001
0100
,
0010
1000
0001
0100
0001
0010
0100
1000
0100
0010
0001
1000
0010
1000
0001
0100
,
0010
1000
0010
1000
0010
1000
0001
0100
0010
0100
0010
1000
0001
1000
0001
0010
,
0100
0010
0100
1000
0001
1000
0001
0010
0100
1000
0001
0100
0010
1000
0010
1000
,
0010
0100
0001
0100
0001
0100
0010
1000
0010
0100
0010
0100
0001
0100
0010
0100
,
1001
0011
1001
1100
,
1001
0100
0010
0001
1000
0100
0010
0001
1010
0100
0010
0001
1000
0100
0010
0001
,
0110
0001
1000
0100
0010
0001
1000
0100
0022
0000
1000
0000
1000
0000
1000
0000
,
1000
0000
0000
1000
0000
0000
1000
0000
0100
0000
0000
0000
1000
0000
0000
0000
,
2233
0000
0000
3300
0000
0000
0000
0000
0000
0000
0220
0000
0000
0000
0330
0000
0000
0000
0000
0000
0000
0000
0000
0000
0001
0000
0000
0010
0000
0000
0100
0000
0000
1000
0000
0000
0001
0000
0000
1000
0000
0000
0100
0000
0000
0010
0000
0000
,
0001
0010
0100
1000
0001
1000
0100
0010
2200
0000
0010
0000
0010
0000
0010
0000
,
0010
0000
0001
0010
0000
0000
0000
0000
3311
0000
0000
0000
0101
0000
0000
0000
,
0110
0000
0000
0000
1010
0000
0000
0000
1100
0010
0001
0100
0010
1000
0100
0010
,
0001
0100
0010
1000
0100
0001
0010
1000
0022
0000
1100
0000
1100
0000
1100
0000
,
1100
0000
1100
1100
0000
0000
1100
0033
0110
0000
0000
0000
1100
0000
0000
0000
,
1010
0000
0000
0000
0000
0000
0000
0000
0101
0000
0000
0000
0000
0000
0000
0000
0000
0000
0011
0000
0000
0000
0000
0000
0001
0000
0000
0010
0000
0000
0100
0000
0000
1000
0000
0000
0001
0000
0000
1000
0000
0000
0100
0000
0000
0010
0000
0000
,
0001
0010
0100
1000
0001
1000
0100
0010
2200
0000
0011
0000
0011
0000
0011
0000
,
0011
0000
0011
0011
0000
0000
3311
0000
0101
0000
0000
0000
0011
0000
0000
0000
,
1001
0000
0000
0000
0110
0000
0000
0000
1010
0100
0010
0001
1000
0100
0010
0001
,
1000
0100
0010
0001
1000
0100
0010
0001
0110
0001
1000
0100
0010
0001
1000
0100
,
0010
0001
1000
0100
0011
1000
0100
0010
0001
0010
0100
1000
0100
0010
0001
1000
,
0001
0010
0100
1000
0001
0010
0100
1000
0011
0011
0100
1000
0011
0011
0100
0011
,
0011
1000
0100
1000
0011
1000
0100
1000
0011
1000
0100
0010
0001
1000
0100
0010
,
1000
0100
0010
0001
0010
0001
0010
0100
1010
0100
0010
0001
1000
0010
0100
0001
,
0100
0010
0100
0010
0001
0010
0100
1000
0110
1000
0100
0010
0001
1000
0100
0010
,
0100
0010
0100
0010
0001
0100
0010
1000
0101
0010
0100
0010
0001
1000
0010
0100
,
0001
1000
0100
0010
0001
0010
0100
1000
0011
1000
0100
0010
0001
1000
0100
0010
,
1000
0100
0010
0001
0010
0001
0010
0100
1010
0100
0010
0001
0100
0010
0100
0001
,
1000
0010
0100
0010
0001
0010
0100
1000
0110
1000
0100
0010
0001
1000
0100
0010
,
0100
0010
0100
0010
0001
0100
0010
1000
0101
0010
0100
0010
0001
1000
0010
0100
,
0001
1000
0100
0010
0001
0010
0100
1000
0002
0000
0000
0000
0000
0000
0000
0000
,
0000
0000
0000
0000
0000
0000
0000
0000
0003
0000
0000
0000
0000
0000
0000
0000
0001
0000
0000
0000
0000
0010
0000
0000
0000
0000
0100
0000
0000
0000
0000
1000
0000
0000
0000
0020
0000
0000
0000
0000
0000
0000
0000
0000
0000
0000
0000
0000
0000
0000
0000
0000
0000
0000
0000
0000
0000
0000
0000
0000
0000
0000
0000
0000
,
0000
0000
0000
0000
0030
0000
0000
0000
0020
0000
0000
0000
2030
0000
0000
0000
3020
0000
0000
0000
1030
0000
0000
0000
0100
0000
0000
0000
0010
0000
0000
0000
0001
0000
0000
0000
0100
0000
0000
0000
0010
0000
0000
0000
1000
0000
0000
0000
0100
0000
0000
0000
0000
0010
0000
0000
0000
0000
0001
0000
0000
0000
0000
1000
,
0000
0000
0000
0000
0000
0000
0000
0000
0000
0000
0000
0000
0100
0000
0000
0000
0000
0000
0000
0000
0000
0000
0000
0000
0000
0000
0000
0010
0000
0000
0000
0000
0000
0000
0000
0000
0000
0000
0000
0000
0000
0000
0000
0000
0100
0000
0000
0000
0000
0000
0000
0000
0000
0000
0000
0000
0000
0010
0000
0000
0000
0000
0000
0000
0000
0000
0000
0000
0000
0000
0000
0000
0001
0000
0000
0000
0000
0000
0000
0000
0000
0000
0000
0000
0000
0000
0000
0000
0000
0000
0020
0000
0000
0000
0000
0000
0000
0000
0000
0000
0000
0000
0000
0000
0000
0000
0000
0000
0000
0000
0000
0000
0000
0000
0000
0000
0000
0000
0000
0000
0000
0000
0000
0000
0000
0000
0000
0000
0000
0000
0000
0000
0000
0000
0000
0000
0000
0000
0000
0000
0000
0000
0000
0000
0000
0000
0000
0000
0000
0000
0000
0000
0030
0000
0000
0000
0000
0000
0000
0000
0000
0000
0000
0000
0000
0000
0000
0000
0000
0000
0000
0000
0000
0000
0000
0000
0000
0000
0000
0000
0000
0000
0000
0000
0000
0000
0000
0000
0000
0000
0000
0000
,
1000
0000
0000
0000
0000
0000
0000
0000
0000
0000
0000
0000
0000
0000
0000
0000
0000
0000
0000
0000
0000
0000
0000
0000
0010
0000
0000
0000
0000
0000
0000
0000
0000
0000
0000
0000
0000
0000
0000
0000
0000
0000
0000
0000
0000
0000
0000
0000
0000
0000
0000
1000
0000
0000
0000
0000
0000
0000
0000
0000
0000
0000
0000
0000
0000
0000
0000
0000
0000
0000
0000
0000
0100
0000
0000
0000
0000
0000
0000
0000
0000
0000
0000
0000
0000
0000
0000
0000
0000
0000
0000
0000
0010
0000
0000
0000
0000
0000
0000
0000
0000
0000
0000
0000
0000
0000
0000
0000
0000
0000
0000
0000
0001
0000
0000
0000
0000
0000
0000
0000
0000
0000
0000
0000
0000
0000
0010
0000
0000
0000
0000
0000
0000
0000
0000
0000
0000
0000
0000
0000
0000
0000
0000
0000
0100
0000
0000
0000
0000
0000
0000
0000
1000
0000
0000
0000
0000
0000
0000
0000
0100
0000
0000
0000
0000
0000
0000
0000
0010
0000
0000
0000
0000
0000
0000
0000
0001
0000
0000
0000
0000
0000
0000
0000
0000
0000
0000
0000
0000
0000
0000
0000
,
1000
0000
0000
0000
0100
0000
0000
0000
0010
0000
0000
0000
0001
0000
0000
0000
0100
0000
0000
0000
0000
0000
0000
0000
0020
0000
0000
0000
0000
0000
0000
0000
0000
0000
0000
0000
0000
0000
0000
0000
0031
0000
0020
0000
0000
0000
0000
0000
0000
0000
0000
0000
0000
0000
0000
0030
0020
0000
0000
0000
0031
0000
0000
0000
,
0020
0030
0200
0000
0000
0000
0000
0000
0300
2000
0000
0000
0000
0000
3020
0000
,
0000
0000
0030
0000
0000
0000
0100
0010
0001
0010
0100
1000
0001
0100
0010
0001
,
1000
0100
0010
0001
0100
0010
1000
0001
0210
0000
0000
2310
0000
3000
0120
0030
,
0102
0000
0000
0000
0000
0000
0000
0000
0000
0000
0000
0000
0000
0000
0000
0000
0000
0000
0000
0000
0000
0003
0000
0010
,
0001
0000
0110
0000
0101
0000
1100
0000
1010
0000
0000
0101
0000
0000
0110
0000
,
2000
0000
0000
0000
0000
0000
0000
0000
0000
0000
0000
0000
0000
0000
0000
0000
0000
0000
0000
0000
0000
3000
0000
0000
0001
0000
0010
0000
0001
0000
0010
0000
0001
0100
0000
0000
0010
0000
0100
0000
0010
0000
0100
0000
0010
1000
0000
0000
,
0001
0000
0100
0000
0001
0000
0100
0000
0001
1000
0000
0000
0010
0000
1000
0000
0010
0000
1000
0000
0000
0100
0000
0000
0020
0000
0000
0000
0000
0000
0000
0000
0000
0000
0000
0000
0000
0000
0000
0030
0000
0000
0002
0000
0000
0000
0000
0000
,
0003
0100
0010
0001
2000
3000
0000
0000
0110
1000
0100
0010
0001
1000
0100
0010
,
0001
0000
0010
0000
0100
0000
1000
0000
0000
0001
0000
0000
0100
0000
0000
0010
0000
0000
0100
0000
0000
0010
0000
0000
1000
0000
0000
0100
0000
0000
0010
0000
0000
0001
0000
0000
0010
0000
0100
0000
1000
0000
0001
0000
0100
0000
0010
0000
,
2000
0000
0000
0000
0000
0000
0000
0000
0000
0000
0000
0000
0000
0000
0000
0000
3000
0000
0000
0000
0000
0000
0000
0000
1100
0000
0000
0010
0000
0000
0001
0000
0000
1000
0000
0000
0100
0000
0000
0010
0000
0000
0001
0000
0000
0100
0000
0000
,
0010
0000
0000
0001
0000
0000
1000
0000
0000
0100
0000
0000
0010
0000
0000
0001
0000
0000
0100
0000
0000
0010
0000
0000
0102
0000
0000
0000
0000
0000
0000
0000
0000
0000
0000
0003
0000
0000
0000
0000
0000
0000
0000
0000
0000
0000
0000
0000
,
0000
0000
0000
0000
0000
0000
0000
0000
0000
0000
0000
0000
0000
0003
0000
0000
0101
0000
1000
0000
0001
0000
0100
0000
0010
0000
1000
0000
0100
0000
0010
0000
,
0001
1000
0100
1000
0010
0100
0001
1000
0100
1000
0100
1000
0001
0100
0010
1000
,
0001
0010
0100
0010
0001
1000
0010
1000
0010
1000
0001
0100
0010
1000
0100
0010
,
0100
1000
0001
0010
0100
0010
0001
0100
0001
0010
0001
1000
0011
1000
0100
0010
,
0101
1000
0100
1000
0110
1000
0001
0100
1010
0100
0001
0100
0011
1000
0100
0010
,
1001
0100
0010
1000
0101
0010
0001
1000
0110
1000
0001
0010
1100
0010
0100
1000
,
0011
0100
1000
0010
1001
0010
0100
0010
1100
0001
0010
0100
1001
0100
0010
0001
,
0110
0001
1000
0001
1010
0100
0001
0100
0011
1000
0100
0010
1001
0100
0010
0001
,
1100
0001
0010
0100
0011
1000
0010
1000
0110
0001
0010
1000
0110
1000
0100
1000
,
0011
1000
0100
0001
0110
1000
0100
1000
0011
0100
0010
1000
0110
0001
0010
0100
,
1010
0100
0001
0100
1001
0100
0010
0100
0011
1000
0001
0010
1100
0010
0100
0010
,
1001
1001
0010
0100
1000
0100
1000
0100
1001
0000
0010
0000
1100
0000
1010
0000
,
0101
0010
0100
1000
0100
0010
0001
1000
0010
0100
0010
1000
0110
0000
0011
0000
,
1001
0000
0010
0000
1100
0000
0011
0000
0101
0010
0100
1000
0011
0000
1010
0000
,
0011
0100
1000
0010
0100
0001
0100
0010
1100
0000
1010
0000
1001
0000
0110
0000
,
0011
0000
0101
0000
0110
0000
1010
0000
1100
0010
0100
0010
1001
0010
1100
0010
,
1100
0001
0010
0100
1000
0001
0100
0010
0100
0001
0100
0010
1001
0000
0110
0000
,
1010
0000
0101
0000
0011
0000
1100
0000
0110
0000
0000
0011
0000
0000
1100
0000
,
0110
0000
0001
0000
1000
0000
0010
0000
1001
0010
0100
1000
0100
0010
0001
0010
,
1001
0100
0010
0001
0010
0100
1000
0100
1001
0000
0100
0000
0011
0000
0101
0000
,
1010
0100
0010
0001
0010
0100
1000
0001
0100
0010
0100
0001
0110
0000
1100
0000
,
1001
0000
0100
0000
0011
0000
1100
0000
1010
0100
0010
0001
1100
0000
0101
0000
,
1100
0010
0001
0100
0010
1000
0010
0100
0011
0000
0101
0000
1001
0000
0110
0000
,
1100
0000
1010
0000
0110
0000
0101
0000
0011
0100
0010
0100
1001
0100
0011
0100
,
0011
1000
0100
0010
0001
1000
0010
0100
0010
1000
0010
0100
1001
0000
0010
0000
,
0101
0000
1010
0000
1100
0000
0011
0000
0110
0000
0000
1100
0000
0000
0011
0000
,
0110
0000
1000
0000
0001
0000
0100
0000
1000
0100
0010
0001
1010
0100
1000
0100
,
1001
0010
0100
1000
0101
0010
0001
0010
1200
0000
0000
0000
0001
0000
0001
0000
,
0002
0000
0000
0000
0000
0000
0003
0300
1020
0000
0000
0000
1000
0000
0100
0030
,
0012
0000
0000
0000
0010
0000
1000
0003
0210
0000
0000
0000
0010
0000
1000
0000
,
0020
0000
0000
0000
0000
0030
0000
0000
1000
0000
0010
0000
0001
0000
0010
0300
,
2001
0000
0010
0000
0100
0000
0010
3000
0201
0000
0000
0000
0010
0000
1000
0000
,
0020
0000
0000
0000
0000
0030
0000
0300
1020
0000
0000
0000
1000
0000
0100
0030
,
0012
0000
0100
0000
1000
0000
0100
0003
1020
0000
0000
0100
0000
0000
0001
0000
,
1000
0000
0100
0000
1000
0000
0001
0030
1100
0010
0101
0010
1100
0010
0101
0010
,
1100
0010
0101
0010
1100
0001
0010
0100
1001
0010
0100
1000
0101
1000
0011
1000
,
0101
0010
0100
1000
0001
0010
0001
0100
0001
1000
0010
0100
1010
0001
0110
1000
,
0101
0010
1000
0100
0011
1000
0110
0001
1010
0100
0010
0001
1010
0100
0011
0100
,
1001
0010
0100
1000
0010
0100
0001
0010
1100
0001
0110
1000
0011
0100
1001
0010
,
1100
0001
0110
1000
0101
0010
1100
0001
1010
0001
1000
0001
0110
1000
0110
0001
,
1010
0100
0010
1000
0010
0100
0010
0001
1100
0010
1000
0001
0110
1000
0100
1000
,
0101
0010
0100
1000
0011
0100
0001
0010
1100
0001
0010
1100
0001
0010
0101
0010
,
1001
0010
1000
0010
1000
0100
0010
0100
0001
0010
0100
1000
0001
1000
0010
1000
,
0001
0000
0000
0100
0000
0000
0010
0000
0000
0100
0000
0000
0001
0000
0000
1000
0000
0000
0100
0000
0000
0010
0000
0000
0202
0000
0000
0000
0000
0000
0000
0000
0000
0300
0000
0000
0010
0000
0000
0000
0100
0000
0000
0000
1000
0000
0000
0000
,
0110
0000
0000
0000
0000
0003
0000
0000
0000
0000
0000
0000
0000
0000
0000
0000
;
