#TITLE:Green Hill Zone - Sonic 1;
#SUBTITLE:;
#ARTIST:XsakuX;
#TITLETRANSLIT:;
#SUBTITLETRANSLIT:;
#ARTISTTRANSLIT:;
#CREDIT:;
#BANNER:bn.JPG;
#BACKGROUND:bg.png;
#LYRICSPATH:;
#CDTITLE:;
#MUSIC:Green Hill Zone - Sonic 1.ogg;
#OFFSET:-0.041;
#SAMPLESTART:37.491;
#SAMPLELENGTH:29.999;
#SELECTABLE:YES;
#BPMS:0.000=160.000;
#STOPS:;
#BGCHANGES:;
// cache tags:
#FIRSTBEAT:0.000;
#LASTBEAT:228.000;
#SONGFILENAME:Songs/Owem Extras -l/Green Hill Zone - XsakuX - [Owem]/Green Hill Zone - Sonic 1.sm;
#HASMUSIC:1;
#HASBANNER:1;
#MUSICLENGTH:85.565;
// end cache tags

//---------------dance-single - ----------------
#NOTES:
     dance-single:
     :
     Beginner:
     1:
     0.097,0.133,0.012,0.000,0.000,57.000,1.000,0.000,0.000,0.000:
0000
0000
0000
0000
,
1000
0000
0000
0000
,
0001
0000
0000
0000
,
0010
0000
0000
0000
,
0100
0000
0000
0000
,
1000
0000
0000
0000
,
0001
0000
0000
0000
,
0010
0000
0000
0000
,
0100
0000
0000
0000
,
1000
0000
0000
0000
,
0001
0000
0000
0000
,
0010
0000
0000
0000
,
0100
0000
0000
0000
,
1000
0000
0000
0000
,
0001
0000
0000
0000
,
0010
0000
0000
0000
,
0100
0000
0000
0000
,
1000
0000
0000
0000
,
0001
0000
0000
0000
,
0010
0000
0000
0000
,
0100
0000
0000
0000
,
1000
0000
0000
0000
,
0001
0000
0000
0000
,
0010
0000
0000
0000
,
0100
0000
0000
0000
,
1001
0000
0000
0000
,
0100
0000
0000
0000
,
0010
0000
0000
0000
,
0001
0000
0000
0000
,
0010
0000
0000
0000
,
0100
0000
0000
0000
,
1000
0000
0000
0000
,
0001
0000
0000
0000
,
0010
0000
0000
0000
,
0100
0000
0000
0000
,
1000
0000
0000
0000
,
0001
0000
0000
0000
,
0010
0000
0000
0000
,
0100
0000
0000
0000
,
1000
0000
0000
0000
,
0001
0000
0000
0000
,
0010
0000
0000
0000
,
1000
0000
0000
0000
,
0001
0000
0000
0000
,
0100
0000
0000
0000
,
0010
0000
0000
0000
,
1000
0000
0000
0000
,
0100
0000
0000
0000
,
0010
0000
0000
0000
,
0001
0000
0000
0000
,
0010
0000
0000
0000
,
0100
0000
0000
0000
,
1000
0000
0000
0000
,
0001
0000
0000
0000
,
0100
0000
0000
0000
,
1000
0000
0000
0000
,
0100
0000
0000
0000
,
0010
0000
0000
0000
;

//---------------dance-single - ----------------
#NOTES:
     dance-single:
     :
     Easy:
     3:
     0.192,0.200,0.023,0.000,0.000,113.000,2.000,0.000,0.000,0.000:
0000
0000
0000
0000
,
1000
0000
0001
0000
,
0010
0000
0100
0000
,
1000
0000
0001
0000
,
0010
0000
0100
0000
,
1000
0000
0001
0000
,
0010
0000
0100
0000
,
1001
0000
0100
0000
,
0010
0000
0001
0000
,
1000
0000
0010
0000
,
0100
0000
0001
0000
,
0010
0000
0100
0000
,
1000
0000
0010
0000
,
0100
0000
0001
0000
,
0010
0000
0100
0000
,
1001
0000
0100
0000
,
0010
0000
0001
0000
,
1000
0000
0010
0000
,
0100
0000
0001
0000
,
0010
0000
0100
0000
,
1000
0000
0001
0000
,
1000
0000
0100
0000
,
0010
0000
0001
0000
,
0010
0000
1000
0000
,
0100
0000
0010
0000
,
0001
0000
0010
0000
,
0100
0000
1000
0000
,
0010
0000
0100
0000
,
0001
0000
0010
0000
,
0100
0000
1000
0000
,
0001
0000
1000
0000
,
0010
0000
0100
0000
,
0001
0000
0010
0000
,
0100
0000
1000
0000
,
0010
0000
0100
0000
,
0001
0000
0010
0000
,
0100
0000
1000
0000
,
0010
0000
0100
0000
,
0001
0000
0010
0000
,
0100
0000
1000
0000
,
0100
0000
0010
0000
,
0001
0000
0010
0000
,
0100
0000
1000
0000
,
0001
0000
1000
0000
,
0010
0000
0100
0000
,
0001
0000
1000
0000
,
0010
0000
0100
0000
,
0001
0000
0010
0000
,
0100
0000
1000
0000
,
0010
0000
0100
0000
,
0001
0000
0010
0000
,
0100
0000
1000
0000
,
0001
0000
0010
0000
,
0100
0000
1000
0000
,
0001
0000
0010
0000
,
0100
0000
1000
0000
,
0001
0000
1000
0000
,
0001
0000
0000
0000
;

//---------------dance-single - ----------------
#NOTES:
     dance-single:
     :
     Medium:
     5:
     0.406,0.366,0.117,0.316,0.000,206.000,10.000,27.000,0.000,0.000:
0000
0000
0000
0000
,
1000
0001
1000
0010
,
0100
0001
0010
0100
,
1000
0010
0100
0001
,
0010
0100
1000
0001
,
1001
0010
0100
0001
,
0010
0100
1000
0010
,
1000
0001
0010
0100
,
1000
0010
0100
0001
,
0020
0230
1300
0100
,
0010
0100
0001
0010
,
0200
2300
3010
0100
,
0001
0010
0100
1000
,
0020
0230
0301
0010
,
0100
1000
0010
0100
,
0002
0023
0130
1000
,
0010
0100
0001
0010
,
0200
2300
3100
0010
,
0001
1000
0010
0100
,
0002
0023
0130
1000
,
0010
0100
0001
1000
,
0200
0320
0031
1000
,
0010
0100
0001
0010
,
0200
2300
3010
0100
,
0001
0010
0001
1000
,
0100
0010
0001
1000
,
0010
0100
0001
0010
,
0200
2300
0000
3200
,
0000
0320
0000
0000
,
0031
1000
0010
0100
,
0001
0010
0100
0020
,
0000
0000
0000
0000
,
0230
0000
0000
0000
,
0301
0010
0100
1000
,
0010
0100
0001
0010
,
0100
1001
0010
0100
,
0001
0010
0100
1000
,
0110
1001
0010
0100
,
0001
0010
0100
1000
,
0110
0101
0001
0010
,
0100
1000
0010
0100
,
1100
0110
0001
1000
,
0100
0010
0001
0100
,
0011
0110
1000
0001
,
0100
0010
1000
0001
,
0010
0010
0001
1000
,
0010
0100
0001
0010
,
0100
1000
0010
0100
,
0001
1000
0100
0010
,
0001
1000
0010
0100
,
0001
0010
0100
1000
,
0020
0000
0000
0230
,
0000
0000
0302
0000
,
0013
0100
1000
0010
,
0100
0001
0010
0100
,
2000
0000
0000
0000
,
3200
0310
0001
0100
,
1000
0000
0000
0000
;

//---------------dance-single - ----------------
#NOTES:
     dance-single:
     :
     Hard:
     9:
     0.528,0.633,0.000,0.269,0.023,293.000,0.000,23.000,0.000,0.000:
0000
0000
0000
0000
,
1000
0100
0010
0001
1000
0010
0100
0001
,
0010
0100
1000
0010
0001
0100
1000
0010
,
0100
0001
0010
0100
1000
0010
1000
0100
,
0010
0000
0001
0000
1000
0000
0010
0000
1000
0001
1000
0000
0100
0010
0100
0000
,
1000
0100
0010
0001
1000
0010
0100
0001
,
1000
0100
0010
0001
1000
0010
0100
0001
,
1000
0100
0010
0001
0010
0100
1000
0010
,
0100
0001
1000
0001
0100
0010
1000
0001
,
1000
0000
0100
0000
0010
0001
0000
0001
,
0010
0000
0100
1000
0000
0100
0000
0000
,
0000
0000
0000
0100
0010
0001
0000
0001
,
0010
0000
0010
0100
0000
1000
0000
0000
,
0000
0000
0000
0000
1000
0100
0000
0100
,
0010
0000
0010
0001
0000
1000
0000
0000
,
0000
0000
0000
1000
0100
0010
0000
0001
,
0010
0000
0010
0100
0000
1000
0000
0000
,
1000
0000
0100
0000
0010
0100
0000
0100
,
1000
0000
1000
0100
0000
0010
0000
0000
,
0000
0000
0000
0001
0010
0100
0000
1000
,
0100
0000
0100
0010
0000
0001
0000
0000
,
0001
0000
0010
0000
0100
1000
0000
1000
,
0100
0000
0100
0010
0000
0001
0000
0000
,
0000
0000
0000
0001
0100
1000
0000
0100
,
0001
0000
1000
0100
0000
0010
0000
0000
,
1000
0100
0010
0001
0010
0100
1000
0010
,
0001
0010
1000
0100
0010
0001
0100
0001
,
2000
0000
0000
0000
0000
0000
3200
0000
0000
0000
0000
0320
0000
0000
0000
0000
,
0032
0000
0023
0000
,
0130
1000
0001
0010
0100
1000
0010
0100
,
0001
1000
0100
0010
0001
0020
2030
3200
,
0320
0000
0000
0230
,
1300
0100
0010
0001
1000
0100
0010
0001
,
0010
0000
0100
0000
1000
0100
0000
0100
,
0010
0000
0010
0001
0000
1000
0000
0000
,
0000
0000
0000
1000
0100
0010
0000
0001
,
0010
0000
0010
0100
0000
0001
0000
0000
,
1000
0000
0100
0000
0010
0100
0000
0100
,
1000
0000
1000
0100
0000
0010
0000
0000
,
0000
0000
0000
0001
0010
0100
0000
1000
,
0100
0000
0010
0001
0000
1000
0000
0000
,
1000
0000
0100
0000
0010
0001
0000
0010
,
0100
0000
1000
0100
0000
0010
0000
0000
,
0000
0000
0000
1000
0010
0001
0000
0001
,
0010
0000
0010
0100
0000
1000
0000
0000
,
1000
0000
0001
0000
0010
0100
0000
0100
,
1000
0000
1000
0100
0000
0001
0000
0000
,
0000
0000
0000
0001
0010
0100
0000
1000
,
0100
0000
0100
0010
0000
0001
0000
0000
,
1000
0100
0010
0001
1000
0010
0100
0001
,
1000
0010
0001
1000
0010
0002
0023
0230
,
2300
0000
0000
0000
0000
0000
3200
0000
0000
0000
0000
0320
0000
0000
0000
0000
,
0032
0000
0023
0000
,
0130
1000
0100
0010
0001
1000
0001
0010
,
0100
1000
0010
0100
0001
2000
3200
0320
,
0032
0000
0000
0000
0000
0000
0000
0023
,
0000
0000
0130
1000
0100
0010
0001
0010
,
0100
0000
0000
0000
;

//---------------dance-single - ----------------
#NOTES:
     dance-single:
     :
     Challenge:
     16:
     1.000,1.000,0.000,0.257,1.000,865.000,0.000,22.000,0.000,0.000:

1000
0100
0010
0001
1000
0100
0010
0001
1000
0010
0100
0001
1000
0010
0100
0001
,
1000
0010
0100
0001
0100
0010
1000
0001
1000
0100
0010
0001
1000
0100
1000
0010
0100
0001
0100
0010
1000
0001
1000
0100
,
0010
0001
1000
0100
1000
0001
0100
0001
1000
0010
0100
0001
1000
0001
0010
0100
1000
0100
0010
0001
1000
0100
0010
0100
,
1000
0001
0010
0001
1000
0001
0100
0010
0100
0001
1000
0010
0100
0001
1000
0001
0010
0100
1000
0001
0010
0001
1000
0001
,
0100
0010
1000
0010
0100
0001
1000
0100
1000
0010
0100
0010
1000
0001
0100
0001
1000
0100
0010
0001
1000
0010
0100
0010
,
1000
0001
0100
0001
0010
0100
1000
0001
0010
0001
1000
0100
0010
0001
1000
0001
0100
0010
0100
0001
1000
0001
0010
0100
,
1000
0100
0010
0001
1000
0100
1000
0010
0100
0001
0100
0010
1000
0001
1000
0100
0010
0001
0100
0001
0010
0100
1000
0001
,
0010
0100
0010
0001
1000
0010
1000
0100
0010
0001
1000
0100
1000
0010
0100
0001
0100
0010
1000
0001
1000
0100
0010
0001
,
1000
0100
1000
0010
0100
0010
1000
0001
0010
0001
0100
0010
1000
0010
0100
0001
1000
0100
1000
0001
0100
0010
0100
0001
,
1000
0100
1000
0010
0100
0001
0100
0010
1000
0001
1000
0100
0010
0001
1000
0100
,
1000
0010
0100
0001
1000
0001
0010
0100
1000
0001
0010
0001
0100
0010
1000
0010
,
0100
0001
1000
0100
1000
0010
0100
0010
1000
0001
0100
0001
0010
0100
1000
0001
,
0010
0001
0100
0010
1000
0010
0100
0001
1000
0100
1000
0001
0010
0001
0100
0010
,
1000
0010
0100
0001
1000
0010
1000
0100
0010
0001
1000
0100
1000
0001
0010
0001
,
0100
0010
1000
0010
0100
0010
1000
0001
0100
0001
0010
0100
1000
0001
1000
0010
,
0100
0001
0100
0010
1000
0001
1000
0100
0010
0001
1000
0100
1000
0010
0100
0010
,
1000
0100
1000
0001
0010
0001
1000
0001
0100
0010
0100
0001
0010
0100
0010
0001
,
1000
0010
1000
0100
0010
0001
1000
0100
1000
0001
0100
0010
0100
0001
1000
0010
,
1000
0001
0010
0100
1000
0001
1000
0100
0010
0001
1000
0100
1000
0001
0100
0010
,
0100
0001
1000
0100
1000
0010
0100
0001
1000
0001
0010
0100
1000
0001
0010
0001
,
0100
0010
1000
0010
0100
0001
1000
0100
1000
0010
0100
0010
1000
0001
0100
0001
,
0010
0100
1000
0001
0010
0001
0100
0010
1000
0010
0100
0001
1000
0010
1000
0100
,
0010
0001
1000
0100
1000
0001
0100
0010
0100
0001
1000
0010
1000
0001
0100
0010
,
0100
0001
1000
0100
0010
0001
1000
0100
1000
0001
0010
0001
0100
0010
1000
0010
,
0100
0001
1000
0100
1000
0010
0100
0010
1000
0001
0010
0001
0100
0010
0100
0001
,
1000
0010
1000
0100
0010
0001
1000
0100
1000
0001
0100
0010
0100
0001
1000
0100
,
1000
0001
0010
0100
0010
0001
1000
0010
1000
0001
0100
0010
2000
0000
3002
0000
,
0203
0000
0000
0320
0000
0000
2030
0000
,
0000
3002
0000
0000
0023
0000
0000
0000
,
0130
1000
0001
1000
0010
0100
0010
1000
0100
1000
0001
0010
0001
0100
0010
1000
,
0010
0100
0001
1000
0100
0010
0001
0010
0100
1000
0002
0000
0203
0000
0320
0000
,
0000
0000
0000
0000
0000
0000
0000
2030
,
0000
3001
0100
0010
0100
0001
1000
0010
,
0100
0001
1000
0100
0010
0001
1000
0010
0100
0001
1000
0010
0100
0001
1000
0100
,
1000
0010
0100
0001
1000
0001
0010
0100
1000
0001
0010
0001
0100
0010
1000
0010
,
0100
0001
1000
0100
1000
0010
0100
0010
1000
0001
0100
0001
0010
0100
1000
0001
,
0010
0001
0100
0010
1000
0010
0100
0001
1000
0100
1000
0001
0010
0001
0100
0010
,
1000
0010
0100
0001
1000
0010
1000
0100
0010
0001
1000
0100
1000
0001
0010
0001
,
0100
0001
1000
0010
0100
0010
1000
0001
0100
0001
0010
0100
1000
0001
1000
0010
,
0100
0001
0100
0010
1000
0001
1000
0100
0010
0001
1000
0100
1000
0010
0100
0010
,
1000
0100
1000
0001
0010
0001
1000
0001
0100
0010
0100
0001
0010
0100
0010
0001
,
1000
0010
1000
0100
0010
0001
1000
0100
1000
0001
0100
0010
0100
0001
1000
0010
,
1000
0001
0010
0100
1000
0001
1000
0100
0010
0001
1000
0100
1000
0001
0100
0010
,
0100
0001
1000
0100
1000
0010
0100
0001
1000
0001
0010
0100
1000
0001
0010
0001
,
0100
0010
1000
0010
0100
0001
1000
0100
1000
0010
0100
0010
1000
0001
0100
0001
,
0010
0100
1000
0001
0010
0001
0100
0010
1000
0010
0100
0001
1000
0010
1000
0100
,
0010
0001
1000
0100
1000
0001
0100
0010
0100
0001
1000
0010
1000
0001
0100
0010
,
0100
0001
1000
0100
0010
0001
1000
0100
1000
0001
0010
0001
0100
0010
1000
0010
,
0100
0001
1000
0100
1000
0010
0100
0010
1000
0001
0010
0001
0100
0010
0100
0001
,
1000
0010
1000
0100
0010
0001
1000
0100
1000
0001
0100
0010
0100
0001
1000
0100
,
1000
0001
0010
0100
0010
0001
1000
0010
0100
0001
0010
0100
2000
0000
3020
0000
,
2030
0000
0000
3020
0000
0000
0230
0000
,
0000
0302
0000
0000
2003
0000
0000
0000
,
3001
0100
0010
1000
0001
0010
0100
1000
0100
1000
0001
0010
0001
0100
0010
1000
,
0010
0100
0001
1000
0100
0010
0001
0010
0100
1000
0002
0000
0203
0000
0320
0000
,
0000
0000
0000
0000
0000
0000
0000
2030
,
0000
3001
0100
0010
0100
0001
0010
0100
,
1000
0000
0000
0000
;
