#TITLE:Take Two Copies;
#SUBTITLE:;
#ARTIST:Z-Trip feat. Busdriver;
#TITLETRANSLIT:;
#SUBTITLETRANSLIT:;
#ARTISTTRANSLIT:;
#CREDIT:Arch0wl;
#BANNER:taketwocopies-bn.png;
#BACKGROUND:taketwocopies-bg.png;
#LYRICSPATH:;
#CDTITLE:!Arch0wlTitle.png;
#MUSIC:taketwocopies.ogg;
#OFFSET:-0.199;
#SAMPLESTART:79.410;
#SAMPLELENGTH:15.285;
#SELECTABLE:YES;
#BPMS:0.000=127.000;
#STOPS:;
#BGCHANGES:0.000=taketwocopies-bg.png=1.000=0=0=1,
99999=-nosongbg-=1.000=0=0=0 // don't automatically add -songbackground-
;
// cache tags:
#FIRSTBEAT:8.000;
#LASTBEAT:552.000;
#SONGFILENAME:Songs/Archmage and Dark0wl Hammer of Thor UltraHyperMegaPack/Take Two Copies/taketwocopies.sm;
#HASMUSIC:1;
#HASBANNER:1;
#MUSICLENGTH:105.000;
// end cache tags

//---------------dance-single - Arch0wl----------------
#NOTES:
     dance-single:
     Arch0wl:
     Hard:
     11:
     1.000,1.000,1.000,0.019,1.000,1333.000,149.000,2.000,0.000,1.000:
0000
0000
0000
0000
,
0000
0000
0000
0000
,
1000
0000
1000
0000
0100
0000
0000
0010
0000
0010
0000
0010
0100
0000
1000
0100
,
0010
0000
0010
0000
0001
0000
0000
0100
0000
0100
0000
0100
0001
0000
0010
0001
,
0100
0000
0100
0000
0010
0000
0000
1000
0000
1000
0000
1000
0010
0000
0100
0010
,
1000
0000
1000
0000
0001
0000
0000
0100
0000
0100
0000
0100
0001
0000
0010
0001
,
0100
0000
0100
0000
0010
0000
0000
1000
0000
1000
0000
1000
0010
0000
0100
0010
,
1000
0000
1000
0000
0100
0000
0000
0010
0000
0010
0000
0010
0100
0000
1000
0010
,
0100
0000
0100
0000
0001
0000
0000
0010
0000
0010
0000
0010
0001
0000
0100
0010
,
1000
0000
1000
0000
0010
0000
0000
0100
0000
0100
0000
0100
0010
0000
1000
0100
,
0010
0000
0010
0000
0001
0100
0001
0010
0001
1000
0010
0100
0001
0010
0100
1000
,
0001
0000
0001
0000
1000
0010
1000
0100
1000
0010
0100
0001
1000
0100
0010
0001
,
0100
0000
0100
0000
0010
0100
0001
1000
0100
0000
0100
0000
1000
0010
0100
0001
,
0010
0000
0010
0000
0100
1000
0100
0010
0001
1000
0010
0100
0001
0010
0100
1000
,
0001
0000
0001
0000
0100
0010
0100
0001
1000
0100
0010
0001
0100
0010
1000
0100
,
0010
0000
0010
0000
0001
0100
0001
0010
0100
1000
0001
0100
0010
1000
0100
0010
,
0001
0000
0001
0000
1000
0010
0100
0001
0010
0000
0010
0000
0001
0010
0100
1000
,
0010
0000
0000
0000
0000
0000
0100
0100
0100
0000
0000
0000
0000
0000
0000
0001
,
0100
0010
0100
0001
0010
0100
0010
0000
0100
1000
0010
0100
0000
0100
0010
1000
,
0100
0000
0100
1000
0001
0000
0001
0000
0000
0100
0010
1000
0010
1000
0100
0010
,
0100
0010
0001
0010
0001
0010
0100
0000
1000
0100
0010
0000
0010
0100
0010
0100
,
0000
0000
1000
0000
0000
1000
0100
0000
0010
0000
0100
0000
0010
0000
0001
0000
0100
0000
0001
0000
0100
0000
0010
0000
0100
0000
0010
0000
1000
0000
0010
0000
,
1000
0100
0000
1000
1100
0000
0011
0000
0110
0000
0000
0000
0000
0000
0100
1000
,
0010
0000
0000
0000
0000
0000
0000
0000
0000
0000
0000
0000
0000
0000
0000
0000
0010
0000
0000
0000
0000
0000
0000
0000
0000
0000
0000
0000
0000
0000
0000
0000
0000
0000
0000
0000
0100
0000
0000
0000
0000
0000
0000
0000
0000
0000
0000
0000
0010
0000
0000
0000
0000
0000
0000
0000
0000
0000
0000
0000
0000
0000
0000
0000
0010
0000
0000
0000
0000
0000
0000
0000
0000
0000
0000
0000
0000
0000
0000
0000
0000
0000
0000
0000
1000
0000
0000
0000
0000
0000
0100
0000
0000
0000
0000
0000
0010
0000
0000
0000
0000
0000
0000
0000
0000
0000
0000
0000
0100
0000
0000
0000
0000
0000
0000
0000
0000
0000
0000
0000
1000
0000
0000
0000
0000
0000
0000
0000
0000
0000
0000
0000
0100
0000
0000
0000
0000
0000
0000
0000
0000
0000
0000
0000
0010
0000
0000
0000
0000
0000
0000
0000
0000
0000
0000
0000
0000
0000
0000
0000
0010
0000
0000
0000
0000
0000
0000
0000
0000
0000
0000
0000
0000
0000
0000
0000
0010
0000
0000
0000
0000
0000
0000
0000
0001
0000
0000
0000
0000
0000
0000
0000
,
0100
0010
1000
0000
1010
0000
0101
0000
0001
0010
0100
1000
0000
1000
0010
0000
,
0001
0010
0000
1000
0010
0100
0001
0000
0010
0001
1000
0000
1010
0000
0100
0001
,
0000
0000
1000
0010
0000
0000
0000
0000
1001
0000
0000
0000
0000
0000
0000
0000
0000
0000
0001
0000
0010
0000
0000
0000
0100
0000
0010
0000
0000
0000
0001
0000
,
0010
0000
0000
0000
0000
0000
0000
0000
0000
0000
0000
0000
0000
0000
0000
0000
0000
0000
0000
0000
0000
0000
0000
0000
0100
0000
0000
0000
0000
0000
0000
0000
0000
0000
0000
0000
0010
0000
0000
0000
0000
0000
0000
0000
0000
0000
0000
0000
0000
0000
0000
0000
0000
0000
0000
0000
0000
0000
0000
0000
0001
0000
0000
0000
0000
0000
0010
0000
0000
0000
0000
0000
0100
0000
0000
0000
0000
0000
0000
0000
0000
0000
0000
0000
0000
0000
0000
0000
0000
0000
0000
0000
0000
0000
0000
0000
1000
0000
0000
0000
0000
0000
0000
0000
0010
0000
0000
0000
0000
0000
0000
0000
0100
0000
0000
0000
0000
0000
0000
0000
0010
0000
0000
0000
0000
0000
0000
0000
0000
0000
0000
0000
0000
0000
0000
0000
0100
0000
0000
0000
0000
0000
0000
0000
0001
0000
0000
0000
0000
0000
0000
0000
0000
0000
0000
0000
0000
0000
0000
0000
0001
0000
0000
0000
0000
0000
0000
0000
0000
0000
0000
0000
0000
0000
0000
0000
0001
0000
0000
0000
0000
0000
0000
0000
0000
0000
0000
0000
0000
0000
0000
0000
,
1100
0000
0000
0000
0000
1000
0100
0010
0001
1000
0100
0000
0010
0100
1000
0001
,
0000
0000
0000
0000
0000
0000
0100
0000
0000
0010
0000
0000
1000
0000
0000
0000
1000
0000
0000
0000
1000
0000
0000
0000
0110
0000
0000
0000
0000
0000
0100
0000
0000
0001
0000
0000
1000
0000
0000
0000
0000
0000
0100
0000
0000
0010
0000
0000
,
0100
1000
0100
0010
0001
1000
0010
0100
0001
0010
0000
0100
0010
0001
1000
0010
,
1000
0000
0100
0000
0010
0000
0100
0000
1000
0000
0001
0000
0100
0000
0000
0000
0100
0000
0010
0000
1000
0000
0000
1000
0000
0000
1000
0000
0100
0000
0010
0000
,
0001
0000
0010
0000
0000
0000
1000
0000
0010
0000
0000
0000
0001
0000
0010
0000
0100
0000
0000
0010
1000
0000
0000
0000
0010
0000
0001
0000
0100
0000
0110
0000
,
0110
0000
0000
0000
1010
0000
0000
0000
0000
0000
0000
0000
0000
0000
0000
0000
0000
0000
0000
0000
0000
0000
0000
0000
0000
0000
0000
1000
0000
0000
0100
0000
0000
1000
0000
0000
0001
0000
0000
0000
0000
0000
0100
0000
0000
0001
0000
0000
,
0010
0100
0010
0001
0000
0001
0100
0010
1000
0000
1000
0010
0000
0100
0001
1000
,
1010
0000
1010
0000
0110
0000
0110
0000
0000
0000
0000
1000
0100
0000
0001
0000
0100
0000
1000
0000
0100
0000
0001
0000
0100
0000
1000
0000
0100
0000
0001
0000
,
1100
1100
1010
1010
0110
0110
0000
0100
0001
0010
0001
0100
0010
1000
0100
0000
,
0100
0000
0000
0000
0000
0000
0000
0000
0000
0000
0000
0000
1000
0000
0000
0000
0000
0000
0000
0000
0000
0000
0000
0000
0001
0000
0000
0000
0000
0000
0000
0000
0000
0000
0000
0000
0000
0000
0000
0000
0000
0000
0000
0000
0000
0000
0000
0000
0000
0000
0000
0000
0000
0000
0000
0000
0000
0000
0000
0000
0100
0000
0000
0000
0000
0000
0000
0000
0000
0000
0000
0000
0000
0000
0000
0000
0000
0000
0000
0000
0000
0000
0000
0000
0100
0000
0000
0000
0000
0000
0010
0000
0000
0000
0000
0000
0100
0000
0000
0000
0000
0000
0000
0000
0000
0000
0000
0000
0000
0000
0000
0000
0010
0000
0000
0000
0000
0000
0000
0000
0000
0000
0000
0000
0000
0000
0000
0000
1000
0000
0000
0000
0000
0000
0000
0000
0100
0000
0000
0000
0000
0000
0000
0000
0000
0000
0000
0000
0000
0000
0000
0000
1000
0000
0000
0000
0000
0000
0000
0000
0000
0000
0000
0000
0000
0000
0000
0000
0010
0000
0000
0000
0000
0000
0000
0000
0000
0000
0000
0000
1000
0000
0000
0000
0000
0000
0000
0000
0000
0000
0000
0000
,
0010
0100
0010
0001
0010
1000
0010
0100
0010
0001
0010
1000
0100
1000
0010
0000
,
1000
0100
0010
0000
0001
0100
0010
1000
0010
0100
0001
0010
0100
0000
1000
0100
,
0010
0100
1000
0001
0100
0000
0100
0001
0010
0100
0000
1000
0001
0010
0100
0000
,
1000
0010
0100
0001
0010
0100
1000
0010
0100
0001
0010
0100
1000
0010
0100
0000
,
0110
0000
0100
0010
1010
0011
1010
0000
,
1000
0000
0000
0000
0000
0000
1100
0000
0000
0000
0000
0000
0000
0000
0000
0000
0000
0000
1100
0000
0000
0000
0000
0000
0010
0001
0000
0000
0000
0000
0000
0000
0000
0000
0000
0000
0110
0000
0000
0000
0000
0000
0000
0000
0000
0000
0000
0000
,
1000
0100
0010
0000
0110
0000
1000
0100
0010
0000
1010
0000
0011
0000
0001
0100
,
1000
0000
1000
0100
0110
0000
0011
0000
1100
0000
0100
0001
0000
0100
1000
0000
,
0100
0001
0000
0100
1000
0000
0100
0001
0000
0001
0000
0000
0000
0100
0010
0000
,
1000
0100
1000
0010
0100
0001
0010
0000
0011
0000
1100
0000
0000
0100
0010
0100
,
1000
0010
0001
0010
1000
0100
0010
0001
0101
0000
0011
0000
0000
0001
0010
0100
,
1000
0010
0001
0010
1000
0100
0001
0100
1000
0010
0001
0010
2020
0000
3131
0000
,
0000
0000
0000
0000
0000
1000
0010
0000
1000
0010
0100
0000
0000
0000
0001
0010
,
0100
0000
0000
1000
0000
0000
0001
0000
0000
0100
0000
0000
0010
0000
0000
1000
0000
0000
0001
0000
0000
0010
0000
0000
0100
0000
0000
1000
0000
0000
0100
0000
0000
0000
0000
0000
1000
0000
0100
0000
0010
0000
0001
0000
0000
0000
0000
0000
,
0100
0000
0001
0000
1000
0100
0000
0000
0000
1000
0000
0000
0000
0000
0000
1000
0000
0000
0010
0000
0000
0100
0000
0000
0010
0000
0000
1000
0000
0000
0100
0000
0000
0000
0000
0000
0000
0000
0000
0000
0000
0000
1000
0000
0000
0010
0000
0000
,
0100
0001
0010
0100
0000
0100
0000
1000
0100
0010
0001
0100
0000
0100
0000
0000
,
0000
0000
0010
0000
1000
0000
0100
0010
0100
1000
0000
1000
0000
1000
0010
0000
,
0000
0100
0010
0000
0010
0000
0100
0010
1000
1000
0000
1000
0000
1000
0001
0000
,
0000
0000
0000
0000
0000
0000
0000
0000
0000
0000
0000
0000
0010
0000
0000
0000
0000
0000
0000
0000
0000
0000
0000
0000
0100
0000
0000
0000
0000
0000
0000
0000
0000
0000
0000
0000
0010
0000
0000
0000
0000
0000
0000
0000
0000
0000
0000
0000
0001
0000
0000
0000
0000
0000
0000
0000
0000
0000
0000
0000
0100
0000
0000
0000
0000
0000
0000
0000
0000
0000
0000
0000
0001
0000
0000
0000
0000
0000
0000
0000
0000
0000
0000
0000
1000
0000
0000
0000
0000
0000
0000
0000
0000
0000
0000
0000
0010
0000
0000
0000
0000
0000
0000
0000
0000
0000
0000
0000
0000
0000
0000
0000
0000
0000
0000
0000
0000
0000
0000
0000
0100
0000
0000
0000
0000
0000
0000
0000
0000
0000
0000
0000
0001
0000
0000
0000
0000
0000
0000
0000
0000
0000
0000
0000
0010
0000
0000
0000
0000
0000
0000
0000
0000
0000
0000
0000
0100
0000
0000
0000
0000
0000
0010
0000
0000
0000
0000
0000
0001
0000
0000
0000
0000
0000
0000
0000
0000
0000
0000
0000
0000
0000
0000
0000
0100
0000
0000
0000
0000
0000
0000
0000
,
0000
0000
0000
0000
0010
0000
0000
0000
0000
0000
0000
0000
0000
0000
0000
0000
0000
0000
0000
0000
0000
0000
0000
0000
0100
0000
0000
0000
0000
0000
0000
0000
0000
0000
0000
0000
0000
0000
0000
0000
0000
0000
0000
0000
0000
0000
0000
0000
0100
0000
0000
0000
0000
0000
0000
0000
0000
0000
0000
0000
0010
0000
0000
0000
0000
0000
0000
0000
0000
0000
0000
0000
0000
0000
0000
0000
0000
0000
0000
0000
0000
0000
0000
0000
0000
0000
0000
0000
0000
0000
0000
0000
0000
0000
0000
0000
0000
0000
0000
0000
0000
0000
0100
0000
0000
0000
0000
0000
0000
0000
0000
0000
0000
0000
0000
0000
0000
0000
0000
0000
0000
0000
0000
0000
0000
0000
0000
0000
0000
0000
0000
0000
0100
0000
0000
0000
0000
0000
0000
0000
0000
0000
0000
0000
0100
0000
0000
0000
0000
0000
0000
0000
0000
0000
0000
0000
0000
0000
0000
0000
0000
0000
0000
0000
0000
0000
0000
0000
0100
0000
0000
0000
0000
0000
0000
0000
0000
0000
0000
0000
0000
0000
0000
0000
0000
0000
0000
0000
0000
0000
0000
0000
,
1001
0000
0000
0000
,
1000
1000
0000
0000
0000
0001
0001
0010
,
0100
0100
0000
0000
0000
0000
0000
0000
,
0010
0010
0000
0000
0000
0100
0100
0010
,
0001
0001
0000
0000
0000
0000
0000
0000
,
1000
1000
0000
0000
0000
0010
0010
0100
,
0001
0001
0000
0000
0000
0000
0000
0000
,
1000
0000
1000
0000
0000
0000
0000
0000
0000
0000
0000
0000
0000
0000
0000
0001
,
0100
0000
0000
0010
0000
0000
0100
0000
0000
0001
0000
0000
1000
0000
0000
0100
0000
0000
0010
0000
0000
0000
0000
0000
0100
0000
0000
0010
0000
0000
0001
0000
0000
1000
0000
0000
0000
0000
0000
0000
0100
0000
0010
0000
0000
0000
0000
0000
,
0100
0000
0000
0000
0000
0000
1000
0000
0000
0000
0100
0000
0000
0000
0000
1000
0000
0000
1100
0000
0000
0000
0000
0000
0000
0000
0011
0000
0000
0000
0000
0000
0000
0000
0000
0000
0000
0000
0000
0000
0000
0000
0100
0000
0000
0001
0000
0000
,
1000
0000
1000
0001
0100
0000
0100
0010
0000
0100
0010
0000
1000
0010
0100
0001
,
0000
0000
0000
0001
0000
0000
0000
0000
0000
0001
0000
0000
0010
0000
0100
0000
0010
0000
0001
0000
0000
0100
0000
0000
0000
0000
0000
0100
0000
0000
0000
0000
0100
0000
0000
0000
0000
0000
0000
0000
0000
0000
0010
0000
0000
0000
0000
0000
,
0001
0010
1000
0000
1010
0000
0000
0100
0000
1000
0001
0000
0100
0010
1000
0000
,
0100
0000
0000
0000
0000
0000
0010
0000
0000
1000
0000
0000
0000
0000
0000
0010
0000
0000
0001
0000
0000
0000
0000
0000
0100
0000
0000
0000
0000
0000
0100
0000
0001
0000
1000
0000
0000
0000
0000
0010
0000
0000
0100
0000
0000
0001
0000
0000
,
1000
0000
1000
0010
0000
0000
0000
0100
0010
1000
0010
0001
0000
0001
0000
0000
,
0001
0010
1000
0100
0110
0000
1100
0000
0110
0000
0000
0000
0010
0001
1000
0000
,
0101
0000
0100
0010
0000
0100
0010
1000
0100
0000
0100
0000
0010
0000
0001
0100
,
0001
1000
0001
0010
0000
0010
0100
0000
0100
0000
1000
0010
0001
0000
0001
0000
,
0000
0000
0000
0000
0000
0000
0010
0000
0000
0000
0000
0000
0010
0000
0000
0000
0000
0000
0010
0000
0000
1000
0000
0000
0100
0000
0000
0001
0000
0000
0100
0000
0000
0000
0000
0000
0000
0000
0000
1000
0000
0000
0000
0000
1000
0000
0010
0000
,
0100
0000
0110
0000
0101
0000
0100
0001
0010
0000
0100
0000
1000
0010
0000
0010
,
0100
1000
0100
0000
0000
0000
0100
0000
0101
0000
0110
0000
1100
0000
0000
0000
,
0110
0000
0000
0000
1001
0000
0000
0110
0000
0000
1001
0000
0000
0000
0110
0000
,
1000
1100
0000
1000
0000
0100
0110
0000
1100
0000
1000
1100
0000
1000
0100
0010
,
0110
0000
1100
0000
1000
1100
0000
0100
1100
0000
0110
0000
0010
0011
0000
0001
,
0011
0000
1001
0010
0100
0001
0000
0100
0101
0000
1001
0000
1000
0010
1000
0100
,
0110
0000
0011
0000
0000
0000
0001
0100
0010
0001
0011
0000
1010
0000
1000
0000
,
0100
0000
0000
0000
0000
0000
0000
0000
0000
0000
0000
0000
0010
0000
0000
0000
0000
0000
0000
0000
0000
0000
0000
0000
0000
0000
0000
0000
0000
0000
0000
0000
0000
0000
0000
0000
0010
0000
0000
0000
0000
0000
0000
0000
0000
0000
0000
0000
0000
0000
0000
0000
0000
0000
0000
0000
0000
0000
0000
0000
0000
0000
0000
0000
0000
0000
1000
0000
0000
0000
0000
0000
0010
0000
0000
0000
0000
0000
0000
0000
0000
0000
0000
0000
0001
0000
0000
0000
0000
0000
0000
0000
0000
0000
0000
0000
0100
0000
0000
0000
0000
0000
0000
0000
0000
0000
0000
0000
0010
0000
0000
0000
0000
0000
0000
0000
0000
0000
0000
0000
0100
0000
0000
0000
0000
0000
0000
0000
0000
0000
0000
0000
0001
0000
0000
0000
0000
0000
0000
0000
0000
0000
0000
0000
1001
0000
0000
0000
0000
0000
0000
0000
0000
0000
0000
0000
0000
0000
0000
0000
1001
0000
0000
0000
0000
0000
0000
0000
0000
0000
0000
0000
0000
0000
0000
0000
1100
0000
0000
0000
0000
0000
0000
0000
0000
0000
0000
0000
0000
0000
0000
0000
,
0000
0000
0000
0000
1000
0100
0010
0000
0100
0010
0001
0000
0010
0001
0000
1000
,
1100
0000
1010
0000
0100
0001
0010
0000
0100
1000
0010
0000
0000
0000
1000
0001
,
0101
0000
1001
0000
0001
0100
0001
0010
0100
0000
0100
0000
1000
0100
0010
0000
,
0000
0000
0001
1000
0001
0010
0100
0010
0001
0100
0110
0000
1010
0000
1000
0100
,
0000
0100
0000
0011
0000
0100
0000
1000
0100
0010
0011
0000
1100
0000
0000
1000
,
0010
0100
0010
1000
0010
0100
0101
0000
0011
0000
1001
0000
0000
0000
0000
1000
,
0010
0100
0001
0010
0100
0000
0100
0010
0001
0100
0010
1000
0100
1000
0000
0100
,
0000
0000
0000
0000
1000
0000
0010
0000
0000
1000
0000
0000
0010
0000
0000
0100
0000
0000
0010
0000
0000
0001
0000
0000
0010
0000
0000
1000
0000
0000
0100
0000
0000
0000
0000
0000
1100
0000
0000
0000
0000
0000
0100
0000
0000
0010
0000
0000
,
0001
0010
0100
0010
1000
0000
1000
0010
0100
0010
0001
0000
0001
1000
0010
0100
,
0010
1000
1100
0000
0110
0000
1100
0000
0110
0000
1100
0000
0100
0010
0001
0000
,
0000
0100
0001
0001
1000
1000
0010
0100
0001
0001
0010
0100
0000
1000
0010
0100
,
0010
0001
0010
0100
0001
1000
0001
0010
0001
1000
0010
0000
1000
0000
0010
0100
,
1000
0000
0000
0000
0100
0000
0001
0000
0100
0000
0010
1000
0000
1000
0100
0010
,
0001
0010
0000
0010
0000
0100
1000
0100
0010
0000
0000
0010
0000
0001
1000
0000
,
0100
0010
0000
0110
0000
0000
0000
0001
0010
0000
0000
0110
0000
0000
0100
1000
,
0100
0000
0100
0000
1000
0001
0100
0000
0110
0000
0000
1000
0000
1000
0001
0100
,
0010
1000
0100
0010
0000
0000
0000
0000
0011
0000
1100
0000
0000
0000
1000
0100
,
0011
0000
0011
0000
,
0011
0100
1000
0010
1000
0100
1000
0000
,
0000
0000
0001
0010
0001
0100
0001
0000
,
0000
0000
0001
0100
0010
1000
0001
0100
,
1010
0000
0100
1010
0000
1010
0000
0000
,
1100
0000
0000
1100
0000
0000
1100
0000
0011
0000
0000
0000
0001
0000
1000
0000
,
0000
0000
1000
0010
0000
0000
0010
0100
,
0000
0000
0100
0001
0000
0000
0001
1000
,
0000
0110
0000
0000
0000
0000
0001
0000
0000
0000
1000
0000
0000
0000
0000
1000
0000
0000
0000
0000
0000
0000
0000
0000
,
1100
0000
0000
1100
0000
0000
1100
0000
0011
0000
0000
0000
0001
0000
0100
0000
,
1010
0000
0000
0000
1010
0000
0000
0000
0110
0000
0000
0110
0000
0000
1001
0000
,
0000
0100
0010
1001
0000
0000
0010
0100
,
0010
0000
0010
0000
1000
0010
1000
0100
1000
0001
0100
0010
1000
0100
0010
0001
,
1000
0000
1000
0000
0001
0100
0001
0010
0001
0100
0010
1000
0001
0010
0100
1000
,
0010
0000
0010
0000
0100
0010
1000
0001
0010
0000
0010
0000
0001
0100
0010
1000
,
0100
0000
0100
0000
0010
0001
0010
0100
1000
0001
0100
0010
1000
0100
0010
0001
,
1000
0000
1000
0000
0010
0100
0010
1000
0001
0010
0100
1000
0010
0100
0001
0010
,
0100
0000
0100
0000
1000
0010
1000
0100
0010
0001
1000
0010
0100
0001
0010
0100
,
1000
0000
1000
0000
0001
0100
0010
1000
0100
0000
0100
0000
1000
0100
0010
0001
,
0100
0000
0100
0000
0001
0100
0001
0010
0100
1000
0001
0100
0010
1000
0100
0010
,
0011
0000
1100
0000
,
1010
0000
0000
1010
0000
0000
1010
0000
0110
0000
0000
0000
0000
0000
0000
0000
,
0110
0000
0000
0110
0000
0000
0110
0000
1001
0000
0000
0000
0000
0000
0000
0000
,
0110
0000
0000
0110
0000
0000
0110
0000
0000
0000
0000
0000
0000
0000
0000
0000
,
1010
0000
0000
1010
0000
0000
0100
0000
1010
0000
0100
0000
1010
0000
0100
0000
,
0101
0000
0000
0101
0000
0000
0100
0000
0101
0000
0001
0010
0100
0010
0000
0010
,
0110
0000
0000
0110
0000
0000
0110
0000
1100
0000
0100
0000
0100
0000
0000
0100
,
1000
0100
0010
0100
1000
0100
0010
0100
1000
0100
0010
0100
1000
0100
0010
0100
,
1000
1000
0001
0010
1000
0010
0100
0001
,
0100
0100
1000
0001
0100
0010
0010
0010
,
1000
1000
0010
0001
0010
0100
1000
0100
,
0001
0001
1000
0010
0001
0010
0010
0010
,
1000
1000
0100
0001
0100
0010
0001
0100
,
1000
1000
0100
0010
0001
0010
0010
0010
,
1000
1000
0100
0001
0100
0010
0001
0100
,
0010
0010
0100
1000
0001
0010
0010
0010
,
1001
0000
0000
0000
;
