#TITLE:Good Time;
#SUBTITLE:Sexuality Violation;
#ARTIST:Owl City and Carly Rae Jepsen;
#TITLETRANSLIT:;
#SUBTITLETRANSLIT:;
#ARTISTTRANSLIT:;
#CREDIT:;
#BANNER:Good Time-bn.png;
#BACKGROUND:Good Time-bg.png;
#LYRICSPATH:;
#CDTITLE:GazeboCD.png;
#MUSIC:Good Time.ogg;
#OFFSET:-0.206;
#SAMPLESTART:61.166;
#SAMPLELENGTH:18.599;
#SELECTABLE:YES;
#BPMS:0.000=126.000;
#STOPS:;
#BGCHANGES:;
// cache tags:
#FIRSTBEAT:3.500;
#LASTBEAT:400.000;
#SONGFILENAME:Songs/Sexuality Violation 2/Good Time - [Gazebo]/Good Time.sm;
#HASMUSIC:1;
#HASBANNER:1;
#MUSICLENGTH:207.046;
// end cache tags

//---------------dance-single - Gazebo----------------
#NOTES:
     dance-single:
     Gazebo:
     Challenge:
     14:
     1.000,1.000,0.241,0.116,1.000,1469.000,50.000,24.000,8.000,2.000:
0000
0000
0000
0000
0000
0000
0000
0002
,
0000
2003
0000
3020
0000
0000
0030
0000
,
0000
2000
3020
2030
3020
0000
0230
0000
,
0301
0001
0001
1000
1100
0000
0001
1000
,
0000
0002
0023
0032
0023
0000
0230
0000
,
1300
0000
1000
0000
1000
0000
0001
0000
0101
0000
0000
1000
0000
0000
0001
0000
,
0040
0034
0403
0340
4030
3400
0340
0000
,
0030
0000
0000
0000
0000
0000
0000
0000
0001
0000
0000
0000
0000
0010
0000
0000
0000
0000
0000
0000
0000
0001
0000
0000
1000
0000
0000
0000
0000
0001
0000
0000
1000
0000
0000
0000
0000
0000
0000
0000
0010
0000
0000
0000
0000
0000
0000
0000
0101
0000
0000
0000
0000
0000
0000
0000
1000
0000
0000
0000
0000
0000
0000
0000
,
0001
0000
0011
0000
0010
0000
1100
1000
,
0001
0000
1001
0000
1000
0010
0101
0000
,
1000
0000
1100
0000
0010
0000
1001
0001
,
0100
0000
0101
1000
0100
0010
1001
0000
,
0001
0000
1010
0000
0010
0000
1001
1000
,
0100
0000
1100
0001
0100
0000
1010
1000
,
0200
0320
0000
0032
0000
0000
0003
1000
,
0010
0010
1010
1000
0001
0000
1000
0100
,
0010
0001
0101
0100
0001
1000
1010
0001
,
0010
0100
0110
1000
0001
0100
1010
0000
,
1000
0001
0011
0010
0001
1000
1100
0001
,
0100
0010
0110
1000
0001
0010
1001
0000
,
1000
0100
0011
0001
1000
0010
0101
1000
,
0100
0010
0011
0001
0100
0000
1010
0001
,
0400
0304
0043
0430
4300
3040
0430
0301
,
1000
1000
1000
0100
0011
0000
1000
0010
,
1000
0001
0100
0001
1000
0001
0010
0100
0010
0001
0100
0001
1000
0010
1000
0100
,
0010
0001
0010
0100
0010
0001
1000
0010
0100
0001
0100
0010
0100
0001
1000
0001
,
1000
0100
1000
0001
0010
0001
1000
0010
0100
0010
1000
0001
0010
0100
1000
0010
,
0100
0010
1000
0010
0100
0001
1000
0100
0010
0100
1000
0001
0100
0001
0010
0001
,
1000
0010
1000
0001
1000
0010
0100
0001
0100
0010
1000
0001
0010
0100
1000
0010
,
1000
0001
1000
0010
1000
0001
0010
0100
0010
0001
0010
0100
1000
0001
0100
0001
,
1000
1000
0010
0010
0100
0100
0001
0001
,
1000
0000
0000
0000
0000
0010
0000
0000
1000
0000
0000
0000
0000
0001
0000
0000
1000
0000
0000
0000
0000
0100
0000
0000
0010
0000
0000
0000
0000
0001
0000
0000
0200
0000
0000
0000
0000
0000
0000
0000
0000
0000
0000
0000
0000
0000
0000
0000
1301
0000
0000
0000
0000
0000
0000
0000
0000
0000
0000
0000
0000
0000
0000
0000
,
0001
0100
0001
0010
0100
1000
0001
0100
0001
0010
0100
1000
0001
0100
0001
0100
0010
1000
0001
0010
0001
0010
0100
1000
,
0001
0100
0001
1000
0001
1000
0100
0010
0001
0010
0100
1000
0001
0100
0001
1000
0001
1000
0010
1000
0001
0100
0001
1000
,
0001
0010
0100
1000
0010
1000
0001
0010
0100
1000
0010
1000
0001
0010
0001
0010
0100
1000
0001
0100
0001
0100
0010
1000
,
0001
0100
0001
1000
0010
1000
0001
0100
0001
1000
0100
0010
0001
1000
0010
1000
0001
1000
0100
0010
0001
0010
0100
1000
,
0001
0010
0001
0100
0010
1000
0001
0010
0001
0100
0010
1000
0001
0010
0001
0010
0100
1000
0001
0100
0001
0100
0010
1000
,
0001
0010
0001
1000
0001
1000
0010
0100
0001
0100
0010
1000
0001
0010
0001
1000
0001
1000
0100
1000
0001
0010
0001
1000
,
0001
0100
0001
1000
0010
1000
0001
0010
0001
1000
0100
1000
0001
0010
0100
1000
0010
1000
0001
0100
0001
1000
0001
1000
,
0010
0100
0010
1000
0001
0100
0001
1000
0010
1000
0001
1000
0100
0010
0001
1000
0001
1000
0010
1000
0001
0100
0001
1000
,
0001
0010
0001
1000
0001
0100
0010
1000
0001
0010
0001
1000
0001
0100
0010
1000
,
0001
0010
0100
0010
0100
1000
0001
0000
0000
0000
0001
0000
1100
0000
1000
0000
,
0001
0200
0320
0230
0320
0000
2030
0000
,
3010
1000
0001
0010
MMMM
0001
0100
0010
,
1000
0001
0101
0100
0001
1000
1010
0001
,
0010
0100
0110
1000
0001
0100
1010
0000
,
1000
0001
0011
0010
0001
1000
1100
0001
,
0100
0010
0110
1000
0001
0010
1001
0000
,
1000
0100
0011
0001
1000
0010
0101
1000
,
0100
0010
0011
0001
0100
0000
1010
0001
,
0400
0304
0043
0430
4300
3040
0430
0301
,
1000
1000
1000
0100
0011
0000
1000
0010
,
1000
0001
0100
0001
1000
0001
0010
0100
0010
0001
0100
0001
1000
0010
1000
0100
,
0010
0001
0010
0100
0010
0001
1000
0010
0100
0001
0100
0010
0100
0001
1000
0001
,
1000
0100
1000
0001
0010
0001
1000
0010
0100
0010
1000
0001
0010
0100
1000
0010
,
0100
0010
1000
0010
0100
0001
1000
0100
0010
0100
1000
0001
0100
0001
0010
0001
,
1000
0010
1000
0001
1000
0010
0100
0001
0100
0010
1000
0001
0010
0100
1000
0010
,
1000
0001
1000
0010
1000
0001
0010
0100
0010
0001
0010
0100
1000
0001
0100
0001
,
1000
1000
0010
0010
0100
0100
0001
0001
,
1000
0000
0000
0000
0000
0010
0000
0000
1000
0000
0000
0000
0000
0001
0000
0000
1000
0000
0000
0000
0000
0100
0000
0000
0010
0000
0000
0000
0000
0001
0000
0000
0200
0000
0000
0000
0000
0000
0000
0000
0000
0000
0000
0000
0000
0000
0000
0000
1301
0000
0000
0000
0000
0000
0000
0000
0000
0000
0000
0000
0000
0000
0000
0000
,
0001
0100
0001
0010
0100
1000
0001
0100
0001
0010
0100
1000
0001
0100
0001
0100
0010
1000
0001
0010
0001
0010
0100
1000
,
0001
0100
0001
1000
0001
1000
0100
0010
0001
0010
0100
1000
0001
0100
0001
1000
0001
1000
0010
1000
0001
0100
0001
1000
,
0001
0010
0100
1000
0010
1000
0001
0010
0100
1000
0010
1000
0001
0010
0001
0010
0100
1000
0001
0100
0001
0100
0010
1000
,
0001
0100
0001
1000
0010
1000
0001
0100
0001
1000
0100
0010
0001
1000
0010
1000
0001
1000
0100
0010
0001
0010
0100
1000
,
0001
0010
0001
0100
0010
1000
0001
0010
0001
0100
0010
1000
0001
0010
0001
0010
0100
1000
0001
0100
0001
0100
0010
1000
,
0001
0010
0001
1000
0001
1000
0010
0100
0001
0100
0010
1000
0001
0010
0001
1000
0001
1000
0100
1000
0001
0010
0001
1000
,
0001
0100
0001
1000
0010
1000
0001
0010
0001
1000
0100
1000
0001
0010
0100
1000
0010
1000
0001
0100
0001
1000
0001
1000
,
0010
0100
0010
1000
0001
0100
0001
1000
0010
1000
0001
1000
0100
0010
0001
1000
0001
1000
0010
1000
0001
0100
0001
1000
,
0001
0100
0001
0010
0100
1000
0001
0100
0001
0010
0100
1000
0001
0100
0001
0100
0010
1000
0001
0010
0001
0010
0100
1000
,
0001
0100
0001
1000
0001
1000
0100
0010
0001
0010
0100
1000
0001
0100
0001
1000
0001
1000
0010
1000
0001
0100
0001
1000
,
0001
0010
0100
1000
0010
1000
0001
0010
0100
1000
0010
1000
0001
0010
0001
0010
0100
1000
0001
0100
0001
0100
0010
1000
,
0001
0100
0001
1000
0010
1000
0001
0100
0001
1000
0100
0010
0001
1000
0010
1000
0001
1000
0100
0010
0001
0010
0100
1000
,
0001
0010
0001
0100
0010
1000
0001
0010
0001
0100
0010
1000
0001
0010
0001
0010
0100
1000
0001
0100
0001
0100
0010
1000
,
0001
0010
0001
1000
0001
1000
0010
0100
0001
0100
0010
1000
0001
0010
0001
1000
0001
1000
0100
1000
0001
0010
0001
1000
,
0001
0100
0001
1000
0010
1000
0001
0010
0001
1000
0100
1000
0001
0010
0100
1000
0010
1000
0001
0100
0001
1000
0001
1000
,
0010
0100
0010
1000
0001
0100
0001
1000
0010
1000
0001
1000
0100
0010
0001
1000
0001
1000
0010
1000
0001
0100
0001
1000
,
0001
0010
0001
1000
0010
0000
0000
0000
,
1000
0000
1000
0000
1000
0000
0001
0000
0011
0000
0000
1000
0000
0000
0010
0000
,
0100
0001
0100
0010
1000
0000
0000
0000
,
0001
0000
0001
0000
0001
0000
1000
0000
1100
0000
0000
0001
0000
0000
0100
0000
,
0010
1000
0010
0100
0001
1000
0001
0010
,
0100
0000
0100
0000
0100
0000
1000
0000
0011
0000
0000
1000
0000
0000
0002
0000
,
0010
0010
1000
1000
0100
0100
1003
1000
,
0001
0000
0000
0000
0000
0010
0000
0000
0001
0000
0000
0000
0000
1000
0000
0000
0001
0000
0000
0000
0000
0100
0000
0000
0010
0000
0000
0000
0000
1000
0000
0000
0001
0000
0000
0000
0000
0000
0000
0000
0000
0000
0000
0000
0000
0000
0000
0000
MMMM
0000
0000
0000
0000
0000
0000
0000
0000
0000
0000
0000
0000
0000
0000
0000
,
1000
0010
1000
0100
0010
0001
1000
0010
1000
0100
0010
0001
1000
0010
1000
0010
0100
0001
1000
0100
1000
0100
0010
0001
,
1000
0010
1000
0001
1000
0001
0010
0100
1000
0100
0010
0001
1000
0010
1000
0001
1000
0001
0100
0001
1000
0010
1000
0001
,
1000
0100
0010
0001
0100
0001
1000
0100
0010
0001
0100
0001
1000
0100
1000
0100
0010
0001
1000
0010
1000
0010
0100
0001
,
1000
0010
1000
0001
0100
0001
1000
0010
1000
0001
0010
0100
1000
0001
0100
0001
1000
0001
0010
0100
1000
0100
0010
0001
,
1000
0100
1000
0010
0100
0001
1000
0100
1000
0010
0100
0001
1000
0100
1000
0100
0010
0001
1000
0010
1000
0010
0100
0001
,
1000
0100
1000
0001
1000
0001
0100
0010
1000
0010
0100
0001
1000
0100
1000
0001
1000
0001
0010
0001
1000
0100
1000
0001
,
1000
0010
1000
0001
0100
0001
1000
0100
1000
0001
0010
0001
1000
0100
0010
0001
0100
0001
1000
0010
1000
0001
1000
0001
,
0100
0010
0100
0001
1000
0010
1000
0001
0100
0001
1000
0001
0010
0100
1000
0001
1000
0001
0100
0001
1000
0010
1000
0001
,
1000
0010
1000
0100
0010
0001
1000
0010
1000
0100
0010
0001
1000
0010
1000
0010
0100
0001
1000
0100
1000
0100
0010
0001
,
1000
0010
1000
0001
1000
0001
0010
0100
1000
0001
0100
0001
1000
0010
1000
0001
0010
0100
1000
0001
0010
0001
1000
0001
,
1000
0100
0010
0001
0100
0001
1000
0100
0010
0001
0100
0001
1000
0100
1000
0100
0010
0001
1000
0010
1000
0010
0100
0001
,
1000
0010
1000
0001
0100
0001
1000
0010
1000
0001
0010
0100
1000
0001
0100
0001
1000
0001
0010
0100
0010
0001
1000
0001
,
1000
0100
1000
0010
0100
0001
1000
0100
1000
0010
0100
0001
1000
0100
1000
0100
0010
0001
1000
0010
1000
0010
0100
0001
,
1000
0100
1000
0001
1000
0001
0100
0010
1000
0001
0010
0001
1000
0100
1000
0001
0100
0010
1000
0001
0100
0001
1000
0001
,
1000
0100
1000
0001
0010
0001
1000
0010
1000
0001
0100
0001
1000
0010
0100
0001
0010
0001
1000
0100
1000
0001
1000
0001
,
0010
0100
0010
0001
1000
0100
1000
0001
0010
0001
1000
0001
0100
0010
1000
0001
1000
0001
0010
0001
1000
0100
0010
0001
,
1000
0000
0000
0000
;

//---------------dance-single - Gazebo----------------
#NOTES:
     dance-single:
     Gazebo:
     Hard:
     11:
     0.857,0.797,0.241,0.116,1.000,1149.000,50.000,24.000,8.000,2.000:

0000
0000
0000
0000
0000
0000
0000
0002
,
0000
2003
0000
3020
0000
0000
0030
0000
,
0000
2000
3020
2030
3020
0000
0230
0000
,
0301
0001
0001
1000
1100
0000
0001
1000
,
0000
0002
0023
0032
0023
0000
0230
0000
,
1300
0000
1000
0000
1000
0000
0001
0000
0101
0000
0000
1000
0000
0000
0001
0000
,
0040
0034
0403
0340
4030
3400
0340
0000
,
0030
0000
0000
0000
0000
0000
0000
0000
0001
0000
0000
0000
0000
0010
0000
0000
0000
0000
0000
0000
0000
0001
0000
0000
1000
0000
0000
0000
0000
0001
0000
0000
1000
0000
0000
0000
0000
0000
0000
0000
0010
0000
0000
0000
0000
0000
0000
0000
0101
0000
0000
0000
0000
0000
0000
0000
1000
0000
0000
0000
0000
0000
0000
0000
,
0001
0000
0011
0000
0010
0000
1100
1000
,
0001
0000
1001
0000
1000
0010
0101
0000
,
1000
0000
1100
0000
0010
0000
1001
0001
,
0100
0000
0101
1000
0100
0010
1001
0000
,
0001
0000
1010
0000
0010
0000
1001
1000
,
0100
0000
1100
0001
0100
0000
1010
1000
,
0200
0320
0000
0032
0000
0000
0003
1000
,
0010
0010
1010
1000
0001
0000
1000
0100
,
0010
0001
0101
0100
0001
1000
1010
0001
,
0010
0100
0110
1000
0001
0100
1010
0000
,
1000
0001
0011
0010
0001
1000
1100
0001
,
0100
0010
0110
1000
0001
0010
1001
0000
,
1000
0100
0011
0001
1000
0010
0101
1000
,
0100
0010
0011
0001
0100
0000
1010
0001
,
0400
0304
0043
0430
4300
3040
0430
0301
,
1000
1000
1000
0100
0011
0000
1000
0010
,
1000
0001
0100
0001
1000
0001
0010
0100
0010
0001
0100
0001
1000
0010
1000
0100
,
0010
0001
0010
0100
0010
0001
1000
0010
0100
0001
0100
0010
0100
0001
1000
0001
,
1000
0100
1000
0001
0010
0001
1000
0010
0100
0010
1000
0001
0010
0100
1000
0010
,
0100
0010
1000
0010
0100
0001
1000
0100
0010
0100
1000
0001
0100
0001
0010
0001
,
1000
0010
1000
0001
1000
0010
0100
0001
0100
0010
1000
0001
0010
0100
1000
0010
,
1000
0001
1000
0010
1000
0001
0010
0100
0010
0001
0010
0100
1000
0001
0100
0001
,
1000
1000
0010
0010
0100
0100
0001
0001
,
1000
0000
0000
0000
0000
0010
0000
0000
1000
0000
0000
0000
0000
0001
0000
0000
1000
0000
0000
0000
0000
0100
0000
0000
0010
0000
0000
0000
0000
0001
0000
0000
0200
0000
0000
0000
0000
0000
0000
0000
0000
0000
0000
0000
0000
0000
0000
0000
1301
0000
0000
0000
0000
0000
0000
0000
0000
0000
0000
0000
0000
0000
0000
0000
,
0001
0100
0001
0010
0001
0100
0001
0010
0100
1000
0100
1000
0001
1000
0001
1000
,
0010
0100
0010
0100
0001
0100
0001
1000
0001
0010
0100
1000
0100
0010
0001
1000
,
0001
0100
0001
0010
0001
0100
0001
0010
0100
1000
0100
1000
0001
1000
0001
1000
,
0010
0100
0001
0100
0010
1000
0001
0010
0100
1000
0100
1000
0001
0100
0010
0100
,
0001
0010
0001
0100
0001
0010
0001
0100
0010
1000
0010
1000
0001
1000
0001
1000
,
0100
0010
0100
0010
0001
0010
0001
1000
0001
0100
0010
1000
0010
0100
0001
1000
,
0100
1000
0001
1000
0010
1000
0001
0100
0001
1000
0100
0010
0001
1000
0010
1000
,
0001
0100
0001
1000
0001
0010
0100
1000
0010
1000
0010
1000
0001
0100
0001
1000
,
0001
0010
0001
1000
0001
0100
0010
1000
0001
0010
0001
1000
0001
0100
0010
1000
,
0001
0010
0100
0010
0100
1000
0001
0000
0000
0000
0001
0000
1100
0000
1000
0000
,
0001
0200
0320
0230
0320
0000
2030
0000
,
3010
1000
0001
0010
MMMM
0001
0100
0010
,
1000
0001
0101
0100
0001
1000
1010
0001
,
0010
0100
0110
1000
0001
0100
1010
0000
,
1000
0001
0011
0010
0001
1000
1100
0001
,
0100
0010
0110
1000
0001
0010
1001
0000
,
1000
0100
0011
0001
1000
0010
0101
1000
,
0100
0010
0011
0001
0100
0000
1010
0001
,
0400
0304
0043
0430
4300
3040
0430
0301
,
1000
1000
1000
0100
0011
0000
1000
0010
,
1000
0001
0100
0001
1000
0001
0010
0100
0010
0001
0100
0001
1000
0010
1000
0100
,
0010
0001
0010
0100
0010
0001
1000
0010
0100
0001
0100
0010
0100
0001
1000
0001
,
1000
0100
1000
0001
0010
0001
1000
0010
0100
0010
1000
0001
0010
0100
1000
0010
,
0100
0010
1000
0010
0100
0001
1000
0100
0010
0100
1000
0001
0100
0001
0010
0001
,
1000
0010
1000
0001
1000
0010
0100
0001
0100
0010
1000
0001
0010
0100
1000
0010
,
1000
0001
1000
0010
1000
0001
0010
0100
0010
0001
0010
0100
1000
0001
0100
0001
,
1000
1000
0010
0010
0100
0100
0001
0001
,
1000
0000
0000
0000
0000
0010
0000
0000
1000
0000
0000
0000
0000
0001
0000
0000
1000
0000
0000
0000
0000
0100
0000
0000
0010
0000
0000
0000
0000
0001
0000
0000
0200
0000
0000
0000
0000
0000
0000
0000
0000
0000
0000
0000
0000
0000
0000
0000
1301
0000
0000
0000
0000
0000
0000
0000
0000
0000
0000
0000
0000
0000
0000
0000
,
0001
0100
0001
0010
0001
0100
0001
0010
0100
1000
0100
1000
0001
1000
0001
1000
,
0010
0100
0010
0100
0001
0100
0001
1000
0001
0010
0100
1000
0100
0010
0001
1000
,
0001
0100
0001
0010
0001
0100
0001
0010
0100
1000
0100
1000
0001
1000
0001
1000
,
0010
0100
0001
0100
0010
1000
0001
0010
0100
1000
0100
1000
0001
0100
0010
0100
,
0001
0010
0001
0100
0001
0010
0001
0100
0010
1000
0010
1000
0001
1000
0001
1000
,
0100
0010
0100
0010
0001
0010
0001
1000
0001
0100
0010
1000
0010
0100
0001
1000
,
0100
1000
0001
1000
0010
1000
0001
0100
0001
1000
0100
0010
0001
1000
0010
1000
,
0001
0100
0001
1000
0001
0010
0100
1000
0010
1000
0010
1000
0001
0100
0001
1000
,
0001
0010
0001
0100
0001
0010
0001
0100
0010
1000
0010
1000
0001
1000
0001
1000
,
0100
0010
0100
0010
0001
0010
0001
1000
0001
0100
0010
1000
0010
0100
0001
1000
,
0001
0010
0001
0100
0001
0010
0001
0100
0010
1000
0010
1000
0001
1000
0001
1000
,
0100
0010
0001
0010
0100
1000
0001
0100
0010
1000
0010
1000
0001
0010
0100
0010
,
0001
0100
0001
0010
0001
0100
0001
0010
0100
1000
0100
1000
0001
1000
0001
1000
,
0010
0100
0010
0100
0001
0100
0001
1000
0001
0010
0100
1000
0100
0010
0001
1000
,
0010
1000
0001
1000
0100
1000
0001
0010
0001
1000
0010
0100
0001
1000
0100
1000
,
0001
0010
0001
1000
0001
0100
0010
1000
0100
1000
0001
0010
0001
1000
0010
1000
,
0001
0010
0001
1000
0010
0000
0000
0000
,
1000
0000
1000
0000
1000
0000
0001
0000
0011
0000
0000
1000
0000
0000
0010
0000
,
0100
0001
0100
0010
1000
0000
0000
0000
,
0001
0000
0001
0000
0001
0000
1000
0000
1100
0000
0000
0001
0000
0000
0100
0000
,
0010
1000
0010
0100
0001
1000
0001
0010
,
0100
0000
0100
0000
0100
0000
1000
0000
0011
0000
0000
1000
0000
0000
0002
0000
,
0010
0010
1000
1000
0100
0100
1003
1000
,
0001
0000
0000
0000
0000
0010
0000
0000
0001
0000
0000
0000
0000
1000
0000
0000
0001
0000
0000
0000
0000
0100
0000
0000
0010
0000
0000
0000
0000
1000
0000
0000
0001
0000
0000
0000
0000
0000
0000
0000
0000
0000
0000
0000
0000
0000
0000
0000
MMMM
0000
0000
0000
0000
0000
0000
0000
0000
0000
0000
0000
0000
0000
0000
0000
,
1000
0010
1000
0100
1000
0010
1000
0100
0010
0001
0010
0001
1000
0001
1000
0001
,
0100
0010
0100
0010
1000
0010
1000
0001
1000
0100
0010
0001
0010
0100
1000
0001
,
1000
0010
1000
0100
1000
0010
1000
0100
0010
0001
0010
0001
1000
0001
1000
0001
,
0100
0010
1000
0010
0100
0001
1000
0100
0010
0001
0010
0001
1000
0010
0100
0010
,
1000
0100
1000
0010
1000
0100
1000
0010
0100
0001
0100
0001
1000
0001
1000
0001
,
0010
0100
0010
0100
1000
0100
1000
0001
1000
0010
0100
0001
0100
0010
1000
0001
,
0010
0001
1000
0001
0100
0001
1000
0010
1000
0001
0010
0100
1000
0001
0100
0001
,
1000
0010
1000
0001
1000
0100
0010
0001
0100
0001
1000
0010
1000
0001
0010
0001
,
1000
0100
1000
0010
1000
0100
1000
0010
0100
0001
0100
0001
1000
0001
1000
0001
,
0010
0100
0010
0100
0010
0100
1000
0001
0100
0001
1000
0001
0010
0100
0010
0001
,
1000
0100
1000
0010
1000
0100
1000
0010
0100
0001
0100
0001
1000
0001
1000
0001
,
0010
0100
1000
0100
0010
0001
1000
0010
0100
0001
0010
0001
0100
0001
0010
0100
,
1000
0010
1000
0100
1000
0010
1000
0100
0010
0001
0010
0001
1000
0001
1000
0001
,
0100
0010
0100
0010
0100
0010
1000
0001
0010
0001
1000
0001
0100
0010
1000
0001
,
0010
0001
1000
0001
0100
0001
1000
0010
1000
0001
0010
0100
1000
0001
0100
0001
,
1000
0010
1000
0001
1000
0100
0010
0001
0100
0001
1000
0010
1000
0001
0010
0001
,
1000
0000
0000
0000
;
