#TITLE:Klungkung2004;
#SUBTITLE:DM Ashura Remix;
#ARTIST:DJ SIMON;
#TITLETRANSLIT:;
#SUBTITLETRANSLIT:;
#ARTISTTRANSLIT:;
#CREDIT:;
#BANNER:Klungkung2004-bn.png;
#BACKGROUND:Klungkung2004-bg.png;
#LYRICSPATH:;
#CDTITLE:cdtitle.png;
#MUSIC:DMAshura - KlungKung 2004 (Shorten).mp3;
#OFFSET:-0.080;
#SAMPLESTART:34.286;
#SAMPLELENGTH:12.000;
#SELECTABLE:YES;
#BPMS:0.000=175.000;
#STOPS:;
#BGCHANGES:;
// cache tags:
#FIRSTBEAT:0.000;
#LASTBEAT:388.000;
#SONGFILENAME:Songs/keyboard/Klungkung2004/Klungkung 2004.sm;
#HASMUSIC:1;
#HASBANNER:1;
#MUSICLENGTH:135.931;
// end cache tags

//---------------dance-single - ----------------
#NOTES:
     dance-single:
     :
     Challenge:
     11:
     0.991,1.000,0.684,0.280,0.677,812.000,93.000,38.000,0.000,8.000:
1000
0000
1000
0010
0000
0010
1000
1000
,
1100
0000
0100
0001
0000
0001
0100
0100
,
1100
0000
1000
0100
0000
0100
1000
1000
,
0101
0000
0001
0010
0000
0010
0001
0001
,
1001
0000
0000
1000
0010
0000
0010
0000
1000
0000
0000
0100
0000
0000
0010
0000
,
1010
0000
0000
0010
0001
0000
0000
0000
0010
0000
0000
0000
0110
0000
1001
0000
,
0110
0000
0000
0100
0010
0000
0010
0000
0001
0000
0000
0010
0000
0000
0100
0000
,
0101
0000
0000
0001
0100
0000
0000
0000
1000
0000
0000
0000
1001
0000
0110
0000
,
1000
0010
0000
0010
1000
0000
1000
0010
0000
0010
1000
0000
0100
0000
0010
0000
,
0001
0010
0000
0010
0001
0000
0001
0010
0000
0010
0001
0000
0010
0000
0100
0000
,
1000
0001
0000
0001
1000
0000
1000
0001
0000
0001
1000
0000
0100
0000
0010
0000
,
0100
0010
0000
0010
0100
0000
0100
0010
0000
0010
0100
0000
0010
0000
0001
0000
,
0001
0010
0000
0100
1000
0000
0001
0010
0000
0100
1000
0000
0010
0000
0100
0000
,
1000
0100
0000
0010
0001
0000
1000
0100
0000
0010
0001
0000
0100
0000
0010
0000
,
1000
0010
0000
0100
0001
0000
1000
0010
0000
0100
0001
0000
0100
0000
0010
0000
,
0001
0100
0000
0010
1000
0000
0001
0100
0000
0010
1000
0000
0110
0000
1001
0000
,
0110
0000
0000
1000
0001
0000
0000
0100
0010
0000
0000
0000
1001
0000
0110
0000
,
1001
0000
0000
0100
0001
0000
0000
0001
0100
0000
0000
0000
1100
0000
0110
0000
,
0011
0000
0000
0001
0010
0000
0000
0010
0001
0000
0000
0000
0011
0000
0110
0000
,
1100
0000
0000
1000
0100
0000
0000
0100
1000
0000
0000
0000
1100
0000
0110
0000
,
0011
0000
0000
0001
0100
0000
0000
0100
0001
0000
0000
0000
0110
0000
1100
0000
,
0110
0000
0000
0010
0001
0000
0000
0001
0010
0000
0000
0000
0110
0000
0011
0000
,
0110
0000
0000
0010
1000
0000
0000
1000
0010
0000
0110
0000
1010
0000
0110
0000
,
1010
0000
0000
1000
0010
0000
0000
0010
1000
0000
0000
0000
1001
0000
0110
0000
,
1000
0100
1000
0100
0010
0001
0010
0001
,
0100
0010
0100
0010
0001
0100
0001
0100
,
0010
0001
0010
0001
0100
0010
0100
0010
,
1000
0100
1000
0100
0001
0010
0001
0010
,
1000
0100
1000
0100
0001
0010
0001
0010
,
0001
0100
1000
0100
0001
0010
0001
0010
,
0100
1000
0100
1000
0010
0100
0010
0100
,
0001
0010
0001
0010
0100
1000
0100
1000
,
1000
0100
0001
0000
0001
0010
1000
0000
,
1100
0000
0110
0000
0011
0000
0001
0010
,
1000
0010
0001
0000
0001
0100
1000
0000
,
1100
0000
0101
0000
1010
0000
0001
0100
,
1000
0100
0001
0000
0001
0010
1000
0000
,
0110
0000
1100
0000
0101
0000
1000
0010
,
0001
0010
1000
0000
1000
0100
0001
0000
,
1000
0000
0100
0000
0010
0000
0001
0000
1000
0000
0100
0010
0100
0010
0100
0010
,
0200
0010
0010
0010
0020
0000
0032
0000
,
0300
0010
0010
0010
0203
1000
2300
3020
,
0000
0001
0001
0001
0002
0000
0233
0000
,
2300
3200
0302
0000
0203
0320
2030
0200
,
3000
0010
0010
0010
0002
0000
0323
0000
,
0000
0100
0100
0100
2030
0100
3200
0320
,
0000
0001
0001
0001
0200
0000
2330
0000
,
3002
0023
2030
0000
3020
0032
0203
0010
,
0300
0110
1001
0110
0220
0000
1331
0000
,
0000
0011
0011
1001
0011
1001
0011
1001
,
0000
1001
0110
0110
2002
0000
3113
0000
,
0000
1100
1100
1001
1100
1001
1100
1001
,
0000
0110
0110
1001
0220
0000
1331
0000
,
0000
0110
0110
1010
0110
1010
0110
1010
,
0000
1001
1001
0110
2002
0000
3113
0000
,
1000
0100
0101
0000
0001
0010
1010
0000
,
1000
0010
0000
0010
1000
0000
1000
0010
0000
0010
1000
0000
0100
0000
0010
0000
,
0001
0010
0000
0010
0001
0000
0001
0010
0000
0010
0001
0000
0010
0000
0100
0000
,
1000
0001
0000
0001
1000
0000
1000
0001
0000
0001
1000
0000
0100
0000
0010
0000
,
0100
0010
0000
0010
0100
0000
0100
0010
0000
0010
0100
0000
0010
0000
0001
0000
,
0001
0010
0000
0100
1000
0000
0001
0010
0000
0100
1000
0000
0010
0000
0100
0000
,
1000
0100
0000
0010
0001
0000
1000
0100
0000
0010
0001
0000
0100
0000
0010
0000
,
1000
0010
0000
0100
0001
0000
1000
0010
0000
0100
0001
0000
0100
0000
0010
0000
,
0001
0100
0000
0010
1000
0000
0001
0100
0000
0010
1000
0000
0110
0000
1001
0000
,
0010
0100
1000
0100
0010
0100
1000
0100
,
0001
0100
1000
0100
1000
0100
0010
0100
,
0010
0001
0010
0001
0010
1000
0010
0001
,
0010
0100
0010
0001
0010
0001
0010
0100
,
1000
0100
0010
0100
1000
0100
0010
1000
,
0100
0010
0100
0010
0001
0010
0100
1000
,
0100
1000
0100
0010
0001
0010
0100
0010
,
0100
1000
0100
0010
0100
1000
0100
0010
,
0010
0100
1000
0100
0010
0100
1000
0100
,
0001
0100
1000
0100
1000
0100
0010
0100
,
0010
0001
0010
0001
0010
1000
0010
0001
,
0010
0100
0010
0001
0010
0001
0010
0100
,
1000
0100
0010
0100
1000
0100
0010
1000
,
0100
0010
0100
0010
0001
0010
0100
1000
,
0100
1000
0100
0010
0001
0010
0100
0010
,
0100
1000
0100
0010
0100
1000
0100
0010
,
1000
0010
0000
0010
1000
0000
1000
0010
0000
0010
1000
0000
0100
0000
0010
0000
,
0001
0010
0000
0010
0001
0000
0001
0010
0000
0010
0001
0000
0010
0000
0100
0000
,
1000
0001
0000
0001
1000
0000
1000
0001
0000
0001
1000
0000
0100
0000
0010
0000
,
0100
0010
0000
0010
0100
0000
0100
0010
0000
0010
0100
0000
0010
0000
0001
0000
,
0001
0010
0000
0100
1000
0000
0001
0010
0000
0100
1000
0000
0010
0000
0100
0000
,
1000
0100
0000
0010
0001
0000
1000
0100
0000
0010
0001
0000
0100
0000
0010
0000
,
1000
0010
0000
0100
0001
0000
1000
0010
0000
0100
0001
0000
0100
0000
0010
0000
,
0001
0100
0000
0010
1000
0000
0001
0100
0000
0010
1000
0000
0010
0000
0100
0000
,
1000
0100
1000
0100
1000
0100
1000
0100
1000
0100
1000
0100
1000
0100
1000
0100
,
1000
0010
1000
0010
1000
0010
1000
0010
1000
0010
1000
0010
1000
0010
1000
0010
,
1000
0001
1000
0001
1000
0001
1000
0001
1000
0001
1000
0001
1000
0001
1000
0001
,
1000
0100
1000
0100
1000
0100
1000
0100
1000
0100
1000
0100
1000
0100
1000
0100
,
0001
0010
0001
0010
0001
0010
0001
0010
0001
0010
0001
0010
0001
0010
0001
0010
,
0001
0100
0001
0100
0001
0100
0001
0100
0001
0100
0001
0100
0001
0100
0001
0100
,
0001
1000
0001
1000
0001
1000
0001
1000
0001
1000
0001
1000
0001
1000
0001
1000
,
0001
0010
0001
0010
0001
0010
0001
0010
0001
0010
0001
0010
0001
0010
0022
0000
,
0000
0000
0000
0000
,
0033
0000
0000
0000
;
