#TITLE:Look To The Sky;
#SUBTITLE:RODD Steps;
#ARTIST:SySF. feat. Anna;
#TITLETRANSLIT:;
#SUBTITLETRANSLIT:;
#ARTISTTRANSLIT:;
#CREDIT:;
#BANNER:LTTSban.png;
#BACKGROUND:LTTSbg.png;
#LYRICSPATH:;
#CDTITLE:;
#MUSIC:Look To The Sky (True Color Mix).ogg;
#OFFSET:-0.379;
#SAMPLESTART:0.400;
#SAMPLELENGTH:12.000;
#SELECTABLE:YES;
#DISPLAYBPM:140.000;
#BPMS:0.000=140.000,209.000=130.000,210.000=120.000,211.000=110.000,212.000=100.000,213.000=90.000,214.000=80.000,215.000=70.000;
#STOPS:;
#BGCHANGES:;
// cache tags:
#FIRSTBEAT:16.000;
#LASTBEAT:216.000;
#SONGFILENAME:Songs/Rodd's Revival/Look To The Sky (Rodd Steps)/Look To The Sky (True Color Mix).sm;
#HASMUSIC:1;
#HASBANNER:1;
#MUSICLENGTH:96.595;
// end cache tags

//---------------dance-single - RODD Steps----------------
#NOTES:
     dance-single:
     RODD Steps:
     Challenge:
     10:
     0.773,0.811,0.072,0.145,0.901,500.000,7.000,14.000,11.000,0.000:

0000
0000
0000
0000
,
0000
0000
0000
0000
,
0000
0000
0000
0000
,
0000
0000
0000
0000
,
1000
0000
0001
0100
0010
0000
0010
1000
0100
0000
0100
0010
0001
0000
0100
0010
,
1000
0000
0100
0010
0001
0000
0100
0010
0100
0001
1000
0100
0010
0000
0001
0100
,
0010
0000
0010
0100
0001
0000
1000
0100
0010
0100
1000
0001
0100
0000
0010
0100
,
0001
0000
1000
0100
0010
0000
0010
0100
1000
0100
0010
0001
0100
0000
0010
0000
,
1000
0000
0100
0000
0010
0001
0000
0001
0100
0010
1000
0100
0010
0001
0100
0010
,
1000
0000
0100
0000
1000
0001
0000
0001
0100
0010
1000
0001
0100
0010
1000
0100
,
0010
0000
0001
0000
0100
0010
0000
0010
1000
0100
0010
0001
0010
0100
1000
0001
,
0400
0040
0000
0000
0000
0000
0000
0000
0000
0000
0000
0000
0000
0000
0030
0300
,
0010
1000
0000
1000
0100
0000
0010
0000
0001
0100
0000
0100
0010
0000
1000
0000
,
0100
0010
0000
0010
0001
0000
0100
0000
0010
1000
0000
1000
0100
0000
0010
0000
,
0001
0100
0000
0010
1000
0000
0100
0000
0010
0001
0000
0100
0010
0000
1000
0000
,
0100
0010
0001
0200
0000
0320
0000
0030
,
1000
0100
0000
0010
0001
0000
0100
0010
1000
0100
0000
0010
0001
0000
0100
0010
,
1000
0100
0000
1000
0001
0000
0100
0010
0100
0010
0000
1000
0100
0000
0010
0001
,
0010
0001
0000
0100
0010
0000
1000
0100
0010
0001
0000
0001
0100
0000
0010
1000
,
0010
2000
3200
0320
0000
0032
0000
0003
,
0100
0010
1000
0100
0010
0000
0001
0000
0100
0001
0100
0001
0100
0000
0010
0000
,
1000
0010
1000
0010
1000
0000
0100
0000
1000
0100
1000
0100
1000
0000
0100
0000
,
0010
0100
0010
0100
0010
0000
0001
0000
0100
0010
1000
0100
0010
0000
0001
0000
,
0200
0320
0230
0302
0000
2003
0000
3000
,
0100
0010
0000
0010
0001
0000
0011
0000
0001
0100
0000
0100
0010
0000
0110
0000
,
0010
1000
0000
1000
0100
0000
1100
0000
0100
0010
0000
0001
0100
0000
0101
0000
,
0100
0010
0000
1000
0100
0000
1100
0000
0100
0010
0000
0001
1000
0000
1001
0000
,
1000
0100
0010
0001
0010
0100
1000
0001
0100
0010
1000
0001
0100
0010
0100
0001
,
2000
0000
3100
0010
0001
0000
0001
0010
0100
0000
1000
0010
0100
0000
0100
0001
,
0010
0000
0010
0100
0010
0000
0001
0100
0010
0000
1000
0100
0010
0000
0001
0100
,
0010
0100
0001
1000
0100
0001
0100
1000
,
0010
0100
0001
1000
0100
0010
0001
0100
,
0010
0000
1000
0100
0010
0000
0001
0100
0010
0000
1000
0100
0010
0000
0001
0010
,
0001
0000
0100
0010
0100
0000
0010
1000
0010
0000
1000
0100
1000
0000
0001
1000
,
0001
0100
0010
0100
0001
1000
0100
0010
,
0001
0100
0010
1000
0001
0100
0010
1000
0100
0010
0100
1000
0001
0100
0010
0100
,
0001
0000
1000
0000
0100
0010
0000
0010
0001
0000
0100
0000
0010
0000
0100
0000
,
0001
0000
1000
0000
0100
0010
0000
0010
0100
0000
1000
0000
0001
0000
0100
0000
,
0010
1000
0100
0010
0100
1000
0001
0100
,
0010
0000
0100
0000
0001
0000
1000
0000
0100
0010
0000
0010
0001
0000
0101
0000
,
0100
0010
0100
0010
0100
0010
0100
0000
0001
0000
1000
0000
0100
0000
0010
0000
,
0001
0100
0001
0100
0001
0100
0001
0000
0100
0000
0010
0000
1000
0000
0100
0000
,
0010
0001
0010
0100
1000
0001
0100
0000
0010
0000
1000
0000
0100
0000
0001
0000
,
0100
0010
0001
0100
0010
1000
0001
0100
0010
1000
0100
0010
0001
0010
0100
1000
,
0001
0000
0100
0000
0010
0100
0000
0100
0010
1000
0100
0000
0010
0000
0001
0000
,
0010
0000
0100
0000
1000
0001
0000
0001
0100
0001
0100
0000
0010
0000
0100
0000
,
0001
0000
1000
0000
0100
0010
0000
0001
0100
0010
1000
0000
0100
0000
0010
0000
,
0100
0000
1000
0000
0001
0100
0000
0100
0010
0100
0010
0000
1000
0000
0100
0000
,
0010
0000
0001
0000
0100
0010
0000
0100
0001
1000
0100
0000
0010
0000
0001
0000
,
0010
0100
1000
0001
0100
0010
0100
0001
,
2000
0000
0000
0000
,
3100
0010
0001
0010
0100
1000
0001
0100
0010
0100
0001
1000
0100
0010
0100
0010
,
0002
0000
M000
0000
0M00
0000
0000
00M0
0000
0M00
0000
0000
M000
0000
0000
00M0
,
0000
0000
0M00
0000
0000
0000
00M0
0000
0000
M000
0000
0000
0M00
0000
0000
00M0
,
0003
0000
0000
0000
;
