#TITLE:Chill Penguin;
#SUBTITLE:;
#ARTIST:Capcom;
#TITLETRANSLIT:;
#SUBTITLETRANSLIT:;
#ARTISTTRANSLIT:;
#CREDIT:;
#BANNER:Chill Penguin.png;
#BACKGROUND:Chill Penguin BG.png;
#LYRICSPATH:;
#CDTITLE:!XMaxX.png;
#MUSIC:Chill Penguin.mp3;
#OFFSET:-0.020;
#SAMPLESTART:10.300;
#SAMPLELENGTH:10.200;
#SELECTABLE:YES;
#BPMS:0.000=138.930;
#STOPS:;
#BGCHANGES:;
// cache tags:
#FIRSTBEAT:8.000;
#LASTBEAT:196.000;
#SONGFILENAME:Songs/keyboard/Chill Penguin (Megaman X)/Chill Penguin.sm;
#HASMUSIC:1;
#HASBANNER:1;
#MUSICLENGTH:89.294;
// end cache tags

//---------------dance-single - ----------------
#NOTES:
     dance-single:
     :
     Hard:
     9:
     0.610,0.933,0.269,0.269,0.470,333.000,24.000,24.000,0.000,0.000:
0000
0000
0000
0000
,
0000
0000
0000
0000
,
2000
0000
0000
0000
0000
0000
0000
3000
,
0020
0000
0000
0000
0000
0000
0000
0030
,
0200
0000
0000
0000
0000
0000
0000
0300
,
0002
0000
0000
0000
,
1003
0000
0001
0000
0100
0000
0010
0010
,
0000
0010
1000
0000
0100
0000
0010
0002
,
0000
0000
0000
0000
0000
0000
0000
2003
,
0000
0000
0000
0000
0000
3010
1000
0001
0100
0010
1000
0001
0100
0010
1000
0001
,
1000
0000
0000
0000
0011
0000
2002
0000
0000
0000
0000
0000
3003
0000
0001
1000
,
0001
0100
0010
1000
0001
0100
0010
1000
,
0200
0000
0000
0000
0010
0000
0310
0000
0000
0000
0000
0000
0000
0000
0001
1000
,
0001
1000
0000
0001
0100
0020
0000
0000
,
1030
0000
0000
0000
1100
0000
2002
0000
0000
0000
0000
0000
3003
0000
1000
0001
,
1000
0001
0100
0010
0000
1000
0010
0100
,
0001
0000
0000
0000
0011
0000
2002
0000
0000
0000
0000
0000
3003
0000
1000
0001
,
1000
0000
0000
0011
0000
1001
1001
0000
,
1001
0000
0001
0100
0000
0100
0010
1000
,
0100
0010
0001
0100
0010
1000
0100
0010
,
0001
0000
0000
1000
0000
0000
0001
0000
0000
0000
0100
0000
0010
0000
1000
0000
,
0100
0000
0000
0010
0000
0000
0001
0000
0100
0000
0000
0000
0110
0000
0000
0000
,
0010
0000
1000
0001
0000
0001
1000
0010
,
0100
0001
0010
0001
0100
0010
1000
0100
,
1000
0000
0000
0010
0000
0000
0100
0000
0000
0000
0001
0000
0100
0000
0010
0000
,
1000
0001
0010
0100
1000
0100
0010
0001
1000
0001
0100
0010
1000
0001
0010
0100
,
1000
0001
1000
0100
0010
0001
0100
0001
0100
0010
1000
0100
0010
0001
1000
0001
,
0100
0010
1000
0001
0010
0100
1000
0001
0100
0010
1000
0100
0010
0001
0010
0100
,
1000
0001
0100
0010
1000
0001
0010
0100
1000
0100
1000
0100
0010
0001
1000
0001
,
1001
0000
0000
0000
0011
0000
2002
0000
0000
0000
0000
0000
3003
0000
0001
1000
,
0001
0100
0010
1000
0001
0100
0010
1000
,
0200
0000
0000
0000
0010
0000
0310
0000
0000
0000
0000
0000
0000
0000
0001
1000
,
0001
1000
0000
0001
0100
0020
0000
0000
,
1030
0000
0000
0000
1100
0000
2002
0000
0000
0000
0000
0000
3003
0000
1000
0001
,
1000
0001
0100
0010
0000
1000
0010
0100
,
0001
0000
0000
0000
0011
0000
2002
0000
0000
0000
0000
0000
3003
0000
1000
0001
,
1000
0000
0000
0011
0000
1001
1001
0000
,
1001
0000
0001
0100
0000
0100
0010
1000
,
0100
0010
0001
0100
0010
1000
0100
0010
,
0001
0000
0000
1000
0000
0000
0001
0000
0000
0000
0100
0000
0010
0000
1000
0000
,
0100
0000
0000
0010
0000
0000
0001
0000
0100
0000
0000
0000
0110
0000
0000
0000
,
0010
0000
1000
0001
0000
0001
1000
0010
,
0100
0001
0010
0001
0100
0010
1000
0100
,
1000
0000
0000
0010
0000
0000
0100
0000
0000
0000
0001
0000
0100
0000
0010
0000
,
0001
1000
0100
0010
0001
0010
0100
1000
0001
1000
0010
0100
0001
1000
0100
0010
,
0001
1000
0001
0010
0100
1000
0010
1000
0010
0100
0001
0010
0100
1000
0001
1000
,
0010
0100
0001
1000
0100
0010
0001
1000
0010
0100
0001
0010
0100
1000
0100
0010
,
0001
1000
0010
0100
0001
1000
0100
0010
0001
0010
0001
0010
0100
1000
0001
1000
,
2002
0000
0000
0000
,
3003
0000
0000
0000
;

//---------------dance-single - ----------------
#NOTES:
     dance-single:
     :
     Medium:
     6:
     0.402,0.549,0.146,0.560,0.017,188.000,13.000,50.000,0.000,0.000:
0000
0000
0000
0000
,
0000
0000
0000
0000
,
2000
0000
0000
0000
0000
0000
0000
3000
,
0002
0000
0000
0000
0000
0000
0000
0003
,
2000
0000
0000
0000
0000
0000
0000
3000
,
0002
0000
0000
0000
,
1003
0010
0100
0001
,
0001
0000
0100
0000
0010
0000
0010
2000
,
0000
0000
0000
0000
0000
0000
0000
3002
,
0000
0000
0000
0003
0010
1000
0100
0010
,
0001
0000
1000
0002
0000
0000
0003
1000
,
0001
0010
1000
0001
,
0200
0000
0010
0310
0000
0000
0000
0010
,
1000
0100
0000
0010
0001
0200
0000
0000
,
1300
0000
1000
0002
0000
0000
0003
1000
,
0001
0100
0010
1000
,
0001
0000
1000
0002
0000
0000
0003
1000
,
0001
0000
0000
0001
0000
1000
0001
0000
,
1001
0000
0000
1001
0000
0001
1000
0001
,
0100
0000
0000
0110
0000
0010
1000
0100
,
0010
0000
0000
0011
0000
0001
0100
0010
,
1000
0000
0000
1100
0000
0000
0110
0000
,
0010
0000
1000
0001
0000
0001
1000
0010
,
0100
0001
0100
1000
,
0100
0000
0000
0010
0000
0000
0100
0000
0000
0000
0010
0000
1000
0000
0100
0000
,
0020
0032
0203
0320
,
2030
3200
0320
0032
,
0203
0320
2030
3002
,
0203
0320
2030
3002
,
1003
0000
1000
0002
0000
0000
0003
1000
,
0001
0010
1000
0001
,
0200
0000
0010
0310
0000
0000
0000
0010
,
1000
0100
0000
0010
0001
0200
0000
0000
,
1300
0000
1000
0002
0000
0000
0003
1000
,
0001
0100
0010
1000
,
0001
0000
1000
0002
0000
0000
0003
1000
,
0001
0000
0000
0001
0000
1000
0001
0000
,
1001
0000
0000
1001
0000
0001
1000
0001
,
0100
0000
0000
0110
0000
0010
1000
0100
,
0010
0000
0000
0011
0000
0001
0100
0010
,
1000
0000
0000
1100
0000
0000
0110
0000
,
0010
0000
1000
0001
0000
0001
1000
0010
,
0100
0001
0100
1000
,
0100
0000
0000
0010
0000
0000
0100
0000
0000
0000
0010
0000
1000
0000
0100
0000
,
0020
0032
0203
0320
,
2030
3200
0320
0032
,
0203
0320
2030
3002
,
0203
0000
0320
0000
2030
3001
0002
1003
,
1002
2000
0000
0000
0000
0000
0000
0000
0000
0000
0000
0000
0000
0000
0000
0000
0000
0000
0000
0000
0000
0000
0000
0000
0000
0000
0000
0000
0000
0000
0000
0000
0000
0000
0000
0000
0000
0000
0000
0000
0000
0000
0000
0000
0000
0000
0000
0000
0000
0000
0000
0000
0000
0000
0000
0000
0000
0000
0000
0000
0000
0000
0000
0000
0000
0000
0000
0000
0000
0000
0000
0000
0000
0000
0000
0000
0000
0000
0000
0000
0000
0000
0000
0000
0000
0000
0000
0000
0000
0000
0000
0000
0000
0000
0000
0000
0000
0000
0000
0000
0000
0000
0000
0000
0000
0000
0000
0000
0000
0000
0000
0000
0000
0000
0000
0000
0000
0000
0000
0000
0000
0000
0000
0000
0000
0000
0000
0000
0000
0000
0000
0000
0000
0000
0000
0000
0000
0000
0000
0000
0000
0000
0000
0000
0000
0000
0000
0000
0000
0000
0000
0000
0000
0000
0000
0000
0000
0000
0000
0000
0000
0000
0000
0000
0000
0000
0000
0000
0000
0000
0000
0000
0000
0000
0000
0000
0000
0000
0000
0000
0000
0000
0000
0000
0000
0000
0000
0000
0000
0000
0000
0000
,
3003
0000
0000
0000
;

//---------------dance-single - ----------------
#NOTES:
     dance-single:
     :
     Easy:
     4:
     0.336,0.384,0.571,0.336,0.000,129.000,51.000,30.000,0.000,0.000:
0000
0000
0000
0000
,
0000
0000
0000
0000
,
2000
0000
0000
0000
0000
0000
0000
3000
,
0002
0000
0000
0000
0000
0000
0000
0003
,
2000
0000
0000
0000
0000
0000
0000
3000
,
0002
0000
0000
0000
,
1003
0000
1001
0000
,
0001
0000
0000
0000
0110
0000
0000
2002
,
0000
0000
0000
0000
3003
0000
0000
0220
,
0000
0000
0000
0330
0010
0000
1000
0000
,
0001
0000
0000
2002
0000
3003
0000
1000
,
0001
1000
1000
0001
,
0200
0000
0000
0310
0000
0000
0000
0000
,
1000
0000
0001
0000
0000
0002
0000
0000
,
1003
0000
0000
2002
0000
0000
3003
1000
,
0001
0100
0010
1000
,
0001
0000
0000
2002
0000
0000
3003
0000
,
1001
0000
0000
0110
0000
0000
1001
0000
,
1001
0000
0000
1001
0000
0000
1010
0000
,
0101
0000
0000
0110
0000
0000
1001
0000
,
0110
0000
0000
0110
0000
0000
0011
0000
,
1100
0000
0000
1001
0000
0000
0110
0000
,
1001
1000
0001
1000
,
0001
1000
0010
1000
,
0002
0000
2003
0000
,
3010
0001
0000
1001
,
0001
0100
0000
0110
,
0010
1000
0000
1001
,
1000
0001
0000
1001
,
1000
0000
0000
2002
0000
3003
0000
0001
,
1000
0001
0001
1000
,
0020
0000
0000
0130
0000
0000
0000
0000
,
0001
0000
1000
0000
0000
2000
0000
0000
,
3001
0000
0000
2002
0000
0000
3003
0001
,
1000
0010
0100
0001
,
1000
0000
0000
2002
0000
0000
3003
0000
,
1001
0000
0000
0110
0000
0000
1001
0000
,
1001
0000
0000
1001
0000
0000
0101
0000
,
1010
0000
0000
0110
0000
0000
1001
0000
,
0110
0000
0000
0110
0000
0000
1100
0000
,
0011
0000
0000
1001
0000
0000
0110
0000
,
1001
0001
1000
0001
,
1000
0001
0100
0001
,
2000
0000
3002
0000
,
0103
1000
0000
1001
,
1000
0010
0000
0110
,
0100
0001
0000
1001
,
0001
1000
0000
1001
,
2002
0000
0000
0000
,
3003
0000
0000
0000
;

//---------------dance-single - ----------------
#NOTES:
     dance-single:
     :
     Beginner:
     2:
     0.112,0.219,0.235,0.022,0.000,47.000,21.000,2.000,0.000,0.000:
0000
0000
0000
0000
,
0000
0000
0000
0000
,
0000
0000
0000
0000
,
0000
0000
0000
0000
,
0000
0000
0000
0000
,
0000
0000
0000
0000
,
1000
0000
0000
0000
,
0001
0000
0000
0000
,
0100
0000
0000
0000
,
0010
0000
0000
0000
,
1001
0000
0000
0000
,
0000
0000
0000
0000
,
0110
0000
0000
0000
,
0000
0000
0000
0000
,
1001
0000
0000
0000
,
0000
0000
0000
0000
,
0110
0000
0000
0000
,
0000
0000
0000
0000
,
1001
0000
0001
0000
,
1001
0000
1000
0000
,
1001
0000
0001
0000
,
1001
0000
1000
0000
,
0001
0000
0100
0000
,
0010
0000
1000
0000
,
0001
0000
1000
0000
,
1001
0000
0000
0000
,
1001
0000
0000
0000
,
1001
0000
0000
0000
,
1001
0000
0000
0000
,
0001
0000
0000
0000
,
1000
0000
0000
0000
,
0010
0000
0000
0000
,
0100
0000
0000
0000
,
0001
0000
0000
0000
,
1000
0000
0000
0000
,
0001
0000
0000
0000
,
1000
0000
0000
0000
,
1001
0000
0000
0000
,
0000
0000
0000
0000
,
0110
0000
0000
0000
,
0000
0000
0000
0000
,
1001
0000
0000
0000
,
0000
0000
0000
0000
,
0110
0000
0000
0000
,
1001
0000
1000
0000
,
1001
0000
0001
0000
,
1001
0000
1000
0000
,
1001
0000
0001
0000
,
2002
0000
0000
0000
,
3003
0000
0000
0000
;
