#TITLE:AM-3P;
#SUBTITLE:'House Party' Dub;
#ARTIST:KTz vs. sanxion7;
#TITLETRANSLIT:;
#SUBTITLETRANSLIT:;
#ARTISTTRANSLIT:;
#CREDIT:by kabot;
#BANNER:bn.png;
#BACKGROUND:bg.png;
#LYRICSPATH:;
#CDTITLE:kabot-cdtitle.png;
#MUSIC:am3p.mp3;
#OFFSET:0.006;
#SAMPLESTART:61.596;
#SAMPLELENGTH:12.000;
#SELECTABLE:YES;
#BPMS:0.000=129.600,32.000=259.200,160.000=129.600,192.000=259.200;
#STOPS:;
#BGCHANGES:;
// cache tags:
#FIRSTBEAT:1.000;
#LASTBEAT:360.000;
#SONGFILENAME:Songs/toune 3/AM-3P ('House Party' Dub)/am3p.sm;
#HASMUSIC:1;
#HASBANNER:1;
#MUSICLENGTH:103.732;
// end cache tags

//---------------dance-single - by kabot----------------
#NOTES:
     dance-single:
     by kabot:
     Hard:
     9:
     0.664,0.911,0.415,0.270,0.014,411.000,43.000,28.000,0.000,10.000:
0000
1001
0110
0011
,
1100
0110
0011
1100
,
0110
0011
0110
1100
,
1010
0011
0101
0110
,
1001
1000
1000
0001
0001
0010
0010
0100
,
0100
1000
1000
0100
0100
0010
0010
0001
,
0001
1000
1000
0100
0100
0010
0010
0001
,
1000
0100
0010
0000
0001
0000
1000
0001
1000
0000
1000
0000
0001
1000
0001
0000
,
1001
0000
1000
0000
0100
0000
0010
0001
,
0010
0000
0100
0000
1000
0100
1000
0001
,
1000
0010
1000
0100
1000
0001
0010
0001
,
1000
0001
0010
0001
0100
0001
0100
0001
,
1000
0001
1000
0001
1000
0010
1000
0010
,
1000
0100
1000
0100
1000
0001
0010
0100
,
1000
1000
0100
0010
0001
0001
0010
0100
,
1000
0001
1000
0100
0010
0001
1000
0000
,
0011
0000
0010
0001
0011
0000
0010
0100
,
0110
0000
0100
1000
1100
0000
0100
0010
,
0110
0000
0010
0100
1100
0000
1000
0010
,
1010
0000
0100
0001
0101
0000
0001
0010
,
0100
0000
1000
0100
0010
0000
0001
0010
,
0001
0000
1000
0100
1000
0000
1000
0001
,
0010
0001
1000
0010
1000
0001
0010
0001
,
1000
0100
1000
0001
0100
0001
1000
0100
,
2100
0100
0200
0000
,
3300
1000
0100
0010
,
0001
0010
0001
0010
,
0001
0010
0200
0300
,
2100
0100
0200
0000
,
3300
0100
1000
0010
,
0100
0000
0001
0010
0001
1000
0000
1000
,
0000
0001
0000
0001
1000
0000
0100
0000
,
2100
0100
0200
0000
,
3300
1000
0010
1000
,
0100
1000
0010
1000
,
0100
0010
0020
0030
,
0120
0100
0200
0000
,
0330
1000
0010
1000
,
0010
1000
0001
0010
,
0100
0010
0100
0000
,
2000
0000
0000
0200
,
0020
0000
0000
0002
0000
3333
0000
0000
,
0002
0000
0000
0020
,
0200
0000
0000
2000
0000
3333
0000
0000
,
2200
0000
0000
0010
,
0002
0000
0000
0020
0000
3333
0000
0000
,
0202
0000
0000
0010
,
2000
0000
0000
0020
0000
3333
0000
0000
,
1000
0100
0010
0000
0000
0000
0001
0010
,
0001
0000
0000
0000
0001
0010
0100
0000
,
1100
1000
0100
1000
,
0100
1000
0010
1000
,
0010
1000
0100
1000
,
0010
0000
1000
0100
1000
0010
1000
0000
,
0001
0100
0001
0100
,
0001
0010
0001
0010
,
0001
0100
0001
0010
,
0001
0000
0010
0001
0010
0001
1000
0000
,
0011
0001
0010
0001
,
0010
0100
1000
0001
,
0010
0100
1000
0100
,
0010
0000
0010
0100
1000
0100
0010
0000
,
0100
0100
0010
0001
,
1000
0100
0010
0001
,
1000
0100
0010
0001
,
1000
0000
0001
0010
0100
0010
0001
0000
,
0101
0001
1000
0100
,
1000
0010
0100
0001
,
0010
0100
1000
0100
,
1000
0100
1000
0100
,
1000
0010
1000
0100
,
1000
0010
1000
0100
,
0010
0001
0010
0001
,
0100
0001
1000
0001
,
1001
1000
0100
0010
,
0001
0100
0010
1000
,
0010
1000
0100
0010
,
0001
0010
0001
1000
,
0100
0010
0001
0010
,
0100
1000
0010
0100
,
0010
0100
0001
0010
,
0100
0010
0001
1000
,
1001
0000
1000
0100
0010
0000
0110
0000
,
0010
0001
0010
0000
0011
0000
0100
0000
,
1100
0000
0100
0010
0001
0000
0011
0000
,
0010
0001
0100
0000
0101
0000
0100
0000
,
1010
0000
1000
0001
1000
0000
0100
0010
,
0001
0010
0001
1000
0001
0100
0001
1000
,
2002
0000
0000
0000
,
0000
0000
0000
0000
,
3003
0000
0000
0000
;

//---------------dance-single - by kabot----------------
#NOTES:
     dance-single:
     by kabot:
     Medium:
     7:
     0.496,0.651,0.530,0.154,0.000,289.000,55.000,16.000,0.000,6.000:
0000
1001
0001
0110
,
0100
1100
0010
0011
,
0001
0101
0100
0110
,
1001
0110
0100
0001
,
1001
0000
1000
0001
0001
0000
0010
0100
,
0100
0000
1000
0100
0100
0000
0010
0001
,
0001
0000
1000
0100
0100
0000
0010
0001
,
1000
0001
1000
0001
1000
0001
1000
0000
,
1001
1000
0100
0010
,
0001
0000
0010
0001
,
0010
0000
1000
0100
,
0010
0000
0000
0000
0010
0001
0010
0001
,
0010
0000
0001
0010
,
0100
0000
1000
0001
,
1000
0000
0000
0000
0001
0100
0001
0100
,
0001
0000
1000
1000
,
1100
0000
0100
0100
,
0110
0000
0010
0010
,
0011
0000
1000
1000
,
1010
0000
0100
0100
,
0101
0000
0001
1000
,
1001
0000
0010
0100
,
0110
0000
1000
0001
,
1000
0100
1000
0100
1000
0001
1000
0000
,
1000
0001
0020
0000
,
0030
0000
0010
0001
,
0010
0000
0100
0010
,
0100
0000
2000
3000
,
0001
1000
0200
0300
,
0000
0100
1000
0010
,
0100
0000
0001
0000
0010
0000
0000
0100
,
0000
1000
0000
0001
1000
0000
0001
0000
,
1000
0100
0020
0000
,
0030
0001
0010
0100
,
1000
0100
0010
0001
,
0100
0010
0020
0030
,
0010
0100
0020
0000
,
0030
1000
0010
1000
,
0010
1000
0001
0010
,
0001
0010
0001
0000
,
0220
0000
0000
0001
,
1000
0000
0000
0001
0000
0000
0330
0000
,
2002
0000
0000
0010
,
0100
0000
0000
0010
0000
3003
0000
0000
,
1001
0000
0000
0110
,
1001
0000
0000
0220
0000
0000
0330
0000
,
0110
0000
0000
1001
,
0110
0000
0000
2002
0000
0000
3003
0000
,
1000
0001
1000
0000
0000
0000
0001
1000
,
0001
0000
0000
0000
1000
0001
1000
0000
,
0000
1000
0100
1000
,
0010
1000
0001
1000
,
0000
1001
0000
1000
,
0000
1000
0000
1000
,
0000
0001
0010
0001
,
0100
0001
1000
0001
,
0000
0110
0000
0010
,
0000
0010
0000
0010
,
0000
1000
0010
0100
,
0001
0010
0100
1000
,
0000
0101
0000
0001
,
0000
0001
0000
0001
,
0000
1000
0001
0010
,
0100
1000
0001
1000
,
0000
1100
0000
0100
,
0000
0100
0000
0100
,
0000
1000
0100
0010
,
0001
0010
0001
0010
,
0000
0011
0000
1001
,
0000
1100
0000
1001
,
0000
0001
0010
0100
,
1000
0100
1000
0100
,
0000
1100
0000
1001
,
0000
1010
0000
1001
,
0000
0000
0001
0000
1000
0000
0001
1000
,
0001
1000
0001
0000
1000
0000
0001
0000
,
0000
1100
0000
1010
,
0000
0011
0000
0101
,
0000
0000
0001
0000
0010
0000
0100
1000
,
0100
1000
0100
0000
0010
0000
0001
0000
,
0000
0011
0000
0011
,
0000
1100
0000
1000
,
1100
1000
1000
1100
,
0001
0001
0011
0000
,
1100
0100
0100
0110
,
0010
0010
0110
0000
,
1001
0000
1000
0100
1000
0000
0001
0000
,
0010
0001
0010
0000
0100
0000
0110
0000
,
2002
0000
0000
0000
,
0000
0000
0000
0000
,
3003
0000
0000
0000
;

//---------------dance-single - by kabot----------------
#NOTES:
     dance-single:
     by kabot:
     Easy:
     4:
     0.364,0.477,0.434,0.145,0.000,204.000,45.000,15.000,0.000,0.000:
0000
1001
0000
0011
,
0000
0110
0000
1100
,
0000
1001
0000
0110
,
0000
1010
0000
0101
,
0000
1001
0001
0010
,
0100
1000
0100
0010
,
0001
1000
0100
0010
,
0100
0000
1000
0000
0001
1000
0001
0000
,
1001
0000
0100
0000
,
0001
0000
0010
0000
,
0001
0000
1000
0000
,
0001
0000
0010
0000
,
0001
0010
0001
0000
,
0100
0000
0010
0000
,
1000
0100
1000
0000
,
0001
0000
1000
0000
,
0001
1000
0100
0000
,
1000
0000
0010
0000
,
0100
0000
0001
0000
,
1000
0000
0100
0000
,
0010
0000
0001
0000
,
0010
0000
0100
0000
,
1000
0000
0001
0000
,
1000
0000
0010
0000
,
2000
0000
3001
0000
,
1000
0000
0100
0000
,
1000
0000
0001
0000
,
1000
0000
0200
0300
,
0020
0000
0031
0000
,
0001
0000
1000
0000
,
0100
0000
0010
0000
,
0001
0000
0001
0000
,
1000
0000
1000
0000
,
0010
0000
0010
0000
,
0100
0000
0100
0000
,
0001
0000
0002
0003
,
0020
0000
0130
0000
,
1000
0000
0100
0000
,
0010
0000
0001
1000
,
0001
1000
0001
1000
,
0002
0000
0000
1000
,
0010
0000
0000
2000
3003
0000
0000
0000
,
2000
0000
0000
0001
,
0010
0000
0000
0002
3003
0000
0000
0000
,
0020
0000
0000
1000
,
0100
0000
0000
2000
3030
0000
0000
0000
,
0200
0000
0000
0001
,
0010
0000
0000
0002
0303
0000
0000
0000
,
0100
0000
1100
1000
,
0000
1001
0001
0000
,
1001
0000
1000
0100
,
1000
0000
1100
1000
,
0000
1100
0000
0100
,
0000
1000
0000
0100
,
0000
0010
0000
0001
,
0010
0000
0010
0001
,
0000
1000
0000
0100
,
0000
1000
0000
1100
,
0000
1000
0000
0100
,
0010
0000
0001
0010
,
0000
0100
0000
1000
,
0000
1100
0000
1001
,
0000
0001
0000
0001
,
1000
0000
1000
0001
,
0000
1001
0000
0100
,
0000
0110
0000
0001
,
0000
0011
0000
0100
,
1000
0000
1000
0001
,
0000
0011
0000
0001
,
0000
1001
0000
1100
,
0000
1000
0000
0100
,
0010
0000
0001
0010
,
0000
0001
0000
0011
,
0000
1001
0000
1100
,
0000
1000
0000
0001
,
0010
0000
0010
0001
,
0000
1100
0000
0110
,
0000
0011
0000
1001
,
0000
0110
0000
1000
,
0100
0000
1000
0100
,
0000
0110
0000
1001
,
0000
0110
0000
1001
,
1000
0000
1001
0001
,
0000
0101
0001
0000
,
1001
0000
1100
0100
,
0000
0110
0010
0000
,
0011
0000
1001
1000
,
0000
1001
0100
0000
,
0220
0000
0000
0000
,
0000
0000
0000
0000
,
0330
0000
0000
0000
;

//---------------dance-single - by kabot----------------
#NOTES:
     dance-single:
     by kabot:
     Beginner:
     2:
     0.154,0.260,0.193,0.019,0.000,90.000,20.000,2.000,0.000,0.000:
0000
1001
0000
0000
,
0000
0110
0000
0000
,
0000
1001
0000
0000
,
0000
1001
0000
0000
,
0000
0110
0000
0000
,
0000
1000
0000
0001
,
0000
1000
0000
0001
,
0000
1000
0000
0000
,
1001
0000
0000
0000
,
0001
0000
0000
0000
,
0010
0000
0000
0000
,
0001
0000
0000
0000
,
0010
0000
0000
0000
,
0001
0000
0000
0000
,
1000
0000
0000
0000
,
0001
0000
0000
0000
,
0100
0000
0000
0000
,
0001
0000
0000
0000
,
0010
0000
0000
0000
,
0001
0000
0000
0000
,
1000
0000
0000
0000
,
0100
0000
0000
0000
,
0010
0000
0000
0000
,
0001
0000
0000
0000
,
0010
0000
0000
0000
,
0100
0000
0000
0000
,
1000
0000
0000
0000
,
0001
0000
0000
0000
,
1000
0000
0000
0000
,
1000
0000
0000
0000
,
0001
0000
0000
0000
,
0001
0000
0000
0000
,
0010
0000
0000
0000
,
0010
0000
0000
0000
,
0100
0000
0000
0000
,
0100
0000
0000
0000
,
1000
0000
0000
0000
,
1000
0000
0000
0000
,
0100
0000
0000
0000
,
0010
0000
0000
0000
,
0001
0000
0000
0000
,
1000
0000
0000
0000
,
1000
0000
0000
0000
,
0001
0000
0000
0000
,
0010
0000
0000
0000
,
0100
0000
0000
0000
,
0000
0000
0000
0000
,
0100
0000
0000
0000
,
1001
0000
0000
0000
,
0110
0000
0000
0000
,
1001
0000
0000
0000
,
0110
0000
0000
0000
,
1001
0000
0000
0000
,
0001
0000
0000
0000
,
0010
0000
0000
0000
,
0100
0000
0000
0000
,
1000
0000
0000
0000
,
0001
0000
0000
0000
,
1000
0000
0000
0000
,
0001
0000
0000
0000
,
1000
0000
0000
0000
,
0100
0000
0000
0000
,
0010
0000
0000
0000
,
0100
0000
0000
0000
,
0010
0000
0000
0000
,
0001
0000
0000
0000
,
0010
0000
0000
0000
,
0100
0000
0000
0000
,
1000
0000
0000
0000
,
0001
0000
0000
0000
,
1000
0000
0000
0000
,
0100
0000
0000
0000
,
0010
0000
0000
0000
,
0001
0000
0000
0000
,
0001
0000
0000
0000
,
1001
0000
0000
0000
,
1001
0000
0000
0000
,
1001
0000
0000
0000
,
0110
0000
0000
0000
,
0110
0000
0000
0000
,
0110
0000
0000
0000
,
1001
0000
0000
0000
,
0110
0000
0000
0000
,
1000
0000
0000
0000
,
0100
0000
0000
0000
,
0010
0000
0000
0000
,
0001
0000
0000
0000
,
1000
0000
0000
0000
,
2002
0000
0000
0000
,
0000
0000
0000
0000
,
3003
0000
0000
0000
;
