#TITLE:Greatest Blue!!!!!;
#SUBTITLE:(DJ Sharpnel Mix);
#ARTIST:DJ Sharpnel and M-Project;
#TITLETRANSLIT:;
#SUBTITLETRANSLIT:;
#ARTISTTRANSLIT:;
#CREDIT:;
#BANNER:Greatest Blue-Ban.png;
#BACKGROUND:Greatest Blue-BG.png;
#LYRICSPATH:;
#CDTITLE:;
#MUSIC:greatest.ogg;
#OFFSET:-0.072;
#SAMPLESTART:284.995;
#SAMPLELENGTH:21.942;
#SELECTABLE:YES;
#BPMS:0.000=175.000;
#STOPS:;
#BGCHANGES:;
// cache tags:
#FIRSTBEAT:32.000;
#LASTBEAT:1378.000;
#SONGFILENAME:Songs/SHARPNELSTREAMZ v2/Greatest Blue (DJ Sharpnel Mix)/Greatest Blue.sm;
#HASMUSIC:1;
#HASBANNER:1;
#MUSICLENGTH:482.847;
// end cache tags

//---------------dance-single - 16- (@@)----------------
#NOTES:
     dance-single:
     16- (@@):
     Challenge:
     16:
     1.000,1.000,0.118,0.578,1.000,3950.000,57.000,279.000,2.000,0.000:
0000
0000
0000
0000
,
0000
0000
0000
0000
,
0000
0000
0000
0000
,
0000
0000
0000
0000
,
0000
0000
0000
0000
,
0000
0000
0000
0000
,
0000
0000
0000
0000
,
0000
0000
0000
0000
,
1001
0000
0000
0001
1001
0000
0000
0000
,
0011
0110
1100
1001
,
0101
0000
0000
0100
0101
0000
0000
0000
,
1010
0000
0000
0000
0000
0000
0010
0100
0001
0000
0000
0000
1000
0000
0000
0000
,
1001
0000
0000
1000
1001
0000
0000
0000
,
1010
0110
0101
1001
,
1100
0000
0000
0100
1100
0000
0000
0000
,
0011
0000
0000
0000
0000
0000
0010
0100
1000
0000
0000
0000
0001
0000
0000
0000
,
0010
0100
1000
0001
0010
0100
0010
0001
,
1000
0010
0100
0010
1000
0001
0100
0001
,
1000
0100
0010
0001
1000
0001
0010
0100
,
1000
0000
0001
0000
0100
0000
0010
0000
1000
0010
1000
0001
0010
0000
0100
0000
,
1000
0010
1000
0001
0100
0010
0100
0001
,
1000
0100
0010
0100
1000
0001
0010
0001
,
1000
0010
0100
0001
1000
0001
0100
0010
,
1000
0001
0010
0001
0000
0001
0100
0010
,
1000
0001
0011
0010
0100
1000
1001
0001
,
0100
0010
1010
1000
0001
0100
0110
0010
,
1000
0001
0011
0010
0100
1000
1100
0100
,
1000
0000
0001
0000
0101
0000
0100
0000
0001
0100
0001
1000
0100
0000
1000
0000
,
0001
1000
1010
0010
0100
0001
1001
1000
,
0100
0010
0011
0001
1000
0100
0110
0010
,
0001
1000
1010
0010
0100
0001
0101
0100
,
0001
1000
0001
0010
0100
1000
0001
0010
0001
1000
0010
0100
0001
1000
0010
1000
,
0001
0010
0001
1000
0001
0000
1000
0000
0010
0100
0001
0100
0010
1000
0100
0010
,
0001
1000
0010
1000
0001
0000
1000
0000
0001
0010
0100
1000
0010
0100
0010
1000
,
0001
0010
0001
1000
0001
0000
1000
0000
0010
0100
0010
1000
0100
0010
0001
1000
,
0001
0100
0010
0100
0001
1000
0010
1000
0100
0010
0001
1000
0001
0010
0100
0010
,
0001
1000
0010
1000
0001
0000
1000
0000
0100
0010
0100
1000
0010
0100
0010
1000
,
0001
0010
0001
1000
0001
0000
1000
0000
0010
0100
0001
0100
0010
1000
0100
0010
,
0001
1000
0010
1000
0001
0000
1000
0000
0001
0010
0100
1000
0010
0100
0001
1000
,
0001
0010
0100
1000
0001
0010
0100
0010
0001
0100
0010
1000
0001
1000
0100
0010
,
0001
0100
0001
1000
0001
0000
1000
0000
0100
0010
0001
0010
0100
1000
0010
0100
,
0001
1000
0100
1000
0001
0000
1000
0000
0001
0100
0010
1000
0100
0010
0100
1000
,
0001
0100
0001
1000
0001
0000
1000
0000
0100
0010
0100
1000
0010
0100
0001
1000
,
0001
0010
0100
0010
0001
1000
0100
1000
0010
0100
0001
1000
0001
0100
0010
0100
,
0001
1000
0100
1000
0001
0000
1000
0000
0010
0100
0010
1000
0100
0010
0001
0010
,
0100
1000
0001
1000
0010
0100
0001
0100
0010
1000
0001
0100
0001
0010
0100
0010
,
0001
1000
0001
0100
0001
1000
0010
1000
0001
0100
0010
1000
0100
0010
0001
1000
,
0001
0100
0010
1000
0010
0100
0001
0010
0100
1000
0100
0010
0001
0100
0010
1000
,
0001
0000
1000
0010
1000
0100
0000
0010
,
0000
0010
0000
0001
1000
0000
0010
0000
,
0100
0000
0000
0000
0000
0000
0010
1000
0001
0000
0000
0000
0000
0000
0010
0000
,
0000
0010
0000
0001
0100
0000
0001
0000
,
1000
0000
0001
0010
0001
0100
0000
0010
,
0000
0010
0000
1000
0001
0000
0010
0000
,
0100
0000
0000
0000
0000
0000
0010
0001
1000
0000
0000
0000
0000
0000
0010
0000
,
0000
0000
0010
0100
0001
0100
0010
1000
0001
0010
0100
1000
0010
0100
0001
1000
,
0001
0000
1000
0100
1000
0010
0000
0100
,
0000
0100
0000
0001
1000
0000
0100
0000
,
0010
0000
0000
0000
0000
0000
0100
1000
0001
0000
0000
0000
0000
0000
0100
0000
,
0000
0100
0000
0001
0010
0000
0001
0000
,
1000
0000
0000
0000
0001
0000
0100
0000
0001
0000
0010
0100
1000
0001
0100
0001
,
1000
0010
1000
0001
0100
0001
1000
0100
0010
0001
0010
0100
1000
0001
0010
0001
,
1000
0010
0100
0010
1000
0001
0100
0001
0010
0100
1000
0001
1000
0100
0010
0001
,
1000
0010
0100
0010
1000
0001
0100
0001
0010
0100
1000
0010
0100
0010
1000
0100
,
0010
0001
0010
0001
1000
0010
1000
0001
1000
0100
1000
0001
0100
0010
1000
0001
,
1000
0001
0010
0100
0010
0100
1000
0001
0100
0010
0100
0001
0010
0100
1000
0001
,
0100
0010
1000
0001
1000
0010
0100
0001
0010
0100
0010
0001
1000
0100
0010
0001
,
0010
0001
0100
0010
0100
0010
1000
0001
0010
0100
0010
0001
0100
0001
1000
0010
,
0100
0001
0100
0001
1000
0100
1000
0001
1000
0010
1000
0001
0010
0100
1000
0001
,
1000
0001
0100
0010
0100
0010
1000
0001
1000
0100
0010
0001
0100
0001
1000
0010
,
1000
0001
0010
0100
1000
0001
0010
0001
0100
0010
0100
0001
1000
0001
0100
0010
,
0100
0010
1000
0100
1000
0100
0010
0100
1000
0010
0100
0001
1000
0100
0010
0001
,
1000
0100
1000
0100
0010
0001
1000
0001
0100
0001
1000
0010
0100
0010
1000
0001
,
1000
0001
0010
0100
0010
0100
1000
0001
0100
0010
0100
0001
0010
0001
1000
0100
,
1000
0001
0100
0010
1000
0001
0100
0001
0010
0100
1000
0001
1000
0100
0010
0001
,
0010
0001
0100
0010
0100
0010
1000
0001
0010
0001
0100
0010
1000
0100
0010
0001
,
1000
0010
1000
0010
0100
0001
1000
0001
0010
0001
1000
0100
0010
0100
1000
0001
,
1000
0001
0100
0010
0100
0010
1000
0001
1000
0100
0010
0001
0100
0001
1000
0010
,
1000
0001
0010
0001
1000
0100
0010
0001
0100
0001
1000
0010
1000
0001
0100
0010
,
0100
0010
1000
0100
1000
0100
0010
0001
0100
0010
1000
0100
0010
0001
1000
0010
,
0100
0001
0100
0001
1000
0100
1000
0001
1000
0010
1000
0001
0010
0100
1000
0001
,
1000
0001
0100
0010
0100
0010
1000
0001
0010
0100
0010
0001
0100
0010
1000
0001
,
0010
0100
1000
0001
1000
0100
0010
0001
0100
0010
0100
0001
1000
0010
0100
0001
,
0100
0001
0010
0100
0010
0100
1000
0001
0100
0010
0100
0001
0010
0001
1000
0100
,
0010
0001
0010
0001
1000
0010
1000
0001
1000
0100
1000
0001
0100
0010
1000
0001
,
1000
0001
0010
0100
0010
0100
1000
0001
1000
0010
0100
0001
0010
0001
1000
0100
,
1000
0001
0100
0010
1000
0001
0100
0001
0010
0100
0010
0001
1000
0001
0010
0100
,
0010
0100
1000
0010
1000
0010
0100
0010
1000
0100
0010
0001
1000
0010
0100
0001
,
1000
0010
1000
0010
0100
0001
1000
0001
0010
0001
1000
0100
0010
0100
1000
0001
,
1000
0001
0100
0010
0100
0010
1000
0001
0010
0100
0010
0001
0100
0001
1000
0010
,
1000
0001
0010
0100
1000
0001
0010
0001
0100
0010
1000
0001
1000
0010
0100
0001
,
0100
0001
0010
0100
0010
0100
1000
0001
0100
0001
0010
0100
1000
0010
0100
0001
,
1000
0100
1000
0100
0010
0001
1000
0001
0100
0001
1000
0010
0100
0010
1000
0001
,
1000
0001
0010
0100
0010
0100
1000
0001
1000
0010
0100
0001
0010
0001
1000
0100
,
1000
0001
0100
0001
1000
0010
0100
0001
0010
0001
1000
0100
1000
0001
0010
0100
,
0010
0100
1000
0010
1000
0010
0100
0001
0010
0100
1000
0010
0100
0010
1000
0001
,
0010
0000
0100
0000
0010
0000
0001
0000
1000
0010
0100
0001
1000
0000
0100
0000
,
0010
0000
0001
1000
0001
0000
0100
0000
0010
0000
1000
0000
0100
0000
0000
0000
,
1000
0000
0001
0000
0010
0000
0001
0000
1000
0010
0100
0001
1000
0000
0100
0000
,
1000
0001
0100
0000
0001
1000
0100
0000
1000
0010
0100
0001
1000
0000
0001
0000
,
0100
0000
0010
0000
0100
0000
0001
0000
1000
0100
0010
0001
1000
0000
0010
0000
,
0100
0000
0001
1000
0001
0000
0010
0000
0100
0000
1000
0000
0010
0000
0000
0000
,
1000
0000
0001
0000
0100
0000
0001
0000
1000
0100
0010
0001
1000
0000
0010
0000
,
1000
0001
0010
0000
0001
1000
0010
0000
1000
0100
0010
0001
1000
0000
0001
0000
,
0010
0000
0100
0000
1000
0000
0001
0000
1000
0001
0100
0010
1000
0000
0001
0000
,
0010
0000
0001
1000
0001
0000
0100
0000
0010
0000
1000
0000
0100
0000
0000
0000
,
1000
0000
0001
0000
0010
0000
0100
0000
1000
0001
0100
0010
1000
0000
0001
0000
,
0100
0001
1000
0000
0100
1000
0001
0000
1000
0001
0100
0010
1000
0000
0001
0000
,
0100
0000
0010
0000
1000
0000
0001
0000
1000
0001
0010
0100
1000
0000
0001
0000
,
0100
0000
0001
1000
0001
0000
0010
0000
0100
0000
1000
0000
0010
0000
0000
0000
,
1000
0000
0001
0000
0100
0000
0010
0000
1000
0001
0010
0100
1000
0000
0001
0000
,
1000
0001
0100
0001
0010
0001
1000
0010
1000
0100
1000
0001
0100
0010
1000
0001
,
0010
0000
0100
0000
0010
0000
0001
0000
1000
0010
0100
0001
0100
0010
1000
0001
,
1000
0000
0100
0010
0100
0000
1000
0000
0001
0000
0010
0000
0001
0100
0010
1000
,
0100
0000
0010
0000
0100
0000
1000
0000
0001
0100
0010
1000
0010
0100
0001
1000
,
0001
0000
0010
0100
0010
0000
0001
0000
0100
0010
1000
0100
0010
0001
1000
0001
,
0100
0000
0010
0000
0100
0000
0001
0000
1000
0100
0010
0001
0010
0100
1000
0001
,
1000
0000
0010
0100
0010
0000
1000
0000
0001
0000
0100
0000
0001
0010
0100
1000
,
0010
0000
0100
0000
0010
0000
1000
0000
0001
0010
0100
1000
0100
0010
0001
1000
,
0001
0000
0100
0010
0100
0000
0001
0000
0010
0100
1000
0010
0100
0001
1000
0001
,
0010
0000
0100
0000
1000
0000
0001
0000
0100
0001
1000
0010
0100
0010
1000
0001
,
1000
0000
0100
0010
0100
0000
1000
0000
0100
0000
0010
0000
0001
0100
0010
1000
,
0100
0000
0010
0000
0001
0000
1000
0000
0010
1000
0001
0100
0010
0100
0001
1000
,
0001
0000
0010
0100
0010
0000
0001
0000
0100
0010
1000
0100
0010
0001
1000
0001
,
0100
0000
0010
0000
1000
0000
0001
0000
0010
0001
1000
0100
0010
0100
1000
0001
,
0100
0010
0100
0001
1000
0010
1000
0001
0010
0100
1000
0001
0010
0100
0010
0001
,
1000
0010
0100
0010
1000
0001
0100
0001
1000
0100
0010
0100
1000
0001
1000
0010
,
0100
0001
0100
0010
1000
0001
0010
0001
0100
0010
1000
0100
1000
0010
0100
0001
,
1000
0000
0000
0000
,
0000
0000
0000
0000
,
0000
0000
0000
0000
,
0000
0000
0000
0000
,
1001
0000
0000
1000
1001
0000
0000
0000
,
1100
0110
0011
1001
,
1010
0000
0000
0010
1010
0000
0000
0000
,
0101
0000
0000
0000
0000
0000
0100
0010
1000
0000
0000
0000
0001
0000
0000
0000
,
1001
0000
0000
0001
1001
0000
0000
0000
,
0101
0110
1010
1001
,
0011
0000
0000
0010
0011
0000
0000
0000
,
1100
0000
0000
0000
0000
0000
0100
0010
0001
0000
0000
0000
1000
0000
0000
0000
,
0001
0010
0000
0000
0000
0000
0000
0000
0000
0000
0000
0000
0100
1000
0000
0000
0000
0000
0000
0000
0000
0000
0000
0000
,
0001
0010
0000
0000
0000
0000
0000
0000
0000
0000
0000
0000
0100
1000
0000
0000
0000
0000
0000
0000
0000
0000
0000
0000
,
0001
0100
0000
0000
0000
0000
0000
0000
0000
0000
0000
0000
0010
1000
0000
0000
0000
0000
0000
0000
0000
0000
0000
0000
,
0100
0010
0000
0000
0000
0000
0000
0000
0000
0000
0000
0000
0001
1000
0000
0000
0000
0000
0000
0000
0000
0000
0000
0000
,
0010
1000
0000
0000
0000
0000
0000
0000
0000
0000
0000
0000
0001
0100
0000
0000
0000
0000
0000
0000
0000
0000
0000
0000
,
0010
0100
0000
0000
0000
0000
0000
0000
0000
0000
0000
0000
0010
1000
0000
0000
0000
0000
0000
0000
0000
0000
0000
0000
,
0001
0010
0000
0000
0000
0000
0000
0000
0000
0000
0000
0000
0001
1000
0000
0000
0000
0000
0000
0000
0000
0000
0000
0000
,
0100
0000
1000
0000
0000
0000
0000
0000
0000
0000
0000
0000
0000
0000
0000
0000
0000
0000
1000
0000
0000
0010
0000
0000
0100
0000
0000
0000
0000
0000
0000
0000
0000
0000
0000
0000
0001
0000
0000
0000
0000
0000
0000
0000
0000
0000
0000
0000
,
0001
0100
0000
0000
0000
0000
0000
0000
0000
0000
0000
0000
0010
1000
0000
0000
0000
0000
0000
0000
0000
0000
0000
0000
,
0001
0100
0000
0000
0000
0000
0000
0000
0000
0000
0000
0000
0010
1000
0000
0000
0000
0000
0000
0000
0000
0000
0000
0000
,
0001
0010
0000
0000
0000
0000
0000
0000
0000
0000
0000
0000
0100
1000
0000
0000
0000
0000
0000
0000
0000
0000
0000
0000
,
0010
0100
0000
0000
0000
0000
0000
0000
0000
0000
0000
0000
0001
1000
0000
0000
0000
0000
0000
0000
0000
0000
0000
0000
,
0100
1000
0000
0000
0000
0000
0000
0000
0000
0000
0000
0000
0001
0010
0000
0000
0000
0000
0000
0000
0000
0000
0000
0000
,
0100
0010
0000
0000
0000
0000
0000
0000
0000
0000
0000
0000
0100
1000
0000
0000
0000
0000
0000
0000
0000
0000
0000
0000
,
0001
0100
0000
0000
0000
0000
0000
0000
0000
0000
0000
0000
0001
1000
0000
0000
0000
0000
0000
0000
0000
0000
0000
0000
,
0010
0000
1000
0000
0000
0000
0000
0000
0000
0000
0000
0000
0000
0000
0000
0000
0000
0000
1000
0000
0000
0100
0000
0000
0010
0000
0000
0000
0000
0000
0000
0000
0000
0000
0000
0000
0001
0000
0000
0100
0000
0000
0010
0000
0000
1000
0000
0000
,
0200
0000
0000
1000
1000
0000
0000
0000
,
0320
0032
2003
0000
,
3200
0000
0000
1000
2300
0000
3020
0000
,
0230
0000
0000
0001
0001
0000
0010
0000
,
0320
0000
0000
1000
1000
0000
0000
0000
,
0230
0302
2003
0000
,
3020
0000
0000
1000
2030
0000
3200
0000
,
0320
0000
0000
0001
0001
0000
0100
0000
,
0230
0000
0000
1000
1000
0000
0000
0000
,
0320
0032
2003
0000
,
3200
0000
0000
1000
2300
0000
3020
0000
,
0230
0000
0000
0001
0001
0000
0010
0000
,
0320
0000
0000
1000
1000
0000
0000
0000
,
0230
0302
2003
0000
,
3020
0000
0000
1000
2030
0000
3200
0000
,
0320
0000
0000
0001
0001
0000
0100
0000
,
0130
0000
0000
0000
0000
0000
1000
0001
1000
0000
0000
0000
0000
0000
0000
0000
,
0000
0000
0000
0000
,
2000
0000
0000
0000
,
3000
0000
0000
0000
,
2000
0000
0000
3000
,
2000
0000
0000
3000
,
2000
0000
0000
3000
,
2000
0000
0000
3000
,
2000
3000
2000
3000
,
2000
3000
2000
3000
,
2000
3000
2000
3000
,
2000
3000
2000
3000
,
2000
3000
0002
0003
2000
3000
0002
0003
2000
3000
0002
0003
2000
3000
0002
0003
,
2000
3000
0002
0003
2000
3000
0002
0003
2000
3000
0002
0003
2000
3000
0002
0003
,
2000
3000
0002
0003
2000
3000
0002
0003
2000
3000
0002
0003
2000
3000
0002
0003
,
2000
3000
0002
0003
2000
3000
0002
0003
2000
3000
0002
0003
2000
3000
0002
0003
,
2000
3200
0320
0230
2300
3002
0023
0230
2300
3002
0203
0320
0230
0302
2003
3020
,
2030
3002
0023
0230
2300
3200
0320
0032
2003
3020
0230
0320
2030
3002
0203
0302
,
2003
3200
0320
0230
2300
3002
0023
0032
2003
3020
0230
0302
2003
3020
2030
3002
,
0013
0100
1000
0001
1000
0000
0000
0000
0001
0000
1000
0000
0001
0000
0100
0000
,
0001
0010
0100
1000
0100
0010
0001
1000
0010
0100
0010
1000
0001
0100
0001
1000
,
0100
0010
0100
1000
0001
0010
0100
1000
0001
0100
0010
1000
0001
0100
0010
0100
,
0001
1000
0100
0010
0100
1000
0001
0010
0001
1000
0010
1000
0001
0100
0010
0100
,
0001
0010
0100
0010
0001
1000
0100
1000
0001
0100
0010
1000
0001
0100
0001
1000
,
0100
0010
0100
1000
0001
0010
0001
1000
0010
0100
0010
1000
0001
0100
0001
1000
,
0100
0010
0001
1000
0100
0010
0100
1000
0001
0100
0001
1000
0010
1000
0001
0100
,
0001
0010
0100
1000
0100
0010
0001
1000
0001
0100
0010
1000
0001
1000
0010
0100
,
0001
1000
0100
0010
0100
1000
0001
0010
0100
1000
0001
0010
0001
1000
0100
0010
,
0001
0100
0010
1000
0010
0100
0001
1000
0100
0010
0100
1000
0001
0010
0001
1000
,
0010
0100
0010
1000
0001
0100
0010
1000
0001
0010
0100
1000
0001
0010
0100
0010
,
0001
1000
0010
0100
0010
1000
0001
0100
0001
1000
0100
1000
0001
0010
0100
0010
,
0001
0100
0010
0100
0001
1000
0010
1000
0001
0010
0100
1000
0001
0010
0001
1000
,
0010
0100
0010
1000
0001
0100
0001
1000
0100
0010
0100
1000
0001
0010
0001
1000
,
0010
0100
0001
1000
0010
0100
0010
1000
0001
0010
0001
1000
0100
1000
0001
0010
,
0001
0100
0010
1000
0010
0100
0001
1000
0001
0010
0100
1000
0001
1000
0100
0010
,
0001
1000
0010
0100
0010
1000
0001
0100
0010
1000
0001
0100
0001
1000
0100
0010
,
0001
0100
0010
0100
0001
0100
0010
0100
0001
0100
0010
0100
0001
0100
0010
0100
,
0001
0010
0100
1000
0010
0100
0010
1000
0100
0010
0001
1000
0001
0010
0100
1000
,
0001
0100
0010
0100
0001
1000
0010
0100
0001
0010
0100
1000
0010
1000
0001
0100
,
0001
0010
0100
1000
0001
1000
0100
0010
0001
1000
0100
1000
0001
0010
0100
0010
,
0001
0100
0001
1000
0001
0100
0001
1000
0001
0100
0001
1000
0001
0100
0001
1000
,
0100
0010
0100
1000
0010
0100
0010
1000
0100
0010
0001
1000
0001
0010
0100
0010
,
0001
0100
0001
1000
0010
1000
0001
0100
0001
0010
0100
0010
0001
0100
0010
1000
,
0100
0010
0001
0010
0100
1000
0001
1000
0100
0010
0100
1000
0001
1000
0010
0100
,
0001
0010
0100
0010
0001
0010
0100
0010
0001
0010
0100
0010
0001
0010
0100
0010
,
0001
0100
0010
1000
0100
0010
0100
1000
0010
0100
0001
1000
0001
0100
0010
1000
,
0001
0010
0100
0010
0001
1000
0100
0010
0001
0100
0010
1000
0100
1000
0001
0010
,
0001
0100
0010
1000
0001
1000
0010
0100
0001
1000
0010
1000
0001
0100
0010
0100
,
0001
0010
0001
1000
0001
0010
0001
1000
0001
0010
0001
1000
0001
0010
0001
1000
,
0010
0100
0010
1000
0100
0010
0100
1000
0010
0100
0001
1000
0001
0100
0010
0100
,
0001
0010
0001
1000
0100
1000
0001
0010
0001
0100
0010
0100
0001
0010
0100
1000
,
0010
0100
0001
0100
0010
1000
0001
0100
0001
0010
0100
1000
0010
0100
0001
1000
,
0001
0010
0100
1000
0001
0100
0001
1000
0100
0010
0100
1000
0001
0100
0001
1000
,
0010
0100
0010
1000
0001
0010
0100
1000
0001
0100
0010
1000
0001
0010
0100
0010
,
0001
1000
0100
0010
0100
1000
0001
0100
0001
1000
0100
1000
0001
0100
0010
0100
,
0001
0010
0001
1000
0100
0010
0100
1000
0001
0100
0010
1000
0001
0010
0001
1000
,
0100
0010
0100
1000
0001
0100
0001
1000
0100
0010
0100
1000
0001
0100
0001
1000
,
0010
0100
0001
1000
0100
0010
0100
1000
0001
0100
0001
1000
0100
1000
0001
0010
,
0001
0100
0010
1000
0010
0100
0001
1000
0001
0010
0100
1000
0001
1000
0010
0100
,
0001
1000
0010
0100
0010
1000
0001
0010
0100
1000
0001
0100
0001
1000
0100
0010
,
0001
0100
0010
1000
0001
0010
0001
1000
0010
0100
0010
1000
0001
0010
0001
1000
,
0100
0010
0100
1000
0001
0100
0010
1000
0001
0010
0100
1000
0001
0100
0010
0100
,
0001
1000
0010
0100
0010
1000
0001
0010
0001
1000
0010
1000
0001
0010
0100
0010
,
0001
0100
0001
1000
0010
0100
0010
1000
0001
0010
0100
1000
0001
0100
0001
1000
,
0010
0100
0010
1000
0001
0010
0001
1000
0010
0100
0010
1000
0001
0010
0001
1000
,
0100
0010
0001
1000
0010
0100
0010
1000
0001
0010
0001
1000
0010
1000
0001
0100
,
0001
0010
0100
1000
0100
0010
0001
1000
0001
0100
0010
1000
0001
1000
0100
0010
,
0001
1000
0100
0010
0100
1000
0001
0100
0010
1000
0001
0010
0001
1000
0010
0100
,
0001
1000
0100
1000
0001
1000
0100
1000
0001
1000
0100
1000
0001
1000
0100
1000
,
0010
0100
0010
1000
0100
0010
0100
1000
0010
0100
0001
1000
0100
1000
0001
0100
,
0001
0010
0100
0010
0001
1000
0100
0010
0001
0100
0010
0100
0001
0010
0100
0010
,
0001
0100
0010
1000
0001
0100
0001
1000
0100
0010
0100
1000
0001
0100
0010
1000
,
0100
0010
0100
1000
0100
0010
0100
1000
0100
0010
0100
1000
0100
0010
0100
1000
,
0010
0100
0001
1000
0100
0010
0100
1000
0010
0100
0001
1000
0100
1000
0001
0100
,
0001
0010
0100
1000
0001
0010
0100
0010
0001
0100
0010
0100
0001
0010
0100
1000
,
0010
0100
0001
1000
0100
0010
0001
1000
0001
0100
0010
1000
0100
0010
0001
0100
,
0001
1000
0010
1000
0001
1000
0010
1000
0001
1000
0010
1000
0001
1000
0010
1000
,
0100
0010
0100
1000
0010
0100
0010
1000
0100
0010
0001
1000
0010
1000
0001
0010
,
0001
0100
0010
1000
0001
1000
0010
0100
0001
0010
0100
0010
0001
0100
0010
0100
,
0001
0010
0100
1000
0001
0100
0001
1000
0100
0010
0100
1000
0001
0010
0100
1000
,
0010
0100
0010
1000
0010
0100
0010
1000
0010
0100
0010
1000
0010
0100
0010
1000
,
0100
0010
0001
1000
0010
0100
0010
1000
0100
0010
0001
1000
0010
1000
0001
0010
,
0001
0100
0010
1000
0001
0100
0010
0100
0001
0010
0100
0010
0001
0100
0010
1000
,
0100
0010
0001
1000
0010
1000
0001
0100
0001
0010
0100
1000
0010
0100
0001
1000
,
0001
0000
0000
0000
,
0000
0000
0000
0000
,
1000
1000
0100
0100
0010
0010
0001
0001
,
0100
0100
0010
0010
1000
1000
0001
0001
,
1001
0000
0000
0000
1000
0000
0001
0010
0100
0000
1000
0001
0100
0000
0100
0000
,
0101
0000
0000
0000
0001
0000
1000
0010
0100
0000
0001
1000
0100
0000
0100
0000
,
1100
0000
0000
0000
1000
0000
0100
0010
0001
0000
1000
0001
0100
0000
0100
0000
,
0110
0000
0000
0000
0010
0000
1000
0001
0100
0000
0001
0010
0100
0000
0100
0000
,
1100
0000
0000
0000
1000
0000
0001
0100
0010
0000
1000
0001
0010
0000
0010
0000
,
0011
0000
0000
0000
0001
0000
1000
0100
0010
0000
0001
1000
0010
0000
0010
0000
,
1010
0000
0000
0000
1000
0000
0010
0100
0001
0000
1000
0001
0010
0000
0010
0000
,
0110
0000
0000
0000
0100
0000
1000
0001
0010
0000
0001
0100
0010
0000
0010
0000
,
1000
0001
0100
0000
0001
1000
0100
0010
0100
1000
0001
1000
0010
0100
0010
1000
,
0001
1000
0100
0000
1000
0001
0100
0010
0100
0001
1000
0001
0010
0100
0010
0001
,
1000
0010
0100
0001
1000
0100
0010
0100
1000
0001
0010
0001
1000
0010
0100
0010
,
1000
0001
0010
0100
1000
0010
0100
0010
1000
0100
0010
0001
0100
0010
0100
0001
,
1000
0100
0010
0001
1000
0010
0100
0010
1000
0001
0100
0001
1000
0100
0010
0100
,
1000
0001
0100
0010
1000
0001
0010
0001
1000
0100
0010
0001
1000
0010
1000
0001
,
0010
0100
0010
0001
1000
0010
1000
0001
0100
0010
1000
0001
0010
0100
0010
0001
,
1000
0000
0100
0000
0010
0000
0001
0100
0010
0000
1000
0001
0010
0000
0010
0000
,
0100
1000
0100
1000
0001
0100
0001
1000
0001
0010
0001
1000
0010
0100
0001
1000
,
0001
1000
0100
0010
0100
0010
0001
1000
0010
0100
0010
1000
0100
0010
0001
1000
,
0010
0100
0001
1000
0001
0100
0010
1000
0100
0010
0100
1000
0001
0010
0100
1000
,
0100
1000
0010
0100
0010
0100
0001
1000
0100
0010
0100
1000
0010
1000
0001
0100
,
0010
1000
0010
1000
0001
0010
0001
1000
0001
0100
0001
1000
0100
0010
0001
1000
,
0001
1000
0010
0100
0010
0100
0001
1000
0001
0010
0100
1000
0010
1000
0001
0100
,
0001
1000
0100
0010
0001
1000
0100
1000
0010
0100
0010
1000
0001
1000
0010
0100
,
0010
0100
0001
0010
0001
0010
0100
0010
0001
0100
0010
1000
0001
0010
0100
1000
,
0001
0010
0001
0010
0100
1000
0001
1000
0010
1000
0001
0100
0010
0100
0001
1000
,
0001
1000
0100
0010
0100
0010
0001
1000
0010
0100
0010
1000
0100
1000
0001
0010
,
0001
1000
0010
0100
0001
1000
0010
1000
0100
0010
0001
1000
0001
0010
0100
1000
,
0100
1000
0010
0100
0010
0100
0001
1000
0100
1000
0010
0100
0001
0010
0100
1000
,
0001
0100
0001
0100
0010
1000
0001
1000
0100
1000
0001
0010
0100
0010
0001
1000
,
0001
1000
0010
0100
0010
0100
0001
1000
0001
0010
0100
1000
0010
1000
0001
0100
,
0001
1000
0100
1000
0001
0010
0100
1000
0010
1000
0001
0100
0001
1000
0010
0100
,
0010
0100
0001
0010
0001
0010
0100
1000
0010
0100
0001
0010
0100
1000
0001
0100
,
0010
1000
0010
1000
0001
0010
0001
1000
0001
0100
0001
1000
0100
0010
0001
1000
,
0001
1000
0010
0100
0010
0100
0001
1000
0100
0010
0100
1000
0010
0100
0001
1000
,
0100
0010
0001
1000
0001
0010
0100
1000
0010
0100
0010
1000
0001
0100
0010
1000
,
0010
1000
0100
0010
0100
0010
0001
1000
0010
0100
0010
1000
0100
1000
0001
0010
,
0100
1000
0100
1000
0001
0100
0001
1000
0001
0010
0001
1000
0010
0100
0001
1000
,
0001
1000
0100
0010
0100
0010
0001
1000
0001
0100
0010
1000
0100
1000
0001
0010
,
0001
1000
0010
0100
0001
1000
0010
1000
0100
0010
0100
1000
0001
1000
0100
0010
,
0100
0010
0001
0100
0001
0100
0010
0100
0001
0010
0100
1000
0001
0100
0010
1000
,
0001
0100
0001
0100
0010
1000
0001
1000
0100
1000
0001
0010
0100
0010
0001
1000
,
0001
1000
0010
0100
0010
0100
0001
1000
0100
0010
0100
1000
0010
1000
0001
0100
,
0001
1000
0100
0010
0001
1000
0100
1000
0010
0100
0001
1000
0001
0100
0010
1000
,
0010
1000
0100
0010
0100
0010
0001
1000
0010
1000
0100
0010
0001
0100
0010
1000
,
0001
0010
0001
0010
0100
1000
0001
1000
0010
1000
0001
0100
0010
0100
0001
1000
,
0001
1000
0100
0010
0100
0010
0001
1000
0001
0100
0010
1000
0100
1000
0001
0010
,
0001
1000
0010
1000
0001
0100
0010
1000
0100
1000
0001
0010
0001
1000
0100
0010
,
0100
0000
0010
0000
0001
0000
0100
0000
0001
0000
0100
0000
0010
0000
1000
0000
0100
0000
0010
0000
0002
0003
0100
0000
0020
0030
0100
0000
0002
0003
0010
0000
,
0200
0300
1000
0000
0100
0000
1000
0000
0002
0003
0100
0000
0002
0003
1000
0000
0002
0003
0010
0000
0002
0003
1000
0000
0010
0000
0100
0000
0002
0003
1000
0000
,
0001
0000
1000
0000
0200
0300
0010
0000
0100
0000
0010
0000
0002
0003
1000
0000
0020
0030
0100
0000
0010
0000
1000
0000
0200
0300
0010
0000
0001
0000
1000
0000
,
0020
0030
0100
0000
0001
0000
1000
0000
0001
0000
0100
0000
0020
0030
1000
0000
0200
0300
0010
0000
0100
0000
1000
0000
0001
0000
0010
0000
0200
0300
1000
0000
,
0100
0000
1000
0000
0020
0030
0100
0000
0010
0000
0100
0000
0002
0003
1000
0000
0200
0300
0010
0000
0200
0300
1000
0000
0020
0030
1000
0000
0001
0000
0100
0000
,
0020
0030
1000
0000
0010
0000
1000
0000
0002
0003
0010
0000
0002
0003
1000
0000
0002
0003
0100
0000
0002
0003
1000
0000
0100
0000
0010
0000
0002
0003
1000
0000
,
0001
0000
1000
0000
0020
0030
0100
0000
0010
0000
0100
0000
0002
0003
1000
0000
0002
0003
0010
0000
0100
0000
1000
0000
0020
0030
1000
0000
0001
0000
0100
0000
,
0002
0003
1000
0000
0100
0000
0010
0000
0001
0000
1000
0000
0200
0300
1000
0000
0020
0030
0100
0000
0010
0000
1000
0000
0001
0000
1000
0000
0020
0030
0100
0000
,
0010
0000
0100
0000
0002
0003
0010
0000
0001
0000
0010
0000
0200
0300
0010
0000
0002
0003
0100
0000
0020
0030
1000
0000
0002
0003
0010
0000
0100
0000
1000
0000
,
0002
0003
0010
0000
0001
0000
0010
0000
0200
0300
1000
0000
0002
0003
1000
0000
0020
0030
1000
0000
0002
0003
0100
0000
0010
0000
0100
0000
0002
0003
1000
0000
,
0001
0000
1000
0000
0200
0300
0010
0000
0100
0000
0010
0000
0002
0003
1000
0000
0020
0030
0100
0000
0010
0000
1000
0000
0200
0300
1000
0000
0001
0000
0010
0000
,
0002
0003
1000
0000
0010
0000
0100
0000
0001
0000
1000
0000
0020
0030
1000
0000
0200
0300
0010
0000
0001
0000
1000
0000
0001
0000
0010
0000
0200
0300
1000
0000
,
0100
0000
1000
0000
0020
0030
0100
0000
0010
0000
0100
0000
0002
0003
1000
0000
0200
0300
1000
0000
0020
0030
0100
0000
0002
0003
0010
0000
0100
0000
1000
0000
,
0002
0003
0100
0000
0001
0000
0100
0000
0020
0030
1000
0000
0002
0003
1000
0000
0200
0300
1000
0000
0002
0003
0010
0000
0100
0000
0010
0000
0002
0003
1000
0000
,
0001
0000
1000
0000
0020
0030
0100
0000
0010
0000
0100
0000
0002
0003
1000
0000
0002
0003
0010
0000
0100
0000
1000
0000
0020
0030
1000
0000
0001
0000
0100
0000
,
0002
0003
1000
0000
0100
0000
1000
0000
0001
0000
0010
0000
0200
0300
1000
0000
0020
0030
1000
0000
0001
0000
0100
0000
0001
0000
1000
0000
0020
0030
0100
0000
,
0010
0000
0100
0000
0002
0003
0010
0000
0001
0000
0010
0000
0200
0300
1000
0000
0020
0030
0100
0000
0001
0000
0010
0000
0200
0300
1000
0000
0001
0000
0100
0000
,
0020
0030
1000
0000
0010
0000
1000
0000
0002
0003
0010
0000
0002
0003
1000
0000
0002
0003
0100
0000
0002
0003
1000
0000
0100
0000
0010
0000
0002
0003
1000
0000
,
0001
0000
1000
0000
0020
0030
0100
0000
0010
0000
0100
0000
0002
0003
1000
0000
0200
0300
0010
0000
0100
0000
1000
0000
0020
0030
0100
0000
0001
0000
1000
0000
,
0200
0300
0010
0000
0001
0000
1000
0000
0001
0000
0010
0000
0200
0300
1000
0000
0020
0030
0100
0000
0010
0000
1000
0000
0001
0000
0100
0000
0020
0030
1000
0000
,
0010
0000
1000
0000
0200
0300
0010
0000
0100
0000
0010
0000
0002
0003
1000
0000
0020
0030
0100
0000
0020
0030
1000
0000
0200
0300
1000
0000
0001
0000
0010
0000
,
0200
0300
1000
0000
0100
0000
1000
0000
0002
0003
0100
0000
0002
0003
1000
0000
0002
0003
0010
0000
0002
0003
1000
0000
0010
0000
0100
0000
0002
0003
1000
0000
,
0001
0000
1000
0000
0200
0300
0010
0000
0100
0000
0010
0000
0002
0003
1000
0000
0002
0003
0100
0000
0010
0000
1000
0000
0200
0300
1000
0000
0001
0000
0010
0000
,
0002
0003
1000
0000
0010
0000
0100
0000
0001
0000
1000
0000
0020
0030
1000
0000
0200
0300
0010
0000
0100
0000
1000
0000
0001
0000
1000
0000
0200
0300
0010
0000
,
0100
0000
0010
0000
0002
0003
0100
0000
0001
0000
0100
0000
0020
0030
0100
0000
0002
0003
0010
0000
0200
0300
1000
0000
0002
0003
0100
0000
0010
0000
1000
0000
,
0002
0003
0100
0000
0001
0000
0100
0000
0020
0030
1000
0000
0002
0003
1000
0000
0200
0300
1000
0000
0002
0003
0010
0000
0100
0000
0010
0000
0002
0003
1000
0000
,
0001
0000
1000
0000
0020
0030
0100
0000
0010
0000
0100
0000
0002
0003
1000
0000
0200
0300
0010
0000
0100
0000
1000
0000
0020
0030
1000
0000
0001
0000
0100
0000
,
0002
0003
1000
0000
0100
0000
0010
0000
0001
0000
1000
0000
0200
0300
1000
0000
0020
0030
0100
0000
0001
0000
1000
0000
0001
0000
0100
0000
0020
0030
1000
0000
,
0010
0000
1000
0000
0200
0300
0010
0000
0100
0000
0010
0000
0002
0003
1000
0000
0020
0030
1000
0000
0200
0300
0010
0000
0002
0003
0100
0000
0010
0000
1000
0000
,
0002
0003
0010
0000
0001
0000
0010
0000
0200
0300
1000
0000
0002
0003
1000
0000
0020
0030
1000
0000
0002
0003
0100
0000
0010
0000
0100
0000
0002
0003
1000
0000
,
0001
0000
1000
0000
0200
0300
0010
0000
0100
0000
0010
0000
0002
0003
1000
0000
0002
0003
0100
0000
0010
0000
1000
0000
0200
0300
1000
0000
0001
0000
0010
0000
,
0002
0003
1000
0000
0010
0000
1000
0000
0001
0000
0100
0000
0020
0030
1000
0000
0200
0300
1000
0000
0001
0000
0010
0000
0001
0000
1000
0000
0200
0300
0010
0000
,
0100
0000
0010
0000
0002
0003
0100
0000
0001
0000
0100
0000
0020
0030
1000
0000
0200
0300
0010
0000
0002
0003
0100
0000
0020
0030
1000
0000
0001
0000
0010
0000
,
0100
0000
1000
0010
1000
0100
0100
0010
,
0010
0001
0001
1000
0010
0010
0100
0000
,
0001
0001
0001
1000
1000
0000
0000
0000
,
0000
0000
0000
0000
,
0000
0000
0MM0
0000
;
