#TITLE:Demonheart;
#SUBTITLE:;
#ARTIST:Luca Turilli;
#TITLETRANSLIT:;
#SUBTITLETRANSLIT:;
#ARTISTTRANSLIT:;
#CREDIT:Arvin;
#BANNER:moonstar.png;
#BACKGROUND:../Rhapsody-bg.png;
#LYRICSPATH:;
#CDTITLE:;
#MUSIC:Luca Turilli - Demonheart.ogg;
#OFFSET:0.036;
#SAMPLESTART:21.653;
#SAMPLELENGTH:12.000;
#SELECTABLE:YES;
#BPMS:0.000=180.000;
#STOPS:;
#BGCHANGES:;
// cache tags:
#FIRSTBEAT:33.000;
#LASTBEAT:905.000;
#SONGFILENAME:Songs/Rhapsody of Fire/Demonheart - [Arvin]/demonheart.sm;
#HASMUSIC:1;
#HASBANNER:1;
#MUSICLENGTH:308.715;
// end cache tags

//---------------dance-single - ----------------
#NOTES:
     dance-single:
     :
     Challenge:
     14:
     1.000,1.000,0.324,0.172,1.000,2405.000,100.000,53.000,0.000,1.000:

0000
0000
0000
0000
,
0000
0000
0000
0000
,
0000
0000
0000
0000
,
0000
0000
0000
0000
,
0000
0000
0000
0000
,
0000
0000
0000
0000
,
0000
0000
0000
0000
,
0000
0000
0000
0000
,
0000
0000
1000
1000
0010
1000
1000
0001
,
1000
1000
0100
1000
1000
0100
1000
0001
,
1000
0001
1000
1000
0100
1000
1000
0001
,
1000
1000
0010
1000
1000
0100
1000
0001
,
0100
0001
1000
1000
0010
1000
1000
0001
,
1000
1000
0100
1000
1000
0100
1000
0001
,
1000
0001
1000
1000
0100
1000
1000
0001
,
1000
1000
0010
1000
1000
0100
1000
0001
,
0100
0001
1001
0000
1001
1000
0010
0000
,
0100
0001
0101
0000
0010
0100
1000
0000
,
1000
0010
1010
0000
1010
1000
0100
0000
,
0010
0000
0001
0000
1001
0000
0000
0000
0010
0000
1000
0000
0001
0010
0001
0010
,
0001
1000
0100
0010
0001
0010
0100
1000
0010
0100
0001
0010
0100
1000
0001
0010
,
0001
1000
0100
1000
0010
0100
0001
0010
0100
1000
0001
0010
0001
1000
0100
1000
,
0010
0100
0001
0010
0100
1000
0001
1000
0001
0100
0010
1000
0100
0010
0001
0100
,
0010
1000
0001
1000
0001
0100
0010
1000
0100
0010
0001
0100
0010
1000
0100
1000
,
0010
0100
0001
0010
0100
1000
0100
0010
0001
1000
0100
1000
0010
0100
0001
0010
,
0001
1000
0100
1000
0100
0010
0001
0100
0010
0100
0010
1000
0001
0010
0100
1000
,
0001
0010
0001
0010
0100
1000
0001
1000
0100
0010
0001
1000
0010
0100
0010
1000
,
0001
0010
0100
1000
0001
0100
0010
1000
0001
1000
0001
0010
0100
1000
0001
1000
,
0010
0100
0101
0000
0010
0000
1000
0100
,
1000
0010
4010
0000
3000
0000
1001
1001
,
1100
0000
0100
0000
0020
0000
0031
0010
0001
1000
0200
0000
0310
0100
1000
0010
,
0200
0000
0301
1000
0001
0100
0020
0000
1030
0100
1000
0000
0100
0000
0010
0000
,
0004
0000
0000
0000
2003
0000
3100
0010
0100
1000
0002
0000
0103
0010
0100
0001
,
2000
0000
3010
0100
0010
1000
0200
0000
0310
0001
0010
0100
2000
0000
3100
0010
,
0004
0000
0000
0000
0203
0000
0301
0100
0001
1000
0020
0000
0130
0010
1000
0100
,
0020
0000
0031
1000
0001
0010
0200
0000
1300
0010
1000
0000
0010
0000
0100
0000
,
0004
0000
0000
0000
2003
0000
3010
0100
0010
1000
0002
0000
0013
0100
0010
0001
,
2000
0000
3100
0010
0100
1000
0020
0000
0130
0001
0100
0010
2000
0000
3010
0100
,
0004
0000
0000
0000
1003
0000
0001
0010
0001
0000
1000
0100
1000
0000
0010
0100
,
0010
0000
1000
0100
1000
0000
0001
0010
0001
0000
0100
0010
0100
0000
0001
0010
,
0001
0000
1000
0010
2000
0000
0000
0000
0000
0000
0000
0000
0000
0000
0000
0000
,
0000
3002
0000
0000
,
0000
0000
0000
0000
0103
0000
0001
0010
0100
0000
1000
0001
0010
0000
0001
1000
,
0010
0000
1000
0100
0010
0000
0001
0100
0010
0100
0001
0010
0100
1000
0100
0010
,
0001
1000
0010
0100
0002
0000
0000
0000
0000
0000
0000
0000
0000
0000
0000
0000
,
0000
2003
0000
0000
,
0000
0000
0000
0000
3001
0000
0100
0001
0010
0000
0100
1000
0001
0000
0100
0010
,
1000
0000
0100
0010
0001
0000
0100
0010
1000
0000
0001
0010
0100
0000
1000
0001
,
0010
0000
0100
0010
0002
0000
0000
0000
0000
0000
0000
0000
0000
0000
0000
0000
,
0000
2003
0000
0000
,
0000
0000
0000
0000
3001
0000
0100
0010
0100
0000
0001
0010
0001
0000
1000
0010
,
1000
0000
0001
0100
0001
0000
1000
0100
0010
0001
0010
0100
1000
0001
0100
0001
,
1000
0100
1000
0010
0200
0000
0000
0000
0000
0000
0000
0000
0000
0000
0000
0000
,
0000
0000
0000
0000
0302
0000
0000
0000
0000
0000
0000
0000
1003
0000
0100
1000
,
0100
1000
0010
0100
0001
0010
0100
1000
0010
0100
0001
1000
0100
0010
0001
0100
,
0010
1000
0001
0100
0001
0010
0100
1000
0100
0010
0001
1000
0001
0100
0010
0100
,
0001
0100
0010
1000
0100
0010
0001
1000
0010
0100
0001
0010
0100
1000
0001
0010
,
0001
0100
0010
1000
0010
0100
0001
1000
0001
0010
0100
0010
0001
1000
0001
0010
,
0100
1000
0001
0100
0010
1000
0010
0100
0001
0010
0100
1000
0001
0100
0010
0100
,
0001
1000
0100
0010
0001
0100
0010
1000
0001
1000
0001
0100
0001
0010
0001
1000
,
0010
1000
0001
0100
0010
1000
0010
0100
0001
0010
0100
1000
0001
0100
0010
0100
,
0001
1000
0100
0010
0001
0100
0010
1000
0001
1000
0001
0100
0001
0010
0001
1000
,
0010
1000
0001
0100
0001
0000
0001
0000
0010
0000
0010
0000
0110
0000
0100
0000
,
1000
1000
1001
0001
0001
0100
0110
0010
,
0010
1000
1001
0001
0010
0010
0110
0100
,
1000
0000
1000
0000
1010
0000
0010
0000
0100
0000
0100
0000
0001
0010
0100
1000
,
0001
0010
0100
1000
0001
0100
0001
0100
0010
1000
0010
1000
0001
0010
0001
0010
,
0100
1000
0100
1000
0010
0100
0010
0100
0001
1000
0001
1000
0100
0010
0100
0010
,
0001
0100
0001
0100
0010
1000
0100
0010
0001
1000
0001
0010
0100
1000
0100
0010
,
0001
0100
0010
1000
0001
0010
0100
1000
0010
0100
0001
0100
0010
1000
0100
0010
,
0001
1000
0010
0100
0001
0010
0001
0010
0100
1000
0100
1000
0001
0100
0001
0100
,
0010
1000
0010
1000
0100
0010
0100
0010
0001
1000
0001
1000
0010
0100
0010
0100
,
0001
0010
0001
0010
0100
1000
0010
0100
0001
1000
0001
0100
0010
1000
0010
0100
,
0001
0010
0100
1000
0001
0100
0010
1000
0100
0010
0001
0010
0100
1000
0010
0100
,
0001
1000
0100
0010
0001
0000
0000
0000
1001
0000
1000
0000
0010
0000
0000
0000
,
0100
0001
0101
0000
0101
0001
0010
0000
,
0100
1000
1001
0000
1001
1000
0010
0000
,
0100
0000
0001
0000
0101
0000
0000
0000
0011
0000
0010
0000
0100
1000
0100
1000
,
0001
0100
0001
0100
0001
1000
0100
0010
0001
0010
0100
1000
0010
0100
0001
0010
,
0100
1000
0001
0010
0001
1000
0100
1000
0010
0100
0001
0010
0100
1000
0001
0010
,
0001
1000
0100
1000
0010
0100
0001
0010
0100
1000
0001
1000
0001
0100
0010
1000
,
0100
0010
0001
0100
0010
1000
0001
1000
0001
0100
0010
1000
0100
0010
0001
0100
,
0010
1000
0100
1000
0010
0100
0001
0010
0100
1000
0100
0010
0001
1000
0100
1000
,
0010
0100
0001
0010
0001
1000
0100
1000
0100
0010
0001
0100
0010
0100
0010
1000
,
0001
0010
0100
1000
0001
0010
0001
0010
0100
1000
0001
1000
0100
0010
0001
1000
,
0010
0100
0010
1000
0001
0010
0100
1000
0001
0100
0010
1000
0001
1000
0001
0010
,
0100
1000
0001
1000
0010
0000
0000
0000
0100
0000
0000
0000
0001
0000
0000
0000
,
0000
0000
0001
0100
0040
0000
0000
0000
0000
0000
1030
0001
1000
0000
0010
0000
,
0100
0000
0001
0000
0020
0000
0031
0010
0001
1000
0200
0000
0310
0100
1000
0010
,
0200
0000
0301
1000
0001
0100
0020
0000
1030
0100
1000
0000
0100
0000
0010
0000
,
0004
0000
0000
0000
2003
0000
3100
0010
0100
1000
0002
0000
0103
0010
0100
0001
,
2000
0000
3010
0100
0010
1000
0200
0000
0310
0001
0010
0100
2000
0000
3100
0010
,
0004
0000
0000
0000
0203
0000
0301
0100
0001
1000
0020
0000
0130
0010
1000
0100
,
0020
0000
0031
1000
0001
0010
0200
0000
1300
0010
1000
0000
0010
0000
0100
0000
,
0004
0000
0000
0000
2003
0000
3010
0100
0010
1000
0002
0000
0013
0100
0010
0001
,
2000
0000
3100
0010
0100
1000
0020
0000
0130
0001
0100
0010
2000
0000
3010
0100
,
0004
0000
0000
0000
1003
0000
0001
0010
0001
0000
1000
0100
1000
0000
0010
0100
,
0010
0000
1000
0100
1000
0000
0001
0010
0001
0000
0100
0010
0100
0000
0001
0010
,
0001
0000
1000
0010
2000
0000
0000
0000
0000
0000
0000
0000
0000
0000
0000
0000
,
0000
3002
0000
0000
,
0000
0000
0000
0000
0103
0000
0001
0010
0100
0000
1000
0001
0010
0000
0001
1000
,
0010
0000
1000
0100
0010
0000
0001
0100
0010
0100
0001
0010
0100
1000
0100
0010
,
0001
1000
0010
0100
0002
0000
0000
0000
0000
0000
0000
0000
0000
0000
0000
0000
,
0000
2003
0000
0000
,
0000
0000
0000
0000
3001
0000
0100
0001
0010
0000
0100
1000
0001
0000
0100
0010
,
1000
0000
0100
0010
0001
0000
0100
0010
1000
0000
0001
0010
0100
0000
1000
0001
,
0010
0000
0100
0010
0002
0000
0000
0000
0000
0000
0000
0000
0000
0000
0000
0000
,
0000
2003
0000
0000
,
0000
0000
0000
0000
3001
0000
0100
0010
0100
0000
0001
0010
0001
0000
1000
0010
,
1000
0000
0001
0100
0001
0000
1000
0100
0010
0001
0010
0100
1000
0001
0100
0001
,
1000
0100
1000
0010
0200
0000
0000
0000
0000
0000
0000
0000
0000
0000
0000
0000
,
0000
0000
0000
0000
0302
0000
0000
0000
0000
0000
0000
0000
1003
0000
0100
1000
,
0100
1000
0010
0100
0001
0010
0100
1000
0010
0100
0001
1000
0100
0010
0001
0100
,
0010
1000
0001
0100
0001
0010
0100
1000
0100
0010
0001
1000
0001
0100
0010
0100
,
0001
0100
0010
1000
0100
0010
0001
1000
0010
0100
0001
0010
0100
1000
0001
0010
,
0001
0100
0010
1000
0010
0100
0001
1000
0001
0010
0100
0010
0001
1000
0001
0010
,
0100
1000
0001
0100
0010
1000
0010
0100
0001
0010
0100
1000
0001
0100
0010
0100
,
0001
1000
0100
0010
0001
0100
0010
1000
0001
1000
0001
0100
0001
0010
0001
1000
,
0010
1000
0001
0100
0010
1000
0010
0100
0001
0010
0100
1000
0001
0100
0010
0100
,
0001
1000
0100
0010
0001
0100
0010
1000
0001
1000
0001
0100
0001
0010
0001
1000
,
0010
1000
0001
0100
0001
0000
0001
0000
0010
0000
0010
0000
0110
0000
0100
0000
,
1000
1000
1001
0001
0001
0100
0110
0010
,
0010
1000
1001
0001
0010
0010
0110
0100
,
1000
0000
1000
0000
1010
0000
0010
0000
0100
0000
0100
0001
1000
0000
1000
0000
,
0010
0000
0100
0000
0001
0100
0001
0100
0010
1000
0010
1000
0001
0010
0001
0010
,
0100
1000
0100
1000
0010
0100
0010
0100
0001
1000
0001
1000
0100
0010
0100
0010
,
0001
0100
0001
0100
0010
1000
0100
0010
0001
1000
0001
0010
0100
1000
0100
0010
,
0001
0100
0010
1000
0001
0010
0100
1000
0010
0100
0001
0100
0010
1000
0100
0010
,
0001
1000
0010
0100
0001
0010
0001
0010
0100
1000
0100
1000
0001
0100
0001
0100
,
0010
1000
0010
1000
0100
0010
0100
0010
0001
1000
0001
1000
0010
0100
0010
0100
,
0001
0010
0001
0010
0100
1000
0010
0100
0001
1000
0001
0100
0010
1000
0010
0100
,
0001
0010
0100
1000
0001
0100
0010
1000
0100
0010
0001
0010
0100
0000
0100
0000
,
1000
1000
1001
0000
1001
1000
0010
0000
,
0000
0000
0100
0001
0101
0000
0000
0000
1100
0000
0100
0000
1000
0000
0000
0000
,
0000
0000
0001
0010
0011
0000
0000
0000
1010
0000
0010
0000
1000
0000
0000
0000
,
0000
0000
0010
0100
0101
0000
0000
0000
1010
0000
0010
0000
1000
0000
0001
0000
,
0010
0000
0100
0000
1000
0001
0010
0100
1000
0100
0010
0001
0100
0010
1000
0100
,
0010
0001
1000
0100
1000
0001
0010
0001
0100
0010
1000
0100
0010
0001
1000
0100
,
1000
0001
0010
0001
0100
0010
1000
0100
0010
0001
1000
0001
1000
0010
0100
0001
,
0010
0100
1000
0010
0100
0001
1000
0001
1000
0010
0100
0001
0010
0100
1000
0010
,
0100
0001
0010
0001
0100
0010
1000
0100
0010
0001
0010
0100
1000
0001
0010
0001
,
0100
0010
1000
0100
1000
0001
0010
0001
0010
0100
1000
0010
0100
0010
0100
0001
,
1000
0100
0010
0001
1000
0100
1000
0100
0010
0001
1000
0001
0010
0100
1000
0001
,
0100
0010
0100
0001
1000
0100
0010
0001
1000
0010
0100
0001
1000
0001
1000
0100
,
0010
0001
1000
0001
0100
0000
0000
0000
0001
0000
0000
0000
0010
0000
0000
0000
,
0000
0000
0000
0000
0014
0000
0000
0000
0003
0000
1000
0100
0010
0000
0001
0000
,
0100
0001
1001
0001
0100
0000
0101
0000
,
0001
1000
0010
0100
0001
0010
0110
0000
,
0000
0000
1100
0100
0000
0000
1001
1000
,
0100
1000
0010
0100
0101
0000
1000
0100
,
1100
0000
0011
0010
0001
0000
1010
0010
,
1000
0000
0001
0010
0100
1000
0100
0010
,
0001
1000
0010
1000
0001
0010
0100
1000
,
0001
0100
0101
0001
0010
0100
1100
1000
,
0010
0100
0101
0001
0010
0100
1100
1000
,
0010
0100
0101
0001
0010
0100
1100
1000
,
0010
0100
0110
0010
1000
0100
0110
0010
,
0001
1000
1010
0010
0100
0001
0101
0100
,
0010
1000
0001
0010
0100
1000
0100
0010
,
0001
1000
0010
1000
0001
0010
0100
1000
,
0001
0100
0001
0010
0010
0010
0010
0001
,
1000
0010
0100
0001
0010
0100
1000
0001
,
0100
0001
1000
0010
0100
0001
0010
0100
,
1000
0100
0010
0001
1000
0001
0010
0100
,
1000
0100
0010
0100
1000
0010
0100
0001
,
0100
0010
1000
0010
0100
0001
1000
0100
,
0010
0001
0100
0010
0100
0001
0010
0100
,
1000
0100
0010
0100
1000
0010
0100
0001
,
0010
0001
1000
0100
0010
0001
0101
0100
,
0110
0010
1010
1000
1100
0100
0110
0010
,
0011
0000
0001
0000
0101
0000
0100
0000
0110
0000
0010
0000
1000
0100
1000
0010
,
1000
0001
1000
0010
1000
0100
1000
0010
1000
0001
1000
0010
1000
0100
1000
0010
,
1000
0001
1000
0100
0010
0000
0001
0000
1000
0000
0010
0000
1010
0000
1000
0000
,
1001
0001
0101
0100
0110
0010
1001
1000
,
1010
0000
0010
0000
0110
0000
0100
0000
0101
0000
0001
0000
1000
0010
1000
0100
,
1000
0001
1000
0100
1000
0010
1000
0100
1000
0001
1000
0100
1000
0010
1000
0100
,
1000
0001
1000
0010
1000
0000
0100
0000
0010
0000
0100
0000
1100
0000
1000
0000
,
1010
0010
0110
0100
0101
0001
0011
0010
,
0110
0000
0100
0000
1100
0000
1000
0000
1010
0000
0010
0000
1000
0100
1000
0010
,
1000
0001
1000
0010
1000
0100
1000
0010
1000
0001
1000
0010
1000
0100
1000
0010
,
1000
0001
1000
0100
0010
0000
0001
0000
0010
0000
0100
0000
1000
0000
0100
0000
,
0010
0100
1000
0010
0100
0001
1000
0010
,
0100
0000
0010
0000
1000
0000
0100
0000
0010
0000
0001
0000
1000
0100
1000
0010
,
1000
0001
1000
0010
1000
0100
1000
0010
1000
0001
1000
0010
1000
0100
1000
0010
,
1000
0001
1000
0100
0010
0000
0001
0000
0010
0000
0001
0000
1000
0100
0010
0100
,
1000
0100
0010
0001
0100
0010
1000
0100
0010
0000
0001
0000
1000
0010
0100
0010
,
1000
0010
0100
0001
0010
0100
1000
0010
0100
0000
0001
0000
1000
0100
1000
0010
,
1000
0100
1000
0010
0100
0001
0010
0100
1000
0000
0010
0000
0100
0001
0100
0010
,
0100
0001
0010
0100
1000
0010
0100
0001
1000
0000
0010
0000
0100
0001
0100
0010
,
0100
0001
0010
0100
0020
0000
0000
0000
0000
0000
0000
0000
1031
0000
0000
0000
,
1010
0000
0000
0000
1100
0000
0000
0000
1000
0100
1000
0100
0010
0000
0000
0000
,
0001
0100
0001
0100
0010
0000
0000
0000
1000
0001
1000
0001
1000
0001
1000
0001
,
1000
0001
1000
0001
0100
0000
0000
0000
0001
0010
0001
0010
0100
0000
0000
0000
,
1000
0100
1000
0100
0010
0000
0000
0000
0001
0100
0001
0100
0001
0100
0001
0100
,
0001
0100
0001
0100
0010
0000
0000
0000
1000
0010
1000
0010
0100
0000
0000
0000
,
0001
0010
0001
0010
0100
0000
0000
0000
1000
0001
1000
0001
1000
0001
1000
0001
,
1000
0001
1000
0001
0010
0000
0000
0000
0001
0100
0001
0100
0010
0000
0000
0000
,
1000
0010
1000
0010
0100
0000
0000
0000
0001
0010
0001
0010
0001
0010
0001
0010
,
0001
0010
0001
0010
0100
0000
0000
0000
1000
0100
1000
0100
0010
0000
0000
0000
,
0100
1000
0100
1000
0001
0000
0000
0000
0001
1000
0001
1000
0001
0000
0001
0000
,
0001
0001
1001
0000
1001
0001
0010
0000
,
0100
1000
1100
0000
1100
0100
0010
0000
,
0001
0100
0101
0000
0101
0100
0010
0000
,
1010
0000
1000
0000
0100
0000
0000
0000
0110
0000
0100
0000
1000
0000
0001
0100
,
0001
0100
0010
1000
0001
1000
0100
0010
0001
0010
0100
1000
0010
0100
0001
0010
,
0100
1000
0001
0010
0001
1000
0100
1000
0010
0100
0001
0010
0100
1000
0001
0010
,
0001
1000
0100
1000
0010
0100
0001
0010
0100
1000
0001
1000
0001
0100
0010
1000
,
0100
0010
0001
0100
0010
1000
0001
1000
0001
0100
0010
1000
0100
0010
0001
0100
,
0010
1000
0100
1000
0010
0100
0001
0010
0100
1000
0100
0010
0001
1000
0100
1000
,
0010
0100
0001
0010
0001
1000
0100
1000
0100
0010
0001
0100
0010
0100
0010
1000
,
0001
0010
0100
1000
0001
0010
0001
0010
0100
1000
0001
1000
0100
0010
0001
1000
,
0010
0100
0010
1000
0001
0010
0100
1000
0001
0100
0010
1000
0001
1000
0001
0010
,
0100
1000
0001
1000
0001
1000
0100
0010
0001
0010
0100
1000
0010
0100
0001
0010
,
0100
1000
0001
0010
0001
1000
0100
1000
0010
0100
0001
0010
0100
1000
0001
0010
,
0001
1000
0100
1000
0010
0100
0001
0010
0100
1000
0001
1000
0001
0100
0010
1000
,
0100
0010
0001
0100
0010
1000
0001
1000
0001
0100
0010
1000
0100
0010
0001
0100
,
0010
1000
0100
1000
0010
0100
0001
0010
0100
1000
0100
0010
0001
1000
0100
1000
,
0010
0100
0001
0010
0001
1000
0100
1000
0100
0010
0001
0100
0010
0100
0010
1000
,
0001
0010
0100
1000
0001
0010
0001
0010
0100
1000
0001
1000
0100
0010
0001
1000
,
0010
0100
0010
1000
0001
0010
0100
1000
0001
0100
0010
1000
0001
1000
0001
0010
,
0100
1000
0001
1000
0010
0000
0000
0000
0100
0000
0000
0000
0001
0010
0100
1000
,
0100
0010
0001
1000
0004
0003
0001
0000
0100
0000
0001
0000
0001
0000
1000
0000
,
0001
0001
0010
0001
0001
0100
0001
0001
,
0010
0100
1000
0010
1000
1000
0100
1000
,
1000
0010
1000
1000
0001
1000
0001
0010
,
0001
0100
0010
0010
1000
0010
0010
0100
,
0010
0010
1000
0000
0000
0000
0000
0000
;
