#TITLE:FOREVER YOUNG;
#SUBTITLE:Initial D;
#ARTIST:Symbol;
#TITLETRANSLIT:;
#SUBTITLETRANSLIT:;
#ARTISTTRANSLIT:;
#CREDIT:;
#BANNER:bn.JPG;
#BACKGROUND:bg.JPG;
#LYRICSPATH:;
#CDTITLE:kevcdms4.png;
#MUSIC:Forever Young.mp3;
#OFFSET:-0.080;
#SAMPLESTART:36.899;
#SAMPLELENGTH:12.000;
#SELECTABLE:YES;
#BPMS:0.000=157.980,1.000=78.980,15.500=61.980,16.000=41.200,16.500=28.500,17.000=157.980,18.500=157.940,299.000=78.980,315.500=157.980;
#STOPS:77.000=0.260
,108.000=0.360
,204.500=0.560
,230.000=0.200
,231.000=0.200
,232.000=0.300
,375.500=0.300
;
#BGCHANGES:;
// cache tags:
#FIRSTBEAT:1.000;
#LASTBEAT:391.500;
#SONGFILENAME:Songs/cedric step/Forever Young/Forever Young.sm;
#HASMUSIC:1;
#HASBANNER:1;
#MUSICLENGTH:170.487;
// end cache tags

//---------------dance-single - Copied from Copied f----------------
#NOTES:
     dance-single:
     Copied from Copied f:
     Hard:
     12:
     0.928,1.000,0.938,1.000,0.402,759.000,160.000,189.000,0.000,55.000:
0000
0000
0000
0000
0002
0003
2000
3000
0002
0000
0200
0000
0000
0000
0000
1000
,
0313
1000
0000
0000
1000
0000
0100
0000
0021
0000
0100
0000
0000
0000
0000
0000
,
0130
0100
0000
0000
1000
0000
0010
0000
0200
0000
0001
0000
0000
0000
0000
0000
,
0300
0010
0001
0010
0100
0000
0001
0000
0012
0000
1000
0000
0000
0000
0000
0000
,
1000
0000
0000
0000
0000
0000
0000
0000
0000
0000
0000
0000
0100
0000
0000
0000
0000
0000
0000
0000
0000
0000
0000
0000
0010
0000
0000
0000
0000
0000
0000
0000
0000
0000
0000
0000
0100
0000
0000
0000
0010
0000
0000
0000
0000
0003
0000
0000
1000
0000
0000
0000
0000
0000
0000
0000
0000
0000
0000
0000
0000
0000
0000
0000
0000
0000
0000
0000
0000
0000
0000
0000
0000
0000
0000
0000
0000
0000
0000
0000
0000
0000
0000
0000
0000
0000
0000
0000
0000
0000
0000
0000
0000
0000
0000
0000
0101
0000
0000
0000
0000
0000
0000
0000
0000
0000
0000
0000
0000
0000
0000
0000
0000
0000
0000
0000
0000
0000
0000
0000
0000
0000
0000
0000
0000
0000
0000
0000
0000
0000
0000
0000
0000
0000
0000
0000
0000
0000
0000
0000
0000
0000
0000
0000
0110
0000
0000
0000
0000
0000
0000
0000
0000
0000
0000
0000
0000
0000
0000
0000
0000
0000
0000
0000
0000
0000
0000
0000
0000
0000
0000
0000
0000
0000
0000
0000
0000
0000
0000
0000
0000
0000
0000
0000
0000
0000
0000
0000
0000
0000
0000
0000
,
0101
0000
0000
0000
1010
0000
0000
0000
1010
0000
0200
0300
0000
0000
0020
0030
,
0000
0000
0002
0003
0000
0200
0000
0000
1000
0000
0000
0000
0010
0000
0000
0000
,
0010
0000
0000
0000
0010
0000
0000
0000
0310
0000
0200
0300
0000
0000
0020
0030
,
0000
0000
2000
3000
0000
0000
0200
0300
0000
0000
0000
0000
2000
0000
0000
0000
,
0001
3100
0100
0100
,
0100
0001
0010
0100
,
0100
0000
0000
0000
1000
0100
0010
0000
0010
0000
0000
0000
0100
0000
0000
0000
,
0100
0000
0000
0000
0010
0001
1000
0000
0011
0000
0001
0000
0011
0000
0010
0000
,
0110
0100
1100
1000
0110
0010
0101
0010
,
1100
0010
0011
0001
0011
0010
0110
0100
,
0110
0100
1100
0100
0101
0100
1100
0100
,
0101
0100
0110
1000
1100
0010
0110
1000
,
1010
0100
0101
0010
0011
0100
0101
0100
,
0101
0100
1100
0100
0110
1000
1001
0001
,
0101
0000
0100
0000
2002
3003
0020
0000
0030
0000
0200
0000
0300
0000
0002
0000
,
0000
0000
1000
0000
0000
0000
0010
0000
0000
0000
1000
0000
0000
0000
0103
0100
,
0010
0000
1000
0000
0100
0000
0010
0100
,
1000
0000
0010
0000
0000
0000
0010
0000
0000
0000
1100
0000
0000
0000
0100
0100
,
0011
0000
0010
0000
0001
0000
0100
0010
,
0100
0000
0100
0000
0000
0000
0100
0000
0000
0000
0010
0000
0000
0000
1000
0001
,
0100
0000
0100
0000
0001
0000
0100
1000
,
0100
0000
0010
0000
0000
0000
0010
0000
0000
0000
0100
0000
0000
0000
1000
0100
,
1001
0000
0022
0000
0000
0000
2233
0000
0000
3300
0020
0000
0000
0000
0031
0000
,
0200
0300
0002
0003
0200
0300
2000
3000
0200
0300
2000
3000
0200
0300
0002
0003
,
0020
0030
0002
0003
0020
0030
2000
3000
0020
0030
0200
0300
0020
0030
0002
0003
,
0200
0300
0002
0003
0020
0030
0020
0030
0200
0300
0200
0300
2000
3000
2000
3000
,
0002
0003
0002
0003
2000
3000
0002
0003
0200
0300
0020
0030
2000
3000
0020
0030
,
0020
0030
0200
0300
0200
0300
0020
0030
0200
0300
0020
0030
0002
0003
0200
0300
,
0200
0300
2000
3000
2000
3000
0020
0030
0020
0030
0200
0300
2000
3000
0020
0030
,
0200
0300
0002
0003
0200
0300
0020
0030
0200
0300
0002
0003
0002
0003
2000
3000
,
2000
3000
0020
0030
0020
0030
0200
0300
0200
0300
0002
0003
0020
0030
0110
0000
,
1100
0010
0010
1100
,
1100
0000
0110
0000
0011
0000
0000
0110
,
1001
0000
0110
0000
1000
0000
0100
0010
,
0100
0001
0010
0001
0100
0000
1000
0000
0010
0000
0100
0000
0010
0000
1000
0000
,
0100
0101
1100
1000
,
0100
0000
0110
0000
0011
0000
0000
0020
,
0030
0100
0000
1001
0110
0000
1001
0000
,
0001
0000
1000
0010
0001
0100
1000
0000
0000
0000
1001
0000
0000
0000
0101
0000
,
1100
0000
1000
0100
1000
0100
0010
0010
,
0100
0100
0001
0010
0010
0100
1000
0100
,
0010
0000
0100
0000
1000
0000
0100
1000
,
0010
0000
1000
0000
0001
1000
0010
1000
0001
0000
0010
0000
0001
0000
1000
0000
,
0010
0100
0001
0100
1000
0100
0110
0000
,
1100
0000
0000
0100
0000
0001
0000
2020
,
0000
3030
0022
0000
0033
0110
0000
0011
,
0000
0000
1100
0000
0000
0000
0000
0000
0110
0000
0001
0000
1100
0000
0010
0100
,
1001
0010
0100
0000
0110
0000
0001
0000
0110
0000
0010
0000
1010
0000
0100
0000
,
0010
0001
0100
0010
1000
0000
0010
0000
1000
0000
0100
0000
0001
0000
0010
0000
,
0100
0000
1000
0000
0010
0000
0100
0000
0001
1000
0010
1000
0001
0000
0100
0000
,
0010
1000
0100
1000
0010
0100
0010
0100
,
0010
0000
0100
0000
0010
0000
0100
0000
0001
0000
0010
0001
0100
0001
1000
0000
,
1000
0100
0010
0001
1001
0101
0110
1001
,
0110
0000
0000
0000
2000
3000
0000
0000
0200
0300
0000
0000
0020
0030
0000
0000
,
0002
0010
0100
0010
1000
0100
0010
1000
0100
1000
0100
1000
0010
0100
0013
0100
,
1000
0100
0010
0000
0001
0000
0000
0000
0010
0000
0000
0000
0100
0000
0000
0000
,
2100
0010
0001
0010
0100
0010
0001
0010
0100
0010
0001
0010
0100
0010
3100
0010
,
0001
0100
1000
0000
0100
0000
0010
0000
,
0012
0100
0010
0100
1000
0100
0013
0000
0201
0010
1000
0010
0001
0010
1000
0010
,
0301
1000
0100
0000
1000
0000
0000
0000
1000
0000
0000
0000
0010
0000
0000
0000
,
0210
0001
0010
1000
0310
0000
0001
1000
0020
0100
0001
1000
0100
0001
1000
0001
,
0130
0010
0001
0000
0020
0000
0000
0000
0230
0000
0000
0000
2300
0000
0000
0000
,
3010
0010
0110
0100
0110
0010
0110
0100
,
0101
0001
0002
0000
0023
0000
0230
0000
,
1300
0000
0100
0000
0010
0000
0001
0000
1000
0010
0100
0000
0010
0100
0001
0000
,
1000
0100
0020
0030
0020
0000
0032
0000
,
0203
0000
0300
0001
0220
0000
0000
0000
,
0000
0330
0000
0000
0200
0000
0300
0000
0200
0000
0000
0000
2300
0000
0000
0000
,
3020
0000
0030
1000
0200
0000
0000
0000
,
0300
0000
0000
0000
1000
0000
0000
0000
0100
0000
0000
0000
0020
0000
0001
0100
,
1000
0100
0001
0100
0031
0000
0000
0000
0001
0000
0010
0000
0210
0000
1000
0010
,
0001
0010
1000
0010
0301
0000
0000
0000
1000
0000
0010
0000
0020
0000
0100
1000
,
0001
1000
0100
0001
0130
0000
0000
0000
0100
0000
0001
0000
0120
0000
0001
0100
,
1000
0100
0001
0100
1000
0100
0001
0100
1000
0100
0001
0100
1000
0031
1100
0020
,
2030
3000
0110
0002
2003
3000
0110
0002
0203
0300
1010
0200
0320
0030
1100
0020
,
0230
0300
1001
0200
2300
3000
0110
0002
0023
0030
1100
0020
2030
3000
0110
0002
,
0203
0300
1001
0200
0320
0030
1100
0002
2003
3000
0110
2000
3200
0300
0011
2000
,
3020
0030
0101
0020
2030
3000
0101
0020
0230
0300
1001
0200
0302
0003
0110
0002
,
2003
3000
0101
2000
3200
0300
1010
0200
0320
0030
1100
0002
2003
3000
0110
2000
,
3200
0300
0011
0200
2300
3000
0011
0200
2300
3000
0011
2000
3020
0030
1100
0020
,
0032
0003
1100
0020
0230
0300
0011
2000
3200
0300
1010
0002
2003
3000
0110
0002
,
0203
0300
1010
0200
2300
3000
0110
0000
0000
0000
0010
0000
0000
0000
0010
0000
,
0110
0100
0101
0001
0110
1000
0110
0010
,
1100
0010
0101
0010
1100
0010
1100
0001
,
1100
0001
1001
0001
0101
0001
1010
1000
,
0110
0001
1100
0001
1100
0001
1010
1000
,
1100
0010
0101
1100
0110
0011
0110
1100
,
0110
0011
0110
1100
0110
0011
0110
0011
,
1100
0110
0011
0110
1100
0110
0011
0110
,
0022
0000
0033
0000
0200
0300
0000
0000
2002
0000
0000
0100
0010
0100
0010
0100
,
0010
0100
0010
0100
0010
0100
0010
0100
0010
0100
0010
0100
0010
0100
0010
0100
,
0010
0100
0010
0100
0010
0100
0010
0100
0010
0100
0010
0100
0010
0100
0010
0100
,
0010
0100
0010
0100
0010
0100
0010
0100
0010
0100
0010
0100
0010
0100
3013
0000
;
