#TITLE:Endless Sacrifice;
#SUBTITLE:;
#ARTIST:Dream Theater;
#TITLETRANSLIT:;
#SUBTITLETRANSLIT:;
#ARTISTTRANSLIT:;
#CREDIT:Darkmage;
#BANNER:endlesssacrifice-bn.png;
#BACKGROUND:endlesssacrifice-bg.png;
#LYRICSPATH:;
#CDTITLE:!darkmagetitle2.png;
#MUSIC:Endless Sacrifice.ogg;
#OFFSET:2.635;
#SAMPLESTART:63.530;
#SAMPLELENGTH:26.800;
#SELECTABLE:YES;
#BPMS:0.000=87.000,183.000=87.250,189.000=180.000,317.000=87.000,422.000=87.250,428.000=180.000,552.000=170.000,554.000=156.000,556.000=160.000,568.000=156.000,664.000=156.250,696.000=103.750,716.000=155.600,732.000=157.000,747.000=156.000,763.000=155.000,770.500=156.000,1008.500=157.000,1009.500=160.000,1049.500=164.000,1053.000=136.000,1057.000=193.500,1123.000=194.000,1609.000=185.000,1618.500=187.000;
#STOPS:;
#BGCHANGES:0.000=endlesssacrifice-bg.png=1.000=0=0=1,
99999=-nosongbg-=1.000=0=0=0 // don't automatically add -songbackground-
;
// cache tags:
#FIRSTBEAT:4.000;
#LASTBEAT:1683.000;
#SONGFILENAME:Songs/Archmage and Dark0wl Hammer of Thor UltraHyperMegaPack/Endless Sacrifice/Endless Sacrifice.sm;
#HASMUSIC:1;
#HASBANNER:1;
#MUSICLENGTH:105.000;
// end cache tags

//---------------dance-single - Darkmage----------------
#NOTES:
     dance-single:
     Darkmage:
     Hard:
     14:
     1.000,1.000,1.000,1.000,1.000,3400.000,624.000,256.000,42.000,21.000:
0000
0000
0000
0000
,
1000
0010
0100
0001
0010
0001
0100
0010
,
1000
0100
0010
0001
1000
0100
0001
0100
,
1000
0010
0100
0001
0010
0001
0100
0010
,
1000
0001
0100
0001
1000
0010
0001
0010
,
1000
0100
0010
0001
1000
0001
0100
0010
,
1000
0100
0010
0001
1000
0010
1000
0100
,
0001
0100
1000
0001
0100
1000
0100
0010
,
1000
0001
0010
0001
0100
1000
0100
0001
,
1000
0000
0100
0000
0001
0000
0100
0000
1000
0000
0010
0000
0001
1000
0001
0000
,
1010
0101
1002
0000
0000
0000
0000
0000
,
2003
3200
0320
0000
0032
0023
0230
0000
,
0320
0032
2003
0000
0000
3000
0002
0023
,
0230
2300
3200
0000
0320
0032
2003
0000
,
0000
3020
0000
0000
1130
0001
0210
0000
,
0000
0000
0000
0000
0000
0300
0020
2030
,
3002
0023
0032
0000
2003
0000
3010
0020
,
0000
0000
0000
2030
3200
0320
0032
0000
,
2003
3020
2030
0000
3002
0023
0230
0000
,
0311
1000
0101
0010
1001
0100
0010
0001
,
1010
0100
0001
0100
1000
0010
0100
0001
,
1010
0001
0100
0010
1000
0001
0100
0001
,
0110
0001
0100
0010
1000
0100
1000
0010
,
0101
0010
1000
0001
1000
0100
0011
1000
,
0101
0010
0001
0010
1100
0001
0100
0010
,
0001
1000
0010
0001
1010
0100
0001
0010
,
0100
1000
0010
0100
1001
0100
0010
1000
,
0001
0010
0001
0100
0011
1000
0010
0100
,
0001
1000
0101
0010
1100
0011
1001
0100
,
1000
0001
0110
0001
1000
0100
0010
0100
,
1000
0001
1100
0010
0100
0001
1010
0100
,
1000
0010
1100
0001
0010
0001
0100
0010
,
1000
0000
0010
0100
0010
0000
1000
0001
1000
0000
0001
1000
0001
0000
1000
0010
,
0101
0110
1010
0001
0010
0001
1100
0010
,
1000
0010
1000
0100
1000
0001
0110
0001
,
0100
0001
1010
0100
1000
0010
0101
0010
,
1000
0001
0010
0001
0100
0010
0100
0001
,
0010
0000
0100
0000
0011
0000
0100
0000
1000
0100
0001
0000
1100
0000
0011
0000
,
1001
0100
0010
0001
1100
0010
0100
0001
,
1000
0100
0010
0100
1001
0010
0100
0010
,
0100
1000
0001
0100
0011
1000
0010
1000
,
0001
0000
0010
0000
0100
1000
0001
0000
1100
0000
0010
0000
0100
0000
1000
0000
,
0101
0010
1001
0100
0010
0001
1100
0010
,
0100
0001
0100
0010
1000
0001
0110
0001
,
0100
0010
1000
0100
0010
0001
1100
0010
,
0100
0001
0100
0010
0100
1000
0101
0010
,
1000
0001
1000
0100
0010
0001
1100
0110
,
0011
1000
0201
0000
0000
0301
0100
0001
,
2000
0000
0000
3100
1000
0100
0002
0000
,
0113
0MM0
1020
0000
0000
0130
0010
0100
,
0002
0000
1003
0010
0100
0001
0020
0000
,
0032
0000
1203
0000
0000
0310
0100
0001
,
0200
0000
0000
0310
0001
1000
0020
0000
,
0131
0M0M
1010
0000
0000
0001
0100
0010
,
2000
0000
3101
1100
0101
1100
1010
0011
,
1010
0011
1002
0000
0000
0103
0001
0100
,
2000
0000
3100
0010
1000
0001
2000
0000
,
3011
00MM
1002
0000
0000
0013
0001
0100
,
0020
0000
0000
0130
0001
1000
0200
0000
,
1310
M0M0
0201
0000
0000
0301
0100
0001
,
0020
0000
0000
1030
0010
0100
0020
0000
,
1130
MM00
0012
0000
0000
1003
0100
1000
,
0020
0000
0000
0000
1030
0000
0001
0100
0001
0000
0101
0000
1010
0000
0101
0000
,
0011
1100
1001
0000
0000
0001
0000
0000
,
1000
0000
0000
0010
0000
0000
0100
0000
,
0001
1000
1100
0000
0000
0100
0000
0000
,
1000
0000
0000
0000
0000
0000
0001
0000
0000
0000
0000
0000
0000
0000
0000
1000
0100
0010
0001
0000
0000
0010
0000
0000
,
0000
0001
0011
0000
0000
0100
0000
0000
,
1000
0001
0000
0010
,
1000
0001
0101
0000
0000
0000
0000
0000
,
0000
0000
0000
0100
0001
0100
0010
0100
0010
1000
0010
1000
,
0001
0000
0010
0000
0001
0000
1100
0000
0000
0000
0000
0000
0000
0000
0000
1000
0000
0000
0000
0000
0000
0000
0000
0000
,
0001
0000
0101
0011
0000
0011
1100
1010
,
0000
0000
1001
0000
0000
0100
0000
0000
,
0010
1000
1010
0000
1100
1100
0000
0011
,
0011
0000
1001
0000
0000
0100
0000
0000
,
0010
0000
1000
0000
0000
0001
0000
0000
,
0010
0100
1100
0000
0000
0000
0000
0000
,
0000
0000
0000
1000
0000
0000
0001
0000
0000
0000
0000
0000
1000
0000
0000
0100
0000
0000
0010
0000
0001
0000
1000
0000
,
0001
0000
0101
0010
0001
0100
1010
0100
,
0010
1000
0001
0010
0100
0001
0110
1000
,
0001
0100
0011
1000
0010
0001
1010
0100
,
0001
0000
0010
0000
0001
0000
1000
0000
0010
0000
0100
0001
1000
0000
0010
0000
,
0100
1000
0001
0100
0011
1100
0101
0010
,
0001
0010
1100
0001
0100
0010
0001
1000
,
0010
0000
0100
0000
1001
0000
0100
0000
0010
0000
1000
0001
0101
0000
0010
0000
,
0100
1000
0011
0100
1000
0100
0010
1000
,
0001
0010
0101
1000
0010
1000
0101
0010
,
0001
0100
1000
0000
0101
0000
1010
0000
1001
0000
1000
0000
0001
0000
0100
0000
,
1001
0010
0001
1000
0001
1000
0100
1000
,
0001
0000
0100
0000
0010
0000
1000
0100
1001
0000
0100
0000
1000
0000
0001
0000
,
1100
0010
0100
0001
1000
0100
1000
0001
,
0110
0000
0001
0000
0100
0000
1000
0100
0011
0000
0001
0100
1010
0000
1010
0101
,
1100
1000
0100
1000
0011
0100
0010
1000
,
0001
0100
0001
0010
1001
0100
0010
0100
,
0011
0100
1000
0001
1100
0010
0100
0011
,
1100
0000
0100
0000
1000
0000
0010
1000
0101
0000
0010
0000
1100
0001
0110
0000
,
0011
0000
1100
0000
0001
0100
1000
0000
0101
0000
0110
0000
1010
0000
0001
0000
,
0100
1000
0101
0010
1000
0101
1100
0010
,
0001
0000
0100
0000
1010
0000
0100
0000
0001
0000
1000
0100
0011
0000
0100
0000
,
1000
0001
0110
0001
0010
1100
0011
0100
,
1000
0000
0100
0000
0010
0000
0001
0000
0000
0000
0000
0000
0101
0000
0000
0000
0000
0000
0010
0000
0000
0000
0000
0000
1000
0000
0000
0000
0000
0000
0001
0000
0000
1000
0000
0000
0101
0000
0000
0000
0000
0000
0001
0000
0000
1000
0000
0000
,
0110
1000
0100
0010
0101
0010
0001
1010
,
0101
0000
1000
0000
0010
0000
0100
0000
0011
0000
0100
0000
1000
0000
0001
0100
,
1010
1000
0100
1000
0011
0100
0011
1100
,
0011
1000
0011
0100
1010
0001
1010
0101
,
0011
0000
0101
0000
1010
0000
1100
0000
1010
0000
0110
0001
1100
0110
0011
0000
,
1002
0000
0000
0000
1003
0010
0002
0000
,
0013
1000
0001
0010
0200
0000
1310
00MM
,
0120
0000
0000
1030
0100
0001
0200
0000
,
0310
0001
1000
0010
0200
0000
0311
M00M
,
0201
0000
0000
0301
0010
1000
0002
0000
,
0000
0013
0100
0001
0200
0000
0311
M0M0
,
2001
0000
0000
3001
0010
1000
0020
0000
,
0131
1010
0101
1010
1100
0011
1100
0011
,
1002
0000
0000
0000
1003
0100
0002
0000
,
0103
0010
0001
1000
0020
0000
0131
M00M
,
2010
0000
0000
3010
1000
0010
0002
0000
,
0013
1000
0100
1000
0020
0000
1130
M0M0
,
0012
0000
0000
1003
0100
0010
0200
0000
,
1300
0010
0100
0010
2000
0000
3101
0MM0
,
1020
0000
0000
0000
0000
0000
1030
0000
0010
0000
0100
0000
0002
0000
1003
0100
,
1000
0100
0001
0000
1000
0010
0001
0000
,
2020
0000
0030
3020
2030
3020
2000
0000
,
3000
2030
3020
2030
0020
3030
1010
M0M0
,
0202
0000
0300
0203
0302
0203
0002
0003
,
0302
0203
0302
0203
0002
0300
0200
0003
,
0322
0000
0030
0023
0032
0023
0002
0000
,
0030
0023
0032
0023
0002
0033
0011
00MM
,
2200
0000
0300
3200
2300
3200
2000
3300
,
1100
0110
0011
0101
1010
0110
0101
0011
,
2200
0000
0300
3200
2300
3200
0320
0000
,
0030
0020
0230
2300
0200
3000
0322
MM33
,
0202
0000
0003
0302
0203
0320
0200
0000
,
0330
0200
0302
0023
0032
0000
2000
3003
,
0202
0000
0300
0203
0302
0023
0002
0000
,
0033
0002
0203
0320
0200
0330
2200
33MM
,
2020
0000
3030
0200
0302
2003
0200
3300
,
1010
0000
0000
0000
0000
0000
0100
0000
0000
0001
0000
0000
0100
0000
0000
0000
0000
0000
0010
0000
0000
0000
0000
0000
1010
0000
0000
0000
0000
0000
0000
0000
0101
0000
0000
0000
0000
0000
0000
0000
1100
0000
0000
0000
0000
0000
0000
0000
,
0101
0000
0000
0000
,
0000
0000
0000
0000
,
0000
0000
0000
0000
,
1000
0010
1000
0000
0001
0000
1000
0000
0012
0000
0000
0000
1003
0100
1000
0000
,
0001
0010
0001
0000
1000
0000
0001
0000
1000
0010
1000
0000
0101
0000
0000
0000
,
0010
1000
0010
0000
1000
0000
0001
0000
1010
0000
0000
0000
1000
0100
1000
0000
,
0001
0000
0000
0010
0000
0000
0001
0000
0000
0000
0000
0000
1000
0000
0000
0000
0000
0000
0001
0000
0010
0000
0100
0000
1010
0000
0000
0000
0110
0000
0000
0000
0101
0000
0000
0000
0011
0000
0000
0000
0000
0000
0000
0000
0000
0000
0000
0000
,
0010
0001
0010
0000
0001
0000
1000
0000
0101
0000
0000
0000
0100
0001
0100
0000
,
0001
1000
0001
0000
1000
0000
0100
0000
1010
1010
1010
0000
0101
0000
0000
0000
,
1000
0100
1000
0000
0010
0000
0100
0000
0011
0000
0000
0000
0001
0100
0001
0000
,
1000
0000
0000
0100
0000
0000
1000
0000
0000
0000
0000
0000
0001
0000
0000
0000
0000
0000
1000
0000
0000
0000
0000
0000
0001
0000
0010
0000
0100
0000
1000
0000
0000
0000
0000
0000
1100
0000
0000
0000
0000
0000
0000
0000
0000
0000
0000
0000
,
1000
0010
1000
0000
0010
0000
1000
0000
1010
0000
0000
0000
0010
1000
0010
0000
,
1000
0010
1000
0000
0010
0000
1000
0000
0010
1000
0010
0000
1010
0000
0000
0000
,
1000
0010
1000
0000
0010
0000
1000
0000
0011
0000
0000
0000
0010
0001
0010
0000
,
0001
0010
0001
0000
1000
0000
0001
0000
1000
0010
1000
0000
1100
0000
0000
0000
,
0010
0001
0010
0000
0001
0000
0010
0000
1100
0000
0000
0000
1000
0100
1000
0000
,
0010
1000
0010
0000
1000
0000
0100
0000
0010
0001
0010
0000
0101
0000
0000
0000
,
0001
0010
0001
0000
1000
0000
0001
0000
1010
0000
0000
0000
1000
0010
1000
0000
,
0100
0001
0010
0001
0100
1000
0100
0010
1000
0001
0010
0001
0100
0010
0100
0001
,
1000
0000
0010
0000
0100
0000
0001
0000
1000
0100
0010
0001
0010
0000
0001
0000
,
1000
0010
1000
0000
0001
0000
1000
0000
0001
0010
0001
0000
0100
0000
0000
0000
,
0001
0000
0010
0000
0001
0000
0100
0000
0010
1000
0010
0000
1000
0000
0001
0000
,
1000
0100
1000
0000
0010
0000
0100
0000
0001
0010
0001
0100
0010
0000
0000
0000
,
1000
0000
0100
0000
1000
0000
0010
0000
0100
0001
0010
0001
0100
0000
0010
0000
,
1000
0100
0010
0000
0100
0000
1000
0000
0001
0100
0010
0000
1000
0000
0000
0000
,
0001
0000
0010
0000
0001
0000
0100
0000
0010
1000
0001
1000
0010
0000
1000
0000
,
0100
0010
0001
0000
1000
0000
0001
0000
0010
0100
1000
0000
0001
0000
0000
0000
,
1000
0010
1000
0001
1000
0010
1000
0001
1000
0000
0001
0000
1000
0000
0000
0000
,
0001
0100
0001
0010
0001
0100
0010
0100
0001
0000
0000
0000
0001
0000
0000
0000
,
0001
0010
0100
1000
0001
1000
0100
0010
0001
0000
1000
0000
0001
0000
0000
0000
,
1000
0100
0010
0001
0010
0100
1000
0000
0011
0000
1100
0000
0101
0000
0000
0000
,
0100
0010
1000
0001
0010
0100
0001
0100
0010
0000
0001
0000
1010
0000
0000
0000
,
0001
0010
0100
1000
0100
0010
0001
1000
0101
0000
0000
0000
1100
0000
0000
0000
,
0001
0100
0010
1000
0100
0010
0001
0010
0100
0000
1000
0000
0011
0000
0000
0000
,
0001
0010
0001
0100
0010
1000
0100
0010
1100
0000
0011
0000
0101
0000
0000
0000
,
1000
0100
0010
0001
0010
0100
1000
0100
0010
0001
0010
0100
,
1000
0000
0010
0000
0100
0000
0001
0000
0110
0000
1000
0000
0001
0000
0010
0000
0100
0000
0010
0000
0001
0000
0100
0010
,
1000
0100
0010
0001
1000
0010
0100
0001
0010
0100
1000
0001
1000
0001
1010
0000
0100
0000
0001
0000
0010
0000
0001
0000
,
1000
0000
0010
0000
0100
0000
0010
0000
1000
0000
0100
0000
1000
0000
0001
0010
0100
1000
0001
0000
1000
0000
1001
0000
,
0100
0001
1000
0010
0100
0001
1000
0010
0100
0001
0100
0001
,
0010
0100
1100
0010
0100
1000
0010
0100
,
0001
0000
1100
0000
1000
0000
0100
0000
1000
0000
0010
0000
0100
0000
0001
0010
,
0000
0011
0001
1000
0010
0100
0010
1000
,
1100
0000
0100
0000
1000
0000
0010
0000
0100
0000
0010
0000
0001
1000
0000
0000
,
1100
1000
0001
0100
0010
1000
0100
1100
,
1000
0000
0001
0000
0100
0000
0010
0000
1000
0000
0001
0100
0000
0000
1100
0000
,
1000
0001
0100
0010
1000
0100
1100
1000
,
0001
0000
0100
0000
0010
0000
1000
0000
0010
0100
0000
0000
1100
0000
0110
0000
,
0011
1100
0110
0011
1100
0110
0011
1100
,
0110
0000
0011
0000
1100
0000
0110
0000
0011
0000
1100
0000
0011
0000
1100
0011
,
0000
0101
0110
1010
0110
0011
0110
1100
,
0110
0011
0101
1010
0110
0101
0011
0110
,
1100
0000
0000
1010
0000
0000
0110
0000
0000
0101
0000
0000
0011
0000
0000
0110
0000
0000
1010
0000
0000
0001
0000
0100
,
0000
0000
0010
0000
0000
0000
1000
0000
0000
0000
0001
0000
0000
0000
0010
0000
0000
0000
0001
0000
0000
0000
0100
0000
0000
0000
0010
0000
0000
0000
1000
0000
0000
0000
0000
0000
0100
0000
0000
0000
0000
0000
1000
0000
0000
0010
0000
0000
,
1000
0000
0100
0000
0010
0000
0011
0000
0000
0000
0001
0000
0100
0000
0010
1000
,
0010
0000
1100
0000
0000
0000
0011
0000
0000
0000
1000
0000
0100
0000
0010
0001
,
0010
0000
0100
0000
1000
0000
1100
0000
0000
0000
0001
0000
0100
0000
0010
1000
,
0010
0000
1100
0000
0011
0000
0101
0000
0000
0000
1001
0000
1000
0010
1000
0100
,
1000
0000
0010
0000
1000
0000
1010
0000
0000
0000
0101
0000
0001
0010
0001
0100
,
0001
0000
0011
0000
0000
0000
1100
0000
0000
0000
0011
0000
0100
1000
0010
1000
,
0100
0000
1000
0000
0001
0000
0101
0000
0000
0000
1010
0000
0100
0001
1000
0100
,
0010
0000
0011
0000
0110
0000
1100
0000
0000
0000
1010
0000
1010
0000
1000
0010
,
1000
0000
0011
0000
0011
0000
0001
0010
0001
0000
0100
0001
0010
0001
0100
0000
,
0001
0010
0100
1000
0001
0000
1000
0000
0001
0000
1000
0100
0010
0000
0001
0010
,
0100
0000
1000
0010
0001
0000
1000
0100
0001
0000
1000
0100
0010
0001
1000
0010
,
0100
0001
0010
0100
1000
0001
1000
0100
1000
0000
0001
0000
1000
0000
1010
0000
,
0000
0000
0001
0010
0001
0000
1000
0010
1000
0000
0001
0000
1000
0000
0001
0010
,
0001
0000
1100
0000
0000
0000
1000
0010
1000
0000
0001
0000
1000
0000
0011
0000
,
0000
0000
1000
0100
1000
0000
0001
0010
0001
0000
1000
0000
0001
0000
1000
0010
,
1000
0000
0101
0000
0000
0000
0001
0010
0001
0000
0100
0000
0010
0000
1100
0000
,
0000
0000
1000
0010
1000
0000
0010
0100
0010
0000
0100
0000
0001
0000
1000
0100
,
1000
0000
0011
0000
0000
0000
1000
0100
1000
0000
0001
0000
1000
0000
0011
0000
,
0000
0000
1000
0100
1000
0000
0001
0100
0001
0000
1000
0000
0001
0000
1000
0100
,
0010
0001
1000
0010
0100
0001
1000
0000
0000
0000
0001
0000
0000
0000
0100
0000
,
0000
0000
0000
0010
1000
0100
1000
0010
0100
0001
0010
0001
0100
0010
1000
0100
0010
0001
1000
0010
0100
0001
0000
0000
,
0000
0000
0000
1000
0000
0000
0000
0000
0000
0001
0000
0010
0000
0100
0000
1000
0000
0010
0000
0100
0000
0001
0000
0100
,
0000
0010
0000
1000
0000
0100
0000
0010
0000
0001
0010
0001
0100
0010
1000
0100
1000
0010
0100
0001
0010
0001
0100
0010
,
1000
0000
0100
0000
1000
0000
0001
0000
0000
0000
0000
0000
0000
0000
0000
0000
0000
0000
1000
0000
0000
0000
0000
0000
0001
0000
0000
0000
0000
0000
1000
0000
0000
0010
0000
0000
1000
0000
0000
0000
0000
0000
0010
0000
0000
0000
0000
0000
,
1000
0000
1010
0000
0000
0000
1000
0000
0100
0000
0010
0001
1000
0001
1100
0000
,
0000
0000
0011
0000
0000
0000
1000
0000
0001
0000
0100
0001
0100
0000
0001
0000
,
1000
0000
1100
0000
0000
0000
0010
0000
0001
0000
1000
0010
1000
0000
0101
0000
,
0011
0000
1100
0000
0000
0000
1000
0100
0010
0001
1000
0010
0100
0001
1000
0100
,
0010
0001
1000
0010
0100
0001
1000
0100
0010
0001
1000
0010
0100
0001
1000
0100
,
0010
0001
1000
0010
0100
0001
0010
0001
0100
0010
0100
0001
0010
0001
0100
0010
,
1000
0100
1000
0010
0100
0010
1000
0100
0010
0100
0010
0001
0010
0100
1000
0001
,
0100
0000
0000
0010
0000
0000
1000
0000
0000
0000
0000
0000
0000
0000
0000
0000
0000
0000
1000
0000
0100
0000
0010
0000
0001
0000
0010
0000
0100
0000
1000
0000
0010
0000
0100
0000
0001
0000
0010
0000
0001
0000
0100
0000
0010
0000
1000
0000
,
0100
1000
0010
0100
0001
0010
0001
0100
0010
2000
0000
0000
0000
0000
0000
0000
0000
0000
0000
0000
0000
0000
0000
0000
,
0000
0000
3000
0000
0000
0000
0100
0010
0001
1000
0010
0100
0001
0010
1000
0010
,
0001
0000
0000
0100
0000
0000
1000
0000
0000
0100
0000
0000
0010
0000
0000
1000
0000
0000
0100
0000
0010
0000
0001
0000
0010
0000
0100
0000
1000
0000
0001
0000
0010
0000
0100
0000
1000
0000
0100
0000
0010
0000
0001
0000
0010
0000
0100
0000
,
1000
0100
0010
0001
0000
0000
0000
0000
0000
1000
0010
0100
0001
0100
0010
1000
0010
0100
0001
0100
0010
1000
0100
0010
,
0001
1000
0001
0010
0100
1000
0100
0010
0001
1000
0100
0010
0100
1000
0100
0010
0001
0010
0100
0010
0001
1000
0100
0010
,
0100
0010
0001
1000
0100
0010
0001
0010
0001
1000
0001
1000
0001
0010
0100
1000
0100
1000
0100
0010
0001
1000
0010
1000
,
0010
0100
0001
1000
0100
0010
0100
1000
0001
0100
0001
0100
0001
0010
0100
1000
0100
0010
0001
1000
0010
0100
0001
0100
,
1000
0000
0100
0000
0010
0000
0100
0000
1000
0000
0100
0000
0010
0000
1000
0000
0001
0000
2000
0000
0000
0000
0000
0000
0000
0000
0000
0000
0000
0000
0000
0000
0000
0000
0000
0000
0000
0000
0000
0000
0000
0000
3100
0000
0000
0010
0000
0000
,
0001
0010
0100
1000
0100
0010
0002
0000
0000
0000
0000
0000
0000
0000
0103
0010
,
1000
0000
0000
0001
0000
0000
0100
0000
0000
0010
0000
0000
1000
0000
0000
0001
0000
0000
0200
0000
0000
0000
0000
0000
0000
0000
0000
0000
0000
0000
0000
0000
0000
0000
0000
0000
0000
0000
0000
0000
0000
0000
0310
0000
1000
0000
0100
0000
,
1000
0010
0100
0001
0010
0001
0100
0010
1000
0002
0000
0000
0000
0000
0000
0000
0000
0000
0000
0000
0000
0223
0000
0000
,
0000
0000
0000
1330
0100
0010
0001
0010
,
0001
1000
0010
1000
0100
0010
0001
1000
,
0010
0000
0000
0100
0000
0000
0001
0000
0000
1000
0100
1000
0010
0100
0001
0010
0001
0100
0010
1000
0100
1000
0010
0100
,
0001
0010
0001
0100
0010
1000
0100
1000
0010
0200
0000
0000
0000
0000
0000
0000
0000
0000
0000
0000
0000
0000
0000
0000
,
0000
0000
0301
0000
0000
0000
1000
0001
1000
0001
0010
0100
1000
0100
1000
0001
,
1000
0001
0010
0100
1000
0100
1000
0001
1000
0001
0010
0100
0010
0001
1000
0001
,
1000
0000
0000
0001
0000
0000
0010
0000
0000
0100
0000
0000
1000
0000
0000
0100
0000
0000
0010
0000
0001
0000
0010
0000
0001
0000
0010
0000
0001
0000
0010
0000
0001
0000
0010
0000
0001
0000
0010
0000
0001
0000
0020
0000
0000
0000
0000
0000
,
0000
0000
0000
0130
1000
0100
0001
0100
0010
0001
1000
0010
0100
1000
0100
0010
1000
0001
0010
0001
0100
0010
1000
0001
,
1000
0001
0010
0100
0010
0001
1000
0010
0100
0001
0010
0100
1000
0100
0010
0001
0010
0100
1000
0100
0010
0001
0010
0100
,
1000
0001
0010
0100
1000
0100
0010
0001
1000
0001
0010
0100
0010
0001
0010
0100
1000
0001
1000
0100
0010
0001
0010
0100
,
1000
0100
0010
0001
0010
0100
1000
0100
0010
0001
0010
0100
0010
0001
0010
0100
1000
0001
0010
0100
0010
0001
1000
0100
,
0010
0001
1000
0010
0100
0001
0100
0010
1000
0001
0010
0100
1000
0001
0010
0100
1000
0100
0010
0001
1000
0010
0100
0001
,
0100
0010
1000
0001
0010
0100
1000
0100
0010
0001
0100
0001
0100
0001
0100
0010
1000
0010
1000
0010
1000
0100
0010
0100
,
0010
0100
0010
0100
1000
0001
1000
0001
1000
0010
0100
0010
0100
0010
0100
0001
0010
0001
0010
0001
0010
0011
0000
0000
,
0110
1100
0000
0002
0000
0000
0000
0000
,
0000
0000
1003
0100
0010
0001
1000
0010
0001
0010
0100
0001
0010
0100
1000
0001
,
1000
0000
0100
0000
0010
0000
0001
0000
0000
0000
0000
0000
0000
0000
0000
0000
0000
0000
1000
0000
0000
0100
0000
0000
0010
0000
0000
0001
0000
0000
0010
0000
0000
0100
0000
0000
1000
0000
0000
0100
0000
0000
0010
0000
0000
0001
0000
0000
,
0010
0100
1000
0100
0010
0001
0010
0100
1000
0100
0010
0001
0010
0100
1000
0100
,
0010
0001
0010
0100
1000
0100
0010
0001
0010
0100
1000
0100
0010
0001
0010
0100
,
1000
0100
0010
0001
0010
0100
1000
0100
0010
0001
0010
0100
1000
0100
0010
0001
,
0010
0100
1000
0010
1000
0010
1000
0100
1000
0100
0010
0001
0010
0001
0100
0001
,
0100
0001
1000
0010
1000
0010
1000
0100
1000
0100
0010
0001
0010
0001
0100
0001
,
0100
0001
1000
0100
0010
0100
1000
0001
0010
0100
0010
0001
1000
0100
0001
0100
,
1000
0001
0100
1000
0100
0001
1000
0001
0010
1000
0010
0001
1000
0010
0001
0010
,
0100
0001
1000
0100
1000
0100
1000
0100
1000
0100
0010
0001
1000
0010
0100
0001
,
0100
1000
0100
0010
0100
0010
0100
0010
0100
0010
1000
0001
0010
0100
0001
0100
,
0010
0001
0100
0010
1000
0001
2000
0000
0000
0000
0000
0000
0000
0000
0000
0000
,
3000
0000
0000
0000
0000
0000
1000
0100
0010
0001
0010
0100
1000
0100
0010
0001
0010
0100
1000
0100
0010
0001
0010
0100
,
1000
0100
0010
0001
0010
0100
1100
0000
0000
0000
0000
0000
0101
0000
0000
0000
0000
0000
1010
0000
0000
0101
0000
0000
,
0000
1010
0000
0000
0101
1010
0000
0101
,
0000
0000
1010
0000
0000
0000
1100
0011
,
0000
0000
0000
1100
0000
0000
0000
0000
0000
0000
0000
0000
0011
0000
0000
0000
0000
0000
1000
0000
0100
0000
1000
0000
,
0010
0000
0001
0000
0010
0000
1000
0000
0010
0000
1000
0000
0001
0000
0100
0000
0001
0000
1100
0000
0000
1010
0000
0000
,
0000
1100
0000
0000
1010
1100
0000
1010
,
0000
0000
0110
0000
0000
0000
0101
0011
,
0000
0000
0101
0000
0000
0000
0000
0000
0011
0000
0000
0000
1000
0100
1000
0100
,
0010
0100
0010
0100
0001
0100
0001
0100
0010
0001
1000
0010
0101
0000
0011
0000
,
0000
0101
0000
0000
0011
0101
0000
0011
,
0000
0000
0101
0000
0000
0000
1100
1010
,
0000
0000
0000
0101
0000
0000
0000
0000
0000
0000
0000
0000
0011
0000
0000
0000
0000
0000
1000
0000
0010
0000
0001
0000
,
1000
0000
0100
0000
0010
0000
1000
0000
0001
0000
0010
0000
0100
0000
0010
0000
0001
0000
1100
0000
0000
0011
0000
0000
,
0000
1010
0000
0000
0101
0011
0000
1100
,
0000
0000
0011
0000
0000
0000
1100
0101
,
0000
0000
1010
0000
0000
0000
0000
0000
0101
0000
0000
0000
0100
0001
0010
0100
,
1000
0010
0100
0001
0010
0100
1000
0100
0001
0100
1000
0001
1000
0000
0100
0000
,
1000
0010
0000
1000
0100
1000
0010
0100
,
0001
0010
0001
0100
0010
1000
0110
0001
,
0100
0010
0000
0100
0001
0010
0001
0100
,
0010
1000
0100
1000
0001
0010
1001
0100
,
0010
1000
0000
0001
0010
0001
0100
0010
,
0100
0001
0010
0100
1000
0100
0011
0100
,
1000
0000
0001
0000
0000
0000
1000
0000
0001
0000
0100
0000
0010
1000
0010
0001
,
0010
0100
0001
1000
0100
0000
0010
0000
0001
0000
1000
0000
0101
0000
0010
0000
,
0001
0100
0000
0010
0100
0001
0010
0100
,
0010
0001
0100
0010
0100
0001
1100
0010
,
0100
1000
0000
0100
0010
0100
1000
0010
,
0001
0010
1000
0001
0010
0100
1010
0100
,
0010
0001
0000
0010
0001
0100
0010
1000
,
0010
0001
0010
0100
0001
1000
0110
0001
,
0100
0000
0010
0000
0000
0000
1000
0000
0100
0000
0010
0000
0001
0010
0100
0001
,
0100
0010
0001
1000
0010
0001
0010
0100
1000
0100
0010
1000
0101
0000
0011
0000
,
0000
0101
0000
0000
0101
0011
0000
0101
,
0000
0000
0011
0000
0000
0000
1010
1100
,
0000
0000
0000
1010
0000
0000
0000
0000
0000
0000
0000
0000
1010
0000
0000
0000
0000
0000
0100
0000
0001
0000
0010
0000
,
0001
0000
0100
0000
0010
0000
1000
0000
0100
0000
0010
0000
0100
0000
1000
0000
0001
0000
0101
0000
0000
0011
0000
0000
,
0000
0101
0000
0000
0011
0101
0000
1010
,
0000
0000
1100
0000
0000
0000
1100
1010
,
0000
0000
0110
0000
0000
0000
0000
0000
0101
0000
0000
0000
0010
0001
0010
0001
,
1000
0100
1000
0100
0010
0100
0010
0100
1000
0001
1000
0001
0110
0000
0110
0000
,
0110
0110
0110
0110
0110
0110
1100
1100
,
1100
1100
1100
1100
1100
1100
0011
0011
,
0011
0011
0011
0011
0011
0011
1010
1010
,
1010
1010
1010
1010
1010
1010
0110
0110
,
0110
0110
0110
0110
0110
0110
0101
0101
,
0101
0101
0101
0101
0101
0101
0011
0011
,
0011
0000
0000
0011
0000
0000
0011
0000
0000
0011
0000
0000
0011
0000
0000
0011
0000
0000
1000
0000
0100
0000
0001
0000
,
0100
0000
0010
0000
0001
0000
1000
0000
0010
0000
0001
0000
0010
0000
0100
0000
0001
0000
1100
0000
0000
1010
0000
0000
,
1100
1010
1100
1010
1100
1010
0110
1010
,
0110
1010
0110
1010
0110
1010
0110
0101
,
0110
0101
0110
0101
0110
0101
0011
0101
,
0011
0101
0011
0101
0011
0101
0011
1100
,
0011
1100
0011
1100
0011
1100
0101
1100
,
0101
1100
0101
1100
0101
1100
0110
1001
,
0110
0000
1001
0000
0110
0000
1001
0000
0110
0000
1001
0000
0100
0010
1000
0001
,
0010
0100
0001
0100
1000
0010
0001
1000
0100
0010
1000
0001
1100
0000
0000
0000
,
0000
1000
0000
0000
0001
0000
0100
0000
,
0000
0010
0000
0000
1000
0000
1100
0000
,
0000
0100
0000
0000
0010
0000
0001
0000
,
0000
1000
0000
0000
0001
0000
1100
0000
,
0000
0010
0000
0000
0100
0000
0001
0000
,
0000
0010
0000
0000
0001
0000
0101
0000
,
0000
1000
0000
0000
0010
0000
0100
0000
,
0000
0000
0000
0000
1000
0001
1100
0000
,
0000
0100
0000
0000
0010
0000
0001
0000
,
0000
1000
0000
0000
0001
0000
0110
0000
,
0000
1000
0000
0000
0100
0000
0010
0000
,
0000
0001
0000
0000
1000
0000
0011
0000
,
0000
0010
0000
0000
0100
0000
1000
0000
,
0000
0001
0000
0000
0100
0000
1010
0000
,
0000
0000
0000
0000
1000
0000
0000
0000
0000
0000
0000
0000
0101
0000
0001
0010
,
0100
1000
0101
1010
1100
0011
2200
0000
,
3000
2300
3200
2300
0200
0000
3300
2000
,
3020
2030
0020
3000
2M0M
3M3M
0202
0000
,
0003
0302
0023
0032
0020
0003
0032
0203
,
0320
0230
0002
0300
2000
3003
2200
0000
,
3300
0200
0320
0032
0023
0000
0000
0230
,
0320
2030
0002
3000
2000
3003
0022
0000
,
0030
0000
0023
0000
0032
0000
0023
0000
0230
0000
2300
0000
3110
0000
1000
0100
,
0010
0001
1000
0101
0011
1100
1010
0000
,
0000
0001
0000
0000
1000
0000
0100
0000
,
0000
0010
0000
0000
0001
0000
0101
0000
,
0000
0100
0000
0000
0010
0000
1000
0000
,
0000
0001
0000
0000
1000
0000
0110
0000
,
0000
0100
0000
0000
1000
0000
0001
0000
,
0000
1000
0000
0000
0010
0000
1100
0000
,
0000
0100
0000
0000
0010
0000
0000
0000
,
0000
0000
1000
0101
,
0000
0010
0000
0000
0100
0000
1000
0000
,
0000
0001
0000
0000
0100
0000
1010
0000
,
0000
1000
0000
0000
0100
0000
0010
0000
,
0000
0001
0000
0000
1000
0000
0110
0000
,
0000
0100
0000
0000
0010
0000
1000
0000
,
0000
0100
0000
0000
0010
0000
1001
0000
,
0000
0000
0000
0000
0001
0000
0000
0000
0000
0000
0000
0000
1000
0100
1000
0010
,
0100
0001
0010
0001
0100
0010
1000
0100
1000
0010
0100
0001
2200
0000
0000
0000
,
3000
2300
3200
2300
0200
0000
3300
2000
,
3020
2030
0020
3000
2M3M
3M0M
0022
0000
,
0030
0023
0032
0023
0002
0000
0033
0002
,
0203
0302
0023
0030
0002
0003
2200
0000
,
0300
3020
2030
3020
0200
0000
0030
0320
,
0230
2300
0002
3000
2MM3
3MM0
0202
0000
,
0003
0320
0032
0203
0320
0030
1100
1100
,
0110
0110
0011
0011
0101
0101
1001
0000
,
0000
1000
0001
1000
0010
0000
0000
0010
,
1000
0001
1000
0000
0001
0000
1100
0000
,
0000
1000
0100
1000
0001
0000
0000
0100
,
0001
1000
0001
0000
0010
0000
0011
0000
,
0000
0001
0100
0010
0100
0000
0000
0001
,
0010
0100
1000
0000
0001
0000
1010
0000
,
0000
0000
0100
0000
0010
0000
1000
0000
0001
0000
1000
0000
0001
0000
0010
0100
,
1000
0001
1010
0100
0001
1000
1100
0000
,
0000
0001
0100
1000
0001
0000
0000
1000
,
0010
0001
0010
0000
1000
0000
0101
0000
,
0000
0001
0010
0100
0010
0000
0000
0001
,
0010
1000
0001
0000
1000
0000
0110
0000
,
0000
0100
0010
1000
0001
0000
0000
0100
,
0001
0010
0001
0000
1000
0000
0101
0000
,
0000
0000
0100
0000
0010
0000
1000
0000
0010
0000
0000
0000
1000
0100
0010
0001
,
1000
0010
0100
0001
1000
0100
0010
0001
1000
0010
0100
0001
1100
0000
1100
0000
,
0000
1010
0000
0000
1100
1010
0000
1100
,
0000
0000
1010
0000
0000
0000
0101
0011
,
0000
0000
0000
0101
0000
0000
0000
0000
0000
0000
0000
0000
0011
0000
0000
0000
0000
0000
1000
0000
0100
0000
0010
0000
,
0001
0000
1000
0000
0001
0000
0010
0000
0100
0000
1000
0000
0001
0000
1000
0000
0100
0000
0011
0000
0000
0101
0000
0000
,
0000
0011
0000
0000
0101
0011
0000
1001
,
0000
0000
0101
0000
0000
0000
0110
1010
,
0000
0000
1100
0000
0000
0000
0000
0000
1010
0000
0000
0000
1000
0100
1000
0010
,
0100
0001
1000
0100
1000
0010
0100
0001
1000
0100
0010
0001
1100
0000
0011
0000
,
1000
0011
1000
0001
1100
0011
1000
0101
,
0001
1000
1010
0001
1000
0001
1001
0011
,
0100
0000
0000
1001
0000
0000
0010
0000
0000
1000
0000
0000
0101
0000
0000
0001
0000
0000
1000
0000
0010
0000
0001
0000
,
0010
0000
0100
0000
0001
0000
1000
0000
0100
0000
0010
0000
0001
0000
1000
0000
0010
0000
1100
0000
0000
1010
0000
0000
,
0001
1001
0010
0001
1100
1010
0001
0101
,
1000
0100
1001
1000
0001
1000
0011
0101
,
0010
0000
1001
0000
0100
0000
0001
0000
1010
0000
0001
0010
0001
0100
0010
0100
,
0001
0010
0001
0100
0010
0100
0001
0010
0001
0100
0010
1000
0100
0010
0100
1000
,
0010
0100
0010
1000
0100
0010
0100
1000
0010
0100
0010
0001
1000
0010
1000
0001
,
0010
0001
1000
0010
1000
0001
0010
0001
1000
0010
1000
0100
1000
0001
0100
0001
,
1000
0010
1000
0001
0110
0000
0000
0000
0000
0110
0000
0000
0000
0000
0110
0000
,
0000
0000
0000
0110
0000
0000
0000
0000
0000
1000
0001
0000
0000
0000
0000
0000
,
0000
0000
0000
0000
0000
0000
0000
0000
0000
0000
0000
2002
0000
0000
0000
0000
,
0000
0000
0000
0000
,
0000
0000
0000
0000
,
0000
0000
0000
0000
,
0000
0000
0000
0000
,
0000
0000
0000
0000
,
0000
0000
0000
0000
0000
0000
0000
0000
3003
0000
0000
0000
1000
0100
1000
0010
,
0100
0001
0010
0001
0100
0010
1000
0100
1000
0010
0100
0001
0010
0001
0100
0010
,
1000
0100
1000
0010
0100
0001
0010
0100
0010
0001
0100
0010
1000
0100
0010
0100
,
1000
0010
0100
0001
0010
0001
0100
0010
0100
0001
0010
0100
1000
0100
0010
0100
,
1000
0010
0100
0010
1000
0100
0010
0001
0010
0100
1000
0100
0010
0001
0010
0100
,
1000
0100
0010
0001
0010
0100
0001
0100
0010
0001
1000
0010
0100
1000
0100
0010
,
0100
0000
0001
0000
0010
0000
0100
0000
1000
0100
0010
0001
,
0010
0100
1000
0100
0010
0001
0010
0100
0010
0001
0010
0100
,
1000
0000
0000
2002
,
0000
0000
0000
3003
;
