#TITLE:SPIDERMAN;
#SUBTITLE:;
#ARTIST:BEATBOX feat. DJ SPEED;
#TITLETRANSLIT:;
#SUBTITLETRANSLIT:;
#ARTISTTRANSLIT:;
#CREDIT:;
#BANNER:spiderman.png;
#BACKGROUND:spidermanbg.png;
#LYRICSPATH:;
#CDTITLE:;
#MUSIC:spiderman.mp3;
#OFFSET:0.000;
#SAMPLESTART:33.040;
#SAMPLELENGTH:12.000;
#SELECTABLE:YES;
#BPMS:0.000=181.600;
#STOPS:;
#BGCHANGES:;
// cache tags:
#FIRSTBEAT:32.000;
#LASTBEAT:271.500;
#SONGFILENAME:Songs/toune/spiderman/spiderman.sm;
#HASMUSIC:1;
#HASBANNER:1;
#MUSICLENGTH:89.913;
// end cache tags

//---------------dance-single - ----------------
#NOTES:
     dance-single:
     :
     Easy:
     4:
     0.389,0.640,0.300,0.356,0.000,186.000,27.000,32.000,0.000,0.000:  // measure 1
0000
0000
0000
0000
,  // measure 2
0000
0000
0000
0000
,  // measure 3
0000
0000
0000
0000
,  // measure 4
0000
0000
0000
0000
,  // measure 5
0000
0000
0000
0000
,  // measure 6
0000
0000
0000
0000
,  // measure 7
0000
0000
0000
0000
,  // measure 8
0000
0000
0000
0000
,  // measure 9
1000
0001
1001
0000
,  // measure 10
0001
1000
1001
0000
,  // measure 11
1000
0100
0010
0001
,  // measure 12
0100
0010
1001
0000
,  // measure 13
0100
0010
0110
0000
,  // measure 14
0010
0100
0110
0000
,  // measure 15
0001
0010
0100
1000
,  // measure 16
0010
0100
1001
0000
,  // measure 17
2000
3000
0200
0300
,  // measure 18
0020
0030
0002
0003
,  // measure 19
1000
0100
1000
0001
,  // measure 20
0100
0001
0010
0100
,  // measure 21
1000
0010
0100
0010
,  // measure 22
1001
1100
0011
1001
,  // measure 23
1000
0200
0310
0000
,  // measure 24
0001
0200
0310
0000
,  // measure 25
1000
0001
1000
0001
,  // measure 26
1001
0110
1001
0000
,  // measure 27
0001
0020
0130
0000
,  // measure 28
1000
0020
0130
0000
,  // measure 29
0001
1000
0001
1000
,  // measure 30
1001
0110
1001
0000
,  // measure 31
0200
0300
0020
0030
,  // measure 32
2000
3000
0002
0003
,  // measure 33
1000
0100
1000
0001
,  // measure 34
0100
0001
0010
0100
,  // measure 35
0020
0000
0000
0031
,  // measure 36
0100
0000
0010
1000
,  // measure 37
0200
0000
0000
0310
,  // measure 38
0100
0000
1000
0001
,  // measure 39
0200
0000
0000
0310
,  // measure 40
0100
0000
0001
0010
,  // measure 41
0200
0000
1000
0310
,  // measure 42
0001
0000
1001
0000
,  // measure 43
2000
0100
3001
0000
,  // measure 44
0002
0100
1003
0000
,  // measure 45
0010
0010
0100
0100
,  // measure 46
0001
1000
1001
0000
,  // measure 47
0002
0010
1003
0000
,  // measure 48
2000
0010
3001
0000
,  // measure 49
0010
0010
0100
0100
,  // measure 50
1000
0001
1001
0000
,  // measure 51
2200
3300
0022
0033
,  // measure 52
0220
0330
2002
3003
,  // measure 53
0001
0001
1000
1000
,  // measure 54
1001
0000
0100
0000
,  // measure 55
0010
0010
0100
0100
,  // measure 56
0002
0000
0100
0103
,  // measure 57
1000
1000
0001
0001
,  // measure 58
1001
0000
0010
0000
,  // measure 59
0100
0100
0010
0010
,  // measure 60
2000
0000
0010
3010
,  // measure 61
1000
0001
0100
0010
,  // measure 62
1001
0000
0100
0000
,  // measure 63
0001
0010
1000
0010
,  // measure 64
0002
0000
1000
1003
,  // measure 65
0001
1000
0010
0100
,  // measure 66
1001
0000
0010
0000
,  // measure 67
1000
0100
0001
0100
,  // measure 68
2000
0000
0001
3001
;

//---------------dance-single - ----------------
#NOTES:
     dance-single:
     :
     Medium:
     7:
     0.513,0.604,0.234,0.133,0.000,290.000,21.000,12.000,0.000,0.000:  // measure 1
0000
0000
0000
0000
,  // measure 2
0000
0000
0000
0000
,  // measure 3
0000
0000
0000
0000
,  // measure 4
0000
0000
0000
0000
,  // measure 5
0000
0000
0000
0000
,  // measure 6
0000
0000
0000
0000
,  // measure 7
0000
0000
0000
0000
,  // measure 8
0000
0000
0000
0000
,  // measure 9
1000
0001
1000
0001
1000
0000
0000
0000
,  // measure 10
0001
1000
0001
1000
0001
0000
0000
0000
,  // measure 11
1000
0100
0001
0100
,  // measure 12
1000
0010
0100
0001
0000
0000
0000
0000
,  // measure 13
0100
0010
0100
0010
0100
0000
0000
0000
,  // measure 14
0010
0100
0010
0100
0010
0000
0000
0000
,  // measure 15
1000
0010
0001
0010
,  // measure 16
1000
0001
0010
0100
0000
0000
1000
0001
,  // measure 17
0100
1001
0010
1001
,  // measure 18
0100
0000
1001
0000
1000
0100
0010
0000
,  // measure 19
0001
0000
0100
0000
0010
0000
1000
0001
,  // measure 20
0010
0000
0100
0000
1000
0000
0001
0100
,  // measure 21
0010
1000
0010
1000
0001
0100
0001
0000
,  // measure 22
1100
0011
0101
1010
,  // measure 23
1000
0001
0020
0000
0130
0000
0000
0000
,  // measure 24
1000
0010
0200
0000
0301
0000
0000
0000
,  // measure 25
1000
0100
0010
0001
1000
0100
0010
0001
,  // measure 26
0000
1000
0000
0010
0000
0000
0000
0000
,  // measure 27
0001
0100
0020
0000
1030
0000
0000
0000
,  // measure 28
0100
0010
0002
0000
1003
0000
0000
0000
,  // measure 29
0001
0010
0100
1000
0001
0010
0100
1000
,  // measure 30
0000
0001
0000
0010
0000
0000
0100
1000
,  // measure 31
0001
1001
1000
1001
,  // measure 32
0010
0000
1001
0000
0100
0010
0100
0000
,  // measure 33
1000
0100
0001
0100
,  // measure 34
1000
0000
0001
0000
0100
0010
0100
0010
,  // measure 35
0200
0000
0000
0000
0000
0000
0301
1000
,  // measure 36
0100
0000
0000
0000
0010
0001
0010
0001
,  // measure 37
0200
0000
0000
0000
0000
0000
0310
1000
,  // measure 38
0001
0000
0000
0000
0010
0100
0010
0100
,  // measure 39
2000
0000
0000
0000
0000
0000
3001
0100
,  // measure 40
0010
0000
0000
0000
1000
0001
1000
0001
,  // measure 41
0200
0000
0000
0000
0010
0000
0301
1000
,  // measure 42
0100
0000
0000
0000
,  // measure 43
2000
0010
0010
0000
3001
0000
0000
0000
,  // measure 44
0002
0010
0010
0000
1003
0000
0000
0000
,  // measure 45
0010
0100
0010
0000
0100
0010
0100
0000
,  // measure 46
0001
1000
0100
0010
0000
0000
0000
0000
,  // measure 47
0002
0100
0100
0000
0013
0000
0000
0000
,  // measure 48
2000
0100
0100
0000
3010
0000
0000
0000
,  // measure 49
0100
0010
0100
0000
0010
0100
0010
0000
,  // measure 50
1000
0001
0100
0010
0000
0000
1000
0001
,  // measure 51
1000
0000
1100
0000
0001
1000
0001
0000
,  // measure 52
0101
0000
0010
0100
0010
0000
0110
0000
,  // measure 53
0001
0000
0100
0000
1000
0001
0000
1001
,  // measure 54
0000
1000
0100
1000
0001
0000
0001
1000
,  // measure 55
0010
0000
0100
0000
0001
1000
0000
1001
,  // measure 56
0000
0100
0000
0010
1000
0001
1000
0001
,  // measure 57
0010
0000
0100
0000
1000
0010
0000
0110
,  // measure 58
0000
0001
1000
0100
1000
0000
1000
0001
,  // measure 59
0100
0000
0010
0000
1000
0100
0000
0110
,  // measure 60
0000
0001
0000
1000
0010
0100
0010
0100
,  // measure 61
0001
0000
1000
0000
0100
0010
0000
0110
,  // measure 62
0000
0001
1000
0001
0100
0000
0100
0010
,  // measure 63
1000
0000
0001
0000
1000
0010
0000
1010
,  // measure 64
0000
0001
0000
0100
0010
1000
0010
1000
,  // measure 65
0100
0000
1000
0000
0010
0100
0000
0110
,  // measure 66
0000
0001
1000
0100
0010
0000
0010
0100
,  // measure 67
1000
0000
0001
0000
1000
0100
0000
1100
,  // measure 68
0000
0001
0000
0010
0100
1000
0100
1000
;

//---------------dance-single - ----------------
#NOTES:
     dance-single:
     :
     Hard:
     9:
     0.632,0.793,0.556,0.133,0.067,336.000,50.000,12.000,0.000,0.000:  // measure 1
0000
0000
0000
0000
,  // measure 2
0000
0000
0000
0000
,  // measure 3
0000
0000
0000
0000
,  // measure 4
0000
0000
0000
0000
,  // measure 5
0000
0000
0000
0000
,  // measure 6
0000
0000
0000
0000
,  // measure 7
0000
0000
0000
0000
,  // measure 8
0000
0000
0000
0000
,  // measure 9
1000
0100
0001
0100
1000
0000
0000
0000
,  // measure 10
0001
0100
1000
0100
0001
0000
0000
0000
,  // measure 11
1000
0100
1000
0001
0100
0001
0010
0000
,  // measure 12
0100
0001
0100
1000
0000
0000
0000
0000
,  // measure 13
0010
0001
0010
1000
0100
0000
0000
0000
,  // measure 14
0010
1000
0010
0001
0100
0000
0000
0000
,  // measure 15
1000
0100
0001
0010
1000
0010
0001
0000
,  // measure 16
1000
0010
0100
0001
0000
0000
0010
0100
,  // measure 17
1001
1010
0101
0011
,  // measure 18
1100
0110
1001
0011
,  // measure 19
1000
0100
0010
0000
0001
0100
0010
0000
,  // measure 20
1000
0001
1000
0000
0001
1000
0001
0000
,  // measure 21
1000
0010
1000
0000
0001
0010
0001
0000
1000
0100
1000
0000
0001
0100
0001
0000
,  // measure 22
1001
0110
1001
0110
,  // measure 23
1000
0100
0002
0100
0103
0000
0000
0000
,  // measure 24
1000
0010
0002
0010
0013
0000
0000
0000
,  // measure 25
1000
0100
0001
0100
1000
0010
0001
0010
,  // measure 26
0000
1000
0000
0001
0000
0000
0000
0000
,  // measure 27
0001
0100
2000
0100
3100
0000
0000
0000
,  // measure 28
0001
0010
2000
0010
3010
0000
0000
0000
,  // measure 29
0001
0100
1000
0100
0001
0010
1000
0010
,  // measure 30
0000
0001
0000
1000
0000
0000
0010
0100
,  // measure 31
1001
1100
1001
0011
,  // measure 32
0101
1010
0110
1001
,  // measure 33
1000
0100
0010
0001
1000
0010
0100
0001
,  // measure 34
1000
0100
0010
0001
0100
0010
1000
0001
,  // measure 35
0200
0000
0010
0000
1000
0000
0301
1000
,  // measure 36
0100
0000
0000
0000
0010
0001
1000
0010
,  // measure 37
0200
0000
0001
0000
1000
0000
0310
1000
,  // measure 38
0001
0000
0000
0000
0010
0100
1000
0001
,  // measure 39
0200
0000
0001
0000
1000
0000
0310
0100
,  // measure 40
0001
0000
0000
0000
1000
0100
0010
0001
,  // measure 41
0200
0000
1000
0000
0010
0000
0301
1000
,  // measure 42
0100
1001
1001
0000
,  // measure 43
2100
0000
0010
0001
3001
0000
0000
0000
,  // measure 44
0012
0000
0100
1000
1003
0000
0000
0000
,  // measure 45
1000
0100
0001
0100
1000
0010
0100
0000
,  // measure 46
0001
0010
0100
1000
0000
0000
0000
0000
,  // measure 47
1002
0000
0100
0010
0013
0000
0000
0000
,  // measure 48
2001
0000
0010
0100
3100
0000
0000
0000
,  // measure 49
1000
0010
0001
0010
1000
0100
0010
0000
,  // measure 50
0001
0100
0010
1000
0000
0000
1000
0001
,  // measure 51
1001
1100
0011
0101
,  // measure 52
1010
0110
0101
1001
,  // measure 53
0001
1000
0100
0000
1000
0001
0000
1001
,  // measure 54
0000
1000
0100
0001
0100
0000
1000
0010
,  // measure 55
0001
0010
1000
0000
0001
1000
0000
1001
,  // measure 56
0000
0000
0011
0000
0000
0000
1100
0000
1000
0001
1000
0000
0001
1000
0001
0000
,  // measure 57
0010
0100
0001
0000
0100
1000
0000
1100
,  // measure 58
0000
0001
0100
1000
0100
0000
0001
1000
,  // measure 59
0100
0010
1000
0000
0010
0001
0000
0011
,  // measure 60
0000
0000
1100
0000
0000
0000
1001
0000
0010
0100
0010
0000
0100
0010
0100
0000
,  // measure 61
0001
1000
0100
0000
1000
0010
0000
1010
,  // measure 62
0000
0001
0100
1000
0100
0000
0001
0010
,  // measure 63
1000
0010
0001
0000
1000
0010
0000
1010
,  // measure 64
0000
0000
0101
0000
0000
0000
0110
0000
1000
0010
1000
0000
0001
0100
0001
0000
,  // measure 65
1000
0100
0001
0000
0100
1000
0000
1100
,  // measure 66
0000
0001
0100
1000
0100
0000
0001
0010
,  // measure 67
0100
0010
0001
0000
0100
0010
0000
0110
,  // measure 68
0000
0000
0101
0000
0000
0000
1010
0000
1000
0010
1000
0000
0001
0100
0001
0000
;

//---------------dance-double - ----------------
#NOTES:
     dance-double:
     :
     Hard:
     9:
     0.616,0.642,0.423,0.178,0.044,334.000,38.000,16.000,0.000,0.000:  // measure 1
00000000
00000000
00000000
00000000
,  // measure 2
00000000
00000000
00000000
00000000
,  // measure 3
00000000
00000000
00000000
00000000
,  // measure 4
00000000
00000000
00000000
00000000
,  // measure 5
00000000
00000000
00000000
00000000
,  // measure 6
00000000
00000000
00000000
00000000
,  // measure 7
00000000
00000000
00000000
00000000
,  // measure 8
00000000
00000000
00000000
00000000
,  // measure 9
10000000
01000000
00010000
01000000
10000000
00000000
00000000
00000000
,  // measure 10
00010000
01000000
00001000
01000000
00010000
00000000
00000000
00000000
,  // measure 11
00100000
00001000
00010000
00000100
00010000
00001000
00000100
00000000
,  // measure 12
00001000
00010000
01000000
00010000
00000000
00000000
00000000
00000000
,  // measure 13
00001000
00000100
00000001
00000010
00001000
00000000
00000000
00000000
,  // measure 14
00000010
00000100
00010000
00001000
00000100
00000000
00001000
00010000
,  // measure 15
01000000
10000000
00100000
00010000
00100000
01000000
00010000
00000000
,  // measure 16
00100000
00001000
00010000
00000100
00000000
00000000
00010000
00001000
,  // measure 17
00011000
00101000
00011000
00010100
,  // measure 18
00001100
00001001
00000011
00001100
,  // measure 19
00000010
00001000
00000100
00000000
00010000
00001000
00000100
00000000
,  // measure 20
00001000
00010000
01000000
00000000
10000000
00010000
01000000
00000000
,  // measure 21
00100000
00100000
10000000
10000000
01000000
01000000
00010000
00010000
,  // measure 22
00011000
00101000
00011000
00010010
,  // measure 23
00001000
00000100
00000001
00000100
00000010
00000000
00000000
00000000
,  // measure 24
00001000
00010000
00001000
00000100
00001000
00000000
00000000
00000000
,  // measure 25
00100000
01000000
10000000
00100000
00010000
00100000
01000000
00010000
,  // measure 26
00000000
00100000
00000000
00001000
00000000
00000000
00000000
00000000
,  // measure 27
00010000
01000000
00010000
00001000
00010000
00000000
00000000
00000000
,  // measure 28
00001000
00000100
00000001
00000010
00001000
00000000
00000000
00000000
,  // measure 29
00000010
00000100
00010000
00001000
00000100
00001000
00010000
01000000
,  // measure 30
00000000
10000000
00000000
00010000
00000000
00000000
01000000
00100000
,  // measure 31
10100000
11000000
10010000
00110000
,  // measure 32
00101000
00011000
00010100
00000110
,  // measure 33
00000001
00000100
00000010
00001000
00000100
00010000
00001000
00000100
,  // measure 34
00001000
00010000
00000100
00001000
00000010
00010000
00001000
00100000
,  // measure 35
02000000
00000000
10000000
00000000
00010000
00000000
03100000
01000000
,  // measure 36
10000000
00000000
00000000
00000000
00100000
00010000
00001000
00010000
,  // measure 37
00000200
00000000
00000010
00000000
00000001
00000000
00010300
00001000
,  // measure 38
00000100
00000000
00000000
00000000
00001000
00010000
01000000
10000000
,  // measure 39
00200000
00000000
00010000
00000000
10000000
00000000
01300000
00001000
,  // measure 40
00010000
00000000
00000000
00000000
01000000
10000000
00010000
01000000
,  // measure 41
00002000
00000000
00100000
00000000
00000010
00000000
00013000
00000100
,  // measure 42
00001000
00001001
00001001
00000000
,  // measure 43
00000102
00000000
00000013
00001000
00010000
00000000
00000000
00000000
,  // measure 44
00012000
00000000
00003100
00001000
00010000
00000000
00000000
00000000
,  // measure 45
01000000
10000000
00100000
01000000
10000000
01000000
00010000
00000000
,  // measure 46
00100000
00001000
00010000
00000100
00000000
00000000
00000000
00000000
,  // measure 47
00021000
00000000
01030000
00010000
00001000
00000000
00000000
00000000
,  // measure 48
00000210
00000000
00000301
00001000
00000100
00000000
00000000
00000000
,  // measure 49
00000010
00001000
00010000
00001000
00000100
00001000
00010000
00000000
,  // measure 50
01000000
10000000
00100000
01000000
00000000
00000000
00010000
10000000
,  // measure 51
10010000
11000000
00110000
01010000
,  // measure 52
01001000
00011000
00010010
00001010
,  // measure 53
00000001
00000100
00000010
00000000
00001000
00000100
00000000
00001100
,  // measure 54
00000000
00010000
00001000
00000100
00001000
00000000
00010000
01000000
,  // measure 55
10000000
00100000
00010000
00000000
00100000
10000000
00000000
20000000
,  // measure 56
00000000
00000000
32000000
00000000
00000000
00000000
03010000
00000000
00001000
00010000
00001000
00000000
00010000
00001000
00010000
00000000
,  // measure 57
00000100
00010000
00001000
00000000
00000100
00000001
00000000
00000101
,  // measure 58
00000000
00000010
00010000
00001000
00100000
00000000
00001000
00010000
,  // measure 59
00001000
00000100
00001000
00000000
00100000
00010000
00000000
00020000
,  // measure 60
00000000
00000000
02030000
00000000
00000000
00000000
03100000
00000000
10000000
01000000
10000000
00000000
00010000
01000000
00010000
00000000
,  // measure 61
10000000
01000000
00010000
00000000
01000000
00100000
00000000
01100000
,  // measure 62
00000000
00001000
00010000
00000100
00001000
00000000
00000010
00000001
,  // measure 63
00000010
00001000
00000100
00000000
00001000
00000010
00000000
00000020
,  // measure 64
00000000
00000000
00020030
00000000
00000000
00000000
00031000
00000000
00010000
00001000
00010000
00000000
00001000
00010000
00001000
00000000
,  // measure 65
00100000
01000000
10000000
00000000
01000000
00100000
00000000
01100000
,  // measure 66
00000000
00010000
01000000
00001000
00010000
00000000
01000000
00010000
,  // measure 67
00001000
00000100
00001000
00000000
00000100
00000001
00000000
00000002
,  // measure 68
00000000
00000000
00002003
00000000
00000000
00000000
00003100
00000000
00010000
00001000
00010000
00000000
00001000
00010000
00001000
00000000
;
