#TITLE:Stripper Friends;
#SUBTITLE:;
#ARTIST:Tila Tequila;
#TITLETRANSLIT:;
#SUBTITLETRANSLIT:;
#ARTISTTRANSLIT:;
#CREDIT:;
#BANNER:banner.JPG;
#BACKGROUND:;
#LYRICSPATH:;
#CDTITLE:!tizaTitle.png;
#MUSIC:Tila Tequilla-Stripper friends.ogg;
#OFFSET:-1.120;
#SAMPLESTART:61.681;
#SAMPLELENGTH:25.000;
#SELECTABLE:YES;
#BPMS:0.000=101.000;
#STOPS:194.000=0.580
,267.000=0.234
,267.125=0.234
,267.250=0.234
,267.375=0.234
,267.500=0.140
,267.583=0.140
,267.667=0.140
,267.750=0.140
,267.833=0.140
,267.917=0.140
;
#BGCHANGES:;
// cache tags:
#FIRSTBEAT:0.000;
#LASTBEAT:368.000;
#SONGFILENAME:Songs/Reggaeton and more/Stripper Friends/stripperfriends.sm;
#HASMUSIC:1;
#HASBANNER:1;
#MUSICLENGTH:225.728;
// end cache tags

//---------------dance-single - ----------------
#NOTES:
     dance-single:
     :
     Challenge:
     11:
     0.623,0.693,0.899,0.208,0.445,732.000,203.000,47.000,0.000,15.000:

1000
0100
0000
0000
0000
0000
1000
0100
0000
0000
0000
0000
1000
0100
0000
0000
0000
0000
1000
0100
0000
0000
0000
0000
0010
0001
0000
0000
0000
0000
0010
0001
0000
0000
0000
0000
0010
0001
0000
0000
0000
0000
0010
0001
0000
0000
0000
0000
,
1000
0010
0000
0000
0000
0000
0100
0001
0000
0000
0000
0000
1000
0100
0000
0000
0000
0000
0010
0001
0000
0000
0000
0000
1000
0010
0000
0000
0000
0000
1000
0100
0000
0000
0000
0000
0001
0010
0000
0000
0000
0000
0001
0100
0000
0000
0000
0000
,
1001
1000
0010
0000
1100
0000
0110
0000
0011
0000
0000
0000
0000
0000
0000
0000
,
1100
0100
0010
0000
0011
0000
0101
0000
1010
0000
0000
0000
0000
0000
0000
0000
,
1100
1000
0000
0010
0000
0100
0001
0000
0101
0000
0000
0000
0000
0000
0000
0000
,
1000
0010
0000
0100
0000
0010
2000
0000
0000
0000
0002
0000
0000
0000
3003
0000
,
1100
0010
0101
1000
0110
0000
0000
0000
,
1000
0010
0100
0001
1001
0000
0000
0000
,
0010
1100
0000
0110
0000
0011
0002
0000
0000
0000
0000
0000
2000
0000
3003
0000
,
1100
0000
0100
0000
0110
0000
0010
0000
0011
0000
0001
0000
1001
1000
0100
0010
,
0011
0000
1000
0100
0010
0001
1000
0010
,
0100
0001
1000
0010
0100
0001
1001
0000
,
0000
0000
0001
0010
0100
1000
0001
0100
,
0010
1000
0001
0100
0010
1000
0002
0000
,
2000
0000
0000
0000
0000
0000
0000
0000
0000
0000
0000
0000
0000
0000
0000
0000
0000
0000
0000
0000
0000
0000
0000
0000
0000
0000
0000
0000
0000
0000
0000
0000
0000
0000
0000
0000
0000
0000
0000
0000
3003
0000
0000
0000
0000
0000
0000
0000
1000
0000
0000
0000
0010
0000
0000
0000
0000
0200
0000
0000
0000
0000
0000
0000
,
0000
0000
0000
0000
0000
0000
0000
0000
0000
0000
0300
0000
0000
0000
0000
0000
0001
0000
0000
0000
0010
0000
0000
0000
0000
0200
0000
0000
0000
0000
0000
0000
0000
0000
0000
0000
0000
0000
0000
0000
0000
0000
0300
0000
0000
0000
0000
0000
0001
0000
0000
0000
1000
0000
0000
0000
0000
2002
0000
0000
0000
0000
0000
0000
,
0000
0000
0000
0000
0000
0000
0000
0000
0000
0000
0000
0000
0000
0000
0000
0000
0000
0000
0000
0000
0000
0000
0000
0000
0000
0000
0000
0000
0000
0000
0000
0000
0000
0000
0000
0000
0000
0000
0000
0000
0000
0000
0000
0000
0000
0000
0000
0000
0000
0000
0000
0000
0000
0000
0000
0000
0000
3003
0000
0000
0000
0000
0000
0000
,
1100
0000
0000
0110
0000
0000
0011
0000
0000
1001
0000
0000
1100
0000
0100
0000
0010
0000
0011
0000
0001
0000
1000
0000
,
1001
0000
1100
0110
0011
0001
0100
0010
,
1000
0100
0110
0011
1001
1000
0010
0100
,
0001
0100
0110
1010
1001
1000
0100
0010
,
0001
0010
0100
1000
0100
0010
1001
0000
,
1100
0100
0010
0011
0110
0100
1000
0010
,
0100
0001
0101
0110
1010
1000
0100
1000
,
0010
0100
0101
0011
1100
1000
0010
1000
,
1100
1001
0101
1001
1010
1001
0011
0110
,
1100
1000
0010
0000
0100
0000
0001
0000
0101
0000
0000
0000
1001
0000
0000
0000
,
1100
0110
0001
0100
1010
0000
1001
0000
,
1000
0010
0000
0100
0000
0010
1000
0000
0101
0000
0000
0000
0000
0000
0000
0000
,
1001
1000
0000
0100
0000
0010
0002
0000
0000
0000
2000
0000
0000
0000
3003
0000
,
1000
0010
0100
0010
1010
0000
1001
0000
,
0101
0010
0100
0010
1100
0000
0110
0000
,
0011
0001
0000
0010
0000
0001
0022
0000
0000
0000
0000
0000
1000
0000
0033
0000
,
1100
0000
0000
0001
0000
0000
0101
0000
0000
1000
0000
0000
1100
0000
0110
0000
0011
0000
1001
0000
1100
0000
1010
0000
,
1000
0100
0000
0000
0000
0000
0010
0001
0000
0000
0000
0000
0001
0010
0000
0000
0000
0000
0100
1000
0000
0000
0000
0000
1000
0100
0000
0000
0000
0000
0100
0010
0000
0000
0000
0000
0010
0001
0000
0000
0000
0000
0001
1000
0000
0000
0000
0000
,
1000
0100
0000
0000
0000
0000
1000
0010
0000
0000
0000
0000
1000
0001
0000
0000
0000
0000
0100
0001
0000
0000
0000
0000
0010
0001
0000
0000
0000
0000
0001
0100
0000
0000
0000
0000
0100
0010
0000
0000
0000
0000
0010
1000
0000
0000
0000
0000
,
1001
0000
1000
0010
0001
0100
1000
0010
,
1000
0100
0001
0010
1000
0100
0110
0000
,
0000
0000
1000
0010
0001
1000
0100
0001
,
0010
1000
0001
0100
1000
0200
0020
0000
,
0001
0000
0000
0000
0000
0000
0000
0000
0000
0000
0000
0000
0000
0000
0000
0000
2002
0000
0000
0000
0000
0000
0000
0000
0000
0000
0000
0000
0000
0000
0000
0000
3003
0000
0000
0000
0000
0000
0000
0000
0330
0000
0000
0000
0000
0000
0000
0000
1000
0000
0000
0000
0010
0000
0000
0000
0000
0002
0000
0000
0000
0000
0000
0000
,
0000
0000
0000
0000
0000
0000
0000
0000
0000
0003
0000
0000
0000
0000
0000
0000
0001
0000
0000
0000
0010
0000
0000
0000
0000
2000
0000
0000
0000
0000
0000
0000
0000
0000
0000
0000
0000
0000
0000
0000
0000
0000
3000
0000
0000
0000
0000
0000
1000
0000
0000
0000
0100
0000
0000
0000
0000
0020
0000
0000
0000
0000
0000
0000
,
0001
0000
0000
0000
0001
0030
0000
0000
0100
0000
0000
0000
0010
0000
1000
0000
0000
0000
1000
0000
0100
0000
0000
0000
0110
0000
0000
0000
0010
0000
0000
0000
,
0011
0000
0000
1000
0000
0000
0100
0000
0000
1000
0000
0000
1010
0000
1010
0000
0110
0000
0110
0000
0101
0000
0101
0000
,
1001
0000
1000
0100
0010
0001
0010
0100
,
1000
0100
0010
0001
0010
0100
1001
0000
,
0000
0000
1000
0010
0100
0001
0100
0010
,
1000
0010
0100
0001
0200
0000
0020
0000
,
1000
0000
0000
0000
0000
0000
0000
0000
0330
0000
0000
0000
0000
0000
0000
0000
1112
0003
0000
0000
0000
0000
0000
0000
1100
0000
0000
0000
0100
0000
0000
0000
,
0110
0000
0000
0000
0010
0000
0000
0000
0000
0001
0000
0000
0000
0000
0000
0000
0011
0000
0000
0000
0000
0000
0000
0000
0001
0000
0000
0000
0000
0000
0000
0000
0101
0000
0000
0000
0100
0000
0000
0000
0000
0010
0000
0000
0000
0000
0000
0000
1010
0000
0000
0000
0000
0000
0000
0000
0000
0000
0000
0000
0000
0000
0000
0000
,
1010
0000
0101
0000
1001
0000
0000
0000
0000
0000
0000
0000
1000
0100
0010
0100
,
1000
0001
0010
0100
0010
0001
0100
0010
1000
0100
0010
0001
1001
1000
0010
0000
,
0100
0000
0001
0000
0101
0000
0000
0000
0000
0000
0000
0000
1000
0010
0100
0000
,
0101
0000
0110
0000
1010
0000
0000
0000
0000
0000
0000
0000
1000
1000
0000
0100
,
0000
0010
0010
0000
0011
0000
0000
0000
0000
0000
0000
0000
1000
0010
0000
0100
,
0000
0010
1000
0000
1001
0000
0010
0000
1001
0000
0100
0000
1100
0000
0100
0000
,
1010
0001
0101
0000
0000
0000
0011
0100
,
0011
0000
1000
0000
0011
0000
0000
0000
0000
0000
0000
0000
1000
0010
0000
0010
,
0000
0001
0020
0000
0000
0000
0000
0000
1030
0000
0000
0000
1001
0000
0100
0000
,
0110
0000
0000
0000
0000
0000
0001
0000
0000
0000
0000
0000
2100
0000
0000
0000
0100
0000
0000
0000
3100
0000
0000
0000
0210
0000
0000
0000
0010
0000
0000
0000
0310
0000
0000
0000
0011
0000
0000
0001
0000
0000
0010
0000
0000
0000
0000
0000
,
0100
0000
1000
0000
1010
0000
0100
0000
0101
0000
0000
0000
1000
0100
0001
0000
,
0100
0000
1000
0000
0010
0000
0101
0000
1001
0000
0000
0000
1000
0100
0000
1000
,
0000
0010
0100
0000
0001
0000
1100
0000
0011
0000
0000
0000
1100
0010
0000
0101
,
0000
0010
0011
0000
1001
1000
0100
0010
0011
0001
0100
0010
1010
0000
1000
0000
,
0100
1000
0010
0110
1001
0000
1100
0110
,
0011
0000
0110
0000
1100
0000
1001
0000
0101
0000
0000
0000
1000
0100
0000
0010
,
0000
0000
0000
0000
0000
0000
0000
0000
0000
0000
0000
0000
0100
0000
0000
0000
0000
0000
0000
0000
0000
0000
0000
0000
2000
0000
0000
0000
0000
0000
0000
0000
0000
0000
0000
0000
0000
0000
0000
0000
0000
0000
0000
0000
0000
0000
0000
0000
0000
0000
0000
0000
0000
0000
0000
0000
0000
0000
0000
0000
0000
0000
0000
0000
0000
0000
0000
0000
0000
0000
0000
0000
0000
0000
0000
0000
0000
0000
0000
0000
0000
0000
0000
0000
0000
0000
0000
0000
0000
0000
0000
0000
0000
0000
0000
0000
3011
0000
0000
0000
0000
0000
0000
0000
0000
0000
0000
0000
0000
0000
0000
0000
0000
0000
0000
0000
0000
0000
0000
0000
0000
0000
0000
0000
0000
0000
0000
0000
0000
0000
0000
0000
0000
0000
0000
0000
0000
0000
0000
0000
0000
0000
0000
0000
1100
0000
0000
0000
0000
0000
0010
0000
0000
0000
0000
0000
0101
0000
0000
0000
0000
0000
1000
0000
0000
0000
0000
0000
1000
0000
0000
0000
0100
0000
0000
0000
0010
0000
0000
0000
0001
0000
0000
0000
0010
0000
0000
0000
0100
0000
0000
0000
,
2200
0000
3300
0010
0001
0010
0100
1000
,
2020
0000
3030
0100
0001
0010
0100
0010
,
0022
0000
0033
0000
1100
0010
0101
0000
,
1000
0000
0010
0000
0100
0000
0010
0000
1000
0000
0100
0000
0110
0010
0100
1000
,
1100
0000
0000
0000
1001
0000
0000
0101
0000
0001
0100
0000
1010
1000
0010
0100
,
0101
0000
0001
0000
0110
0000
0010
1000
0000
1000
0100
0000
0110
0000
0011
0000
,
1001
1000
0100
0010
0110
0000
0010
0011
0000
1001
1000
0000
1010
0000
0000
0000
,
1000
0100
0010
0000
0001
0100
0010
0000
1000
0010
0100
0000
0000
0001
0000
0010
,
0110
0100
0010
0000
1000
0000
0100
0000
2000
0000
0002
0000
0010
0000
3003
0000
,
1010
1000
0100
0000
0010
0000
0100
0000
2200
0000
0011
0000
0000
0000
3300
0000
,
1000
0001
0000
0100
0000
0010
2000
0000
0002
0000
0100
0000
0010
0000
3003
0000
,
1100
0100
0000
0010
0000
0001
2002
0000
0000
0000
0110
0000
3003
0000
0000
0000
,
1001
1000
1010
0101
1001
0000
0110
0000
,
1000
0100
0010
0001
0101
0000
0000
0000
,
1000
2000
0000
0010
0000
0100
0200
0000
0000
0000
0000
0000
0001
3300
0000
0000
,
1100
0000
0000
0001
0000
0000
0101
0000
0000
0010
0000
0000
1000
0000
0100
0000
0001
0000
1000
0000
0010
0000
0001
0000
,
1001
1000
0010
0000
0100
0000
0010
0000
1010
0000
0101
0000
0001
0010
0100
1000
,
1100
0100
0010
0000
0001
0000
0100
0000
0010
0000
1010
0000
1000
0100
1000
0010
,
0110
0100
0000
0010
0000
1000
1100
0000
0110
0000
0011
0000
0001
0010
0100
1000
,
0010
0100
0000
0001
0000
0100
0010
1000
1100
0100
0010
0001
0011
0010
0100
1000
,
1100
0000
1001
0000
0011
0000
1100
0000
0110
0000
1001
0000
1000
0010
0100
0001
,
1001
0000
1000
0000
1100
0000
0100
0000
0110
0000
0010
0000
0001
0100
1000
0100
,
0001
0010
0000
0100
0000
1000
0020
0000
0000
0000
0000
0000
1001
0000
0030
0000
,
2000
0000
0000
0000
0000
0000
0200
0000
0000
0000
0000
0000
0001
0000
0000
0000
0000
0000
0001
0000
0000
3300
0000
0000
1000
0000
0000
0000
0100
0000
0000
0000
1000
0000
0000
0000
0010
0000
0000
0000
0100
0000
0000
0000
0001
0000
0000
0000
,
1000
0100
0000
0000
0000
0000
0100
0001
0000
0000
0000
0000
0001
1000
0000
0000
0000
0000
1000
0010
0000
0000
0000
0000
0010
0001
0000
0000
0000
0000
0001
1000
0000
0000
0000
0000
1000
0001
0000
0000
0000
0000
0001
0100
0000
0000
0000
0000
,
1001
0000
0000
0000
;
