#TITLE:Eternal Eyes;
#SUBTITLE:Atelier Iris Eternal Mana (2004);
#ARTIST:Ken Nakagawa, Daisuke Achiwa, Akira Tsuchiya;
#TITLETRANSLIT:;
#SUBTITLETRANSLIT:;
#ARTISTTRANSLIT:;
#CREDIT:;
#BANNER:Eternal Eyes.jpg;
#BACKGROUND:Eternal Eyes-bg.jpg;
#LYRICSPATH:;
#CDTITLE:!djossa.png;
#MUSIC:Eternal Eyes.mp3;
#OFFSET:1.355;
#SAMPLESTART:43.280;
#SAMPLELENGTH:12.000;
#SELECTABLE:YES;
#BPMS:0.000=100.000;
#STOPS:;
#BGCHANGES:;
// cache tags:
#FIRSTBEAT:4.000;
#LASTBEAT:148.500;
#SONGFILENAME:Songs/VGMP 3/Eternal Eyes (Dj_Ossa)/Eternal Eyes.sm;
#HASMUSIC:1;
#HASBANNER:1;
#MUSICLENGTH:91.062;
// end cache tags

//---------------dance-single - Blank----------------
#NOTES:
     dance-single:
     Blank:
     Challenge:
     12:
     1.000,1.000,1.000,1.000,1.000,436.000,196.000,183.000,0.000,104.000:






0000
0000
0000
0000
,
2101
0000
0000
0000
0000
0001
0001
0000
,
0000
0000
0000
0000
0000
0000
0000
0000
0002
0003
0000
0000
0000
0000
0000
0000
3200
0000
0000
0000
0000
0000
0000
0000
0320
0000
0000
0000
0000
0000
0000
0000
0231
0000
0000
0000
0000
0000
0000
0000
0000
0000
0000
0000
0000
0000
0000
0000
0000
0000
0000
0000
0000
0000
0000
0000
0000
0000
0000
0000
0000
0000
0000
0000
,
0000
0000
0000
0000
0000
0000
0000
0000
0001
0000
0000
0000
0000
0000
0000
0000
0001
0000
0000
0000
0000
0000
0000
0000
0000
0000
0000
0000
0000
0000
0000
0000
0000
0000
0000
0000
0000
0000
0000
0000
0002
0003
0000
0000
0000
0000
0000
0000
0320
0000
0000
0000
0000
0000
0000
0000
0032
0000
0000
0000
0000
0000
0000
0000
,
1123
0000
0000
0000
0000
1000
1000
0000
,
0000
0000
0000
0000
0000
0000
0000
0000
0002
0003
0000
0000
0000
0000
0000
0000
0032
0000
0000
0000
0000
0000
0000
0000
2003
0000
0000
0000
0000
0000
0000
0000
3102
0000
0000
0000
0000
0000
0000
0000
0000
0000
0000
0000
0000
0000
0000
0000
0000
0000
0000
0000
0000
0000
0000
0000
0000
0000
0000
0000
0000
0000
0000
0000
,
0000
0000
0000
0000
0000
0000
0000
0000
0100
0000
0000
0000
0000
0000
0000
0000
0123
0000
0000
0000
0000
0000
0000
0000
0000
0000
0000
0000
0000
0000
0000
0000
0000
0000
0000
0000
0000
0000
0000
0000
0232
0003
0000
0000
0000
0000
0000
0000
0000
0000
0000
0000
0000
0000
0000
0000
0000
0000
0000
0000
0000
0000
0000
0300
,
2101
0010
0101
0011
0100
0010
0101
0010
0100
0010
0101
0010
0101
0010
0101
0011
,
0100
0000
0000
0000
0010
0000
0001
0000
0210
0300
0000
0000
0011
0000
0000
0000
3201
0000
0000
0000
1010
0000
0000
0000
0321
0000
0000
0000
1000
0000
0000
0000
1231
0000
0000
0000
0010
0000
0000
0000
1001
0000
0000
0000
0011
0000
0000
0000
1000
0000
0000
0000
0010
0000
0000
0000
1001
0000
0000
0000
0010
0000
0000
0000
,
1000
0000
0000
0000
0010
0000
0000
0000
1001
0000
0000
0000
0010
0000
0000
0000
1001
0000
0000
0000
0010
0000
0000
0000
1001
0000
0000
0000
0011
0000
0000
0000
1000
0000
0000
0000
0011
0000
1000
0000
0012
0003
0000
0000
1010
0000
0000
0000
1320
0000
0000
0000
0101
0000
0000
0000
1132
0000
0000
0000
0110
0000
0000
0003
,
1021
0100
1001
1100
0001
0100
1001
0100
0001
0100
1001
0100
1001
0100
1001
1100
,
0001
0000
0000
0000
0000
0000
0000
0000
0000
0000
0000
0000
1100
0000
0000
0000
0000
0000
0001
0000
0000
0000
0000
0000
2100
0000
0000
3000
0000
0000
0000
0000
0000
0000
0000
0000
0101
0000
0000
0000
0000
0000
0000
0000
0000
0000
0000
0000
1032
0000
0000
0000
0000
0000
0000
0000
0000
0000
0000
0000
0110
0000
0000
0000
0000
0000
0000
0000
0000
0000
0000
0000
2013
0000
0000
0000
0000
0000
0000
0000
0000
0000
0000
0000
0100
0000
0000
0000
0000
0000
0000
0000
0000
0000
0000
3000
1012
0000
0000
0000
0000
0000
0000
0000
0000
0000
0000
0000
0100
0000
0000
0000
0000
0000
0000
0000
0000
0000
0000
0000
1010
0000
0000
0000
0000
0000
0000
0000
0000
0000
0000
0000
0110
0000
0000
0000
0000
0000
0000
0000
0000
0000
0000
0000
1000
0000
0000
0000
0000
0000
0000
0000
0000
0000
0000
0000
0100
0000
0000
0000
0000
0000
0000
0000
0000
0000
0000
0000
1010
0000
0000
0000
0000
0000
0000
0000
0000
0000
0000
0000
0100
0000
0000
0000
0000
0000
0000
0000
0000
0000
0000
0000
,
1000
0000
0000
0000
0100
0000
0000
0000
1010
0000
0000
0000
0100
0000
0000
0000
1013
0000
0000
0000
0100
0000
0000
0000
1010
0000
0000
0000
0110
0000
0000
0000
1000
0000
0000
0000
0110
0000
1000
0000
0122
0003
0000
0000
1100
0000
0000
0000
1032
0000
0000
0000
0110
0000
0000
0000
2213
0000
0000
0000
0311
0000
0000
0000
,
3211
0000
0000
1000
0000
1000
0001
0000
0000
0000
0010
0000
2310
0000
0000
0100
,
0000
0100
3002
0100
0100
0000
0100
0000
1023
0000
0000
0100
0000
0100
0001
0000
,
0000
0000
1000
0000
1000
0100
0000
0100
0100
0100
0030
0100
0102
0000
0123
0100
,
1231
0000
0000
1000
0000
1000
0001
0000
0320
0000
0231
0000
2301
0000
0000
0010
,
0000
0010
3002
0010
2013
0000
3210
0000
1320
0000
0000
0100
0000
0100
0001
0000
,
0000
0000
0100
0000
1000
0000
0100
0001
1000
0000
0100
0000
0000
0000
0100
0000
0130
0000
0100
0000
2000
0000
0100
0000
3210
0000
0000
0000
0312
0000
0010
0000
,
1123
0000
0000
0100
0000
0100
0001
0000
0000
0000
1000
0000
1230
0000
0000
0010
,
0000
0010
2300
0100
0100
0000
0100
0000
3012
0000
0000
0100
0000
0100
0010
0000
,
0000
0000
0010
0000
0010
0100
0000
0100
0100
0100
0003
0100
2100
0000
3102
0100
,
1123
0000
0000
0100
0000
0100
0001
0000
0032
0000
1023
0000
1230
0000
0000
0010
,
0000
0010
2300
0010
3012
0000
0123
0000
0132
0000
0000
0010
0000
0010
1000
0000
,
0000
0000
0010
0000
0100
0000
0010
1000
0100
0000
0010
0000
0000
0000
0010
0000
0010
0000
0010
0000
0000
0000
0010
0000
0010
0000
0000
0000
0013
0000
0010
0000
,
2101
3000
0020
0030
1001
0000
0201
0300
2000
3000
0100
0000
1002
0003
0010
0000
2000
3000
0100
0000
1002
0003
0100
0000
2001
3000
0020
0030
1001
0000
0201
0300
,
2000
0000
0000
0000
0000
0000
3000
0000
0000
0000
0000
0000
0110
0000
0000
0000
0000
0000
0001
0000
0000
0000
0000
0000
2120
0000
0000
0030
3000
0000
0000
0000
0000
0000
0000
0000
0110
0000
0000
0000
0000
0000
0000
0000
0000
0000
0000
0000
0002
0000
0000
0000
0003
0000
0000
0000
0000
0000
0000
0000
0110
0000
0000
0000
0000
0000
0000
0000
0000
0000
0000
0000
1001
0000
0000
0000
0000
0000
0000
0000
0000
0000
0000
0000
0010
0000
0000
0000
0000
0000
0000
0000
0000
0000
0000
0000
1200
0000
0000
0000
0000
0000
0300
0000
0000
0000
0000
0000
0002
0000
0000
0000
0000
0000
0003
0000
0000
0000
0000
0000
1100
0000
0000
0000
0000
0000
0000
0000
0000
0000
0000
0000
1020
0000
0000
0000
0000
0000
0030
0000
0000
0000
0000
0000
0200
0000
0000
0000
0000
0000
0300
0000
0000
0000
0000
0000
0010
0000
0000
0000
0000
0000
0000
0000
0000
0000
0000
0000
2100
0000
0000
0000
0000
0000
3000
0000
0000
0000
0000
0000
0001
0000
0000
0000
0000
0000
0000
0000
0000
0000
0000
0000
,
0200
0000
0000
0000
0000
0000
0300
0000
0000
0000
0000
0000
0010
0000
0000
0000
0000
0000
0000
0000
0000
0000
0000
0000
2100
0000
0000
0000
0000
0000
3000
0000
0000
0000
0000
0000
0010
0000
0000
0000
0000
0000
0000
0000
0000
0000
0000
0000
1200
0000
0000
0000
0000
0000
0300
0000
0000
0000
0000
0000
0002
0000
0000
0000
0000
0000
0003
0000
0000
0000
0000
0000
1100
0000
0000
0000
0000
0000
0000
0000
0000
0000
0000
0000
1020
0000
0000
0000
0000
0000
0030
0000
0000
0000
0000
0000
0200
0000
0000
0000
0000
0000
0300
0000
0000
0000
0000
0000
0011
0000
0000
0000
0000
0000
1000
0000
0000
0000
0000
0000
0212
0000
0000
0003
0000
0000
0300
0000
0000
0000
0000
0000
0021
0000
0000
0000
0000
0000
0030
0000
0000
0000
0000
0000
2000
0000
0000
0000
3000
0000
0000
0000
0000
0000
0000
0000
0011
0000
0000
0000
0000
0000
0000
0000
0000
0000
0000
0000
1101
0000
0000
0000
0000
0000
0000
0000
0000
0000
0000
0000
0011
0000
0000
0000
0000
0000
0000
0000
0000
0000
0000
0000
,
0121
0030
2000
3000
0110
0000
0102
0003
0020
0030
0001
0000
0210
0300
1000
0000
0020
0030
0001
0000
0210
0300
0001
0000
0120
0030
2000
3000
0110
0000
0102
0003
,
0020
0000
0000
0000
0000
0000
0030
0000
0000
0000
0000
0000
1001
0000
0000
0000
0000
0000
0100
0000
0000
0000
0000
0000
2021
0000
0000
3000
0030
0000
0000
0000
0000
0000
0000
0000
1001
0000
0000
0000
0000
0000
0000
0000
0000
0000
0000
0000
0200
0000
0000
0000
0300
0000
0000
0000
0000
0000
0000
0000
1001
0000
0000
0000
0000
0000
0000
0000
0000
0000
0000
0000
0110
0000
0000
0000
0000
0000
0000
0000
0000
0000
0000
0000
0001
0000
0000
0000
0000
0000
0000
0000
0000
0000
0000
0000
1200
0000
0000
0000
0000
0000
0300
0000
0000
0000
0000
0000
0002
0000
0000
0000
0000
0000
0003
0000
0000
0000
0000
0000
1100
0000
0000
0000
0000
0000
0000
0000
0000
0000
0000
0000
1020
0000
0000
0000
0000
0000
0030
0000
0000
0000
0000
0000
0200
0000
0000
0000
0000
0000
0300
0000
0000
0000
0000
0000
0010
0000
0000
0000
0000
0000
0000
0000
0000
0000
0000
0000
2100
0000
0000
0000
0000
0000
3000
0000
0000
0000
0000
0000
0001
0000
0000
0000
0000
0000
0000
0000
0000
0000
0000
0000
,
0200
0000
0000
0000
0000
0000
0300
0000
0000
0000
0000
0000
0010
0000
0000
0000
0000
0000
0000
0000
0000
0000
0000
0000
2100
0000
0000
0000
0000
0000
3000
0000
0000
0000
0000
0000
0010
0000
0000
0000
0000
0000
0000
0000
0000
0000
0000
0000
1200
0000
0000
0000
0000
0000
0300
0000
0000
0000
0000
0000
0002
0000
0000
0000
0000
0000
0003
0000
0000
0000
0000
0000
1100
0000
0000
0000
0000
0000
0000
0000
0000
0000
0000
0000
1020
0000
0000
0000
0000
0000
0030
0000
0000
0000
0000
0000
0200
0000
0000
0000
0000
0000
0300
0000
0000
0000
0000
0000
0011
0000
0000
0000
0000
0000
1000
0000
0000
0000
0000
0000
0212
0000
0000
0003
0000
0000
0300
0000
0000
0000
0000
0000
0021
0000
0000
0000
0000
0000
0030
0000
0000
0000
0000
0000
2000
0000
0000
0000
3000
0000
0000
0000
0000
0000
0000
0000
0011
0000
0000
0000
0000
0000
0000
0000
0000
0000
0000
0000
1101
0000
0000
0000
0000
0000
0000
0000
0000
0000
0000
0000
0011
0000
0000
0000
0000
0000
0000
0000
0000
0000
0000
0000
,
2101
3000
0020
0030
1001
0000
0201
0300
2000
3000
0100
0000
1102
0003
0010
0000
2000
3000
0100
0000
1002
0003
0100
0000
2001
3000
0020
0030
1001
0000
0201
0300
,
2000
0000
0000
0000
0000
0000
3000
0000
0000
0000
0000
0000
0110
0000
0000
0000
0000
0000
0001
0000
0000
0000
0000
0000
2120
0000
0000
0030
3000
0000
0000
0000
0000
0000
0000
0000
0110
0000
0000
0000
0000
0000
0000
0000
0000
0000
0000
0000
0002
0000
0000
0000
0003
0000
0000
0000
0000
0000
0000
0000
0110
0000
0000
0000
0000
0000
0000
0000
0000
0000
0000
0000
1001
0000
0000
0000
0000
0000
0000
0000
0000
0000
0000
0000
0010
0000
0000
0000
0000
0000
0000
0000
0000
0000
0000
0000
1200
0000
0000
0000
0000
0000
0300
0000
0000
0000
0000
0000
0002
0000
0000
0000
0000
0000
0003
0000
0000
0000
0000
0000
1100
0000
0000
0000
0000
0000
0000
0000
0000
0000
0000
0000
1020
0000
0000
0000
0000
0000
0030
0000
0000
0000
0000
0000
0200
0000
0000
0000
0000
0000
0300
0000
0000
0000
0000
0000
0010
0000
0000
0000
0000
0000
0000
0000
0000
0000
0000
0000
2110
0000
0000
0000
0000
0000
3000
0000
0000
0000
0000
0000
0001
0000
0000
0000
0000
0000
0000
0000
0000
0000
0000
0000
,
0200
0000
0000
0000
0000
0000
0300
0000
0000
0000
0000
0000
0010
0000
0000
0000
0000
0000
0000
0000
0000
0000
0000
0000
2100
0000
0000
0000
0000
0000
3000
0000
0000
0000
0000
0000
0010
0000
0000
0000
0000
0000
0000
0000
0000
0000
0000
0000
1200
0000
0000
0000
0000
0000
0300
0000
0000
0000
0000
0000
0002
0000
0000
0000
0000
0000
0003
0000
0000
0000
0000
0000
1100
0000
0000
0000
0000
0000
0000
0000
0000
0000
0000
0000
1020
0000
0000
0000
0000
0000
0030
0000
0000
0000
0000
0000
0200
0000
0000
0000
0000
0000
0300
0000
0000
0000
0000
0000
0011
0000
0000
0000
0000
0000
1000
0000
0000
0000
0000
0000
0212
0000
0000
0003
0000
0000
0300
0000
0000
0000
0000
0000
0021
0000
0000
0000
0000
0000
0030
0000
0000
0000
0000
0000
2000
0000
0000
0000
3000
0000
0000
0000
0000
0000
0000
0000
0011
0000
0000
0000
0000
0000
0000
0000
0000
0000
0000
0000
1101
0000
0000
0000
0000
0000
0000
0000
0000
0000
0000
0000
0011
0000
0000
0000
0000
0000
0000
0000
0000
0000
0000
0000
,
0121
0030
2000
3000
0110
0000
0102
0003
0020
0030
0001
0000
0211
0300
1000
0000
0020
0030
0001
0000
0210
0300
0001
0000
0120
0030
2000
3000
0110
0000
0102
0003
,
0020
0000
0000
0000
0000
0000
0030
0000
0000
0000
0000
0000
1001
0000
0000
0000
0000
0000
0100
0000
0000
0000
0000
0000
2021
0000
0000
3000
0030
0000
0000
0000
0000
0000
0000
0000
1001
0000
0000
0000
0000
0000
0000
0000
0000
0000
0000
0000
0200
0000
0000
0000
0300
0000
0000
0000
0000
0000
0000
0000
1001
0000
0000
0000
0000
0000
0000
0000
0000
0000
0000
0000
0110
0000
0000
0000
0000
0000
0000
0000
0000
0000
0000
0000
0001
0000
0000
0000
0000
0000
0000
0000
0000
0000
0000
0000
1200
0000
0000
0000
0000
0000
0300
0000
0000
0000
0000
0000
0002
0000
0000
0000
0000
0000
0003
0000
0000
0000
0000
0000
1100
0000
0000
0000
0000
0000
0000
0000
0000
0000
0000
0000
1020
0000
0000
0000
0000
0000
0030
0000
0000
0000
0000
0000
0200
0000
0000
0000
0000
0000
0300
0000
0000
0000
0000
0000
0010
0000
0000
0000
0000
0000
0000
0000
0000
0000
0000
0000
2110
0000
0000
0000
0000
0000
3000
0000
0000
0000
0000
0000
0001
0000
0000
0000
0000
0000
0000
0000
0000
0000
0000
0000
,
0200
0000
0000
0000
0000
0000
0300
0000
0000
0000
0000
0000
0010
0000
0000
0000
0000
0000
0000
0000
0000
0000
0000
0000
2100
0000
0000
0000
0000
0000
3000
0000
0000
0000
0000
0000
0010
0000
0000
0000
0000
0000
0000
0000
0000
0000
0000
0000
1200
0000
0000
0000
0000
0000
0300
0000
0000
0000
0000
0000
0002
0000
0000
0000
0000
0000
0003
0000
0000
0000
0000
0000
1100
0000
0000
0000
0000
0000
0000
0000
0000
0000
0000
0000
1020
0000
0000
0000
0000
0000
0030
0000
0000
0000
0000
0000
0200
0000
0000
0000
0000
0000
0300
0000
0000
0000
0000
0000
0011
0000
0000
0000
0000
0000
1000
0000
0000
0000
0000
0000
0212
0000
0000
0003
0000
0000
0300
0000
0000
0000
0000
0000
0021
0000
0000
0000
0000
0000
0030
0000
0000
0000
0000
0000
2000
0000
0000
0000
3000
0000
0000
0000
0000
0000
0000
0000
0011
0000
0000
0000
0000
0000
0000
0000
0000
0000
0000
0000
1201
0000
0000
0000
0000
0000
0000
0000
0000
0000
0000
0000
0311
0000
0000
0000
0000
0000
0000
0000
0000
0000
0000
0000
,
1102
0003
0000
0000
0000
0000
0000
0000
;

//---------------dance-single - Blank----------------
#NOTES:
     dance-single:
     Blank:
     Hard:
     10:
     1.000,1.000,1.000,0.824,1.000,453.000,117.000,75.000,0.000,41.000:

0000
0000
0000
0000
,
2100
0010
0000
0010
0100
0000
0001
0000
0100
0000
0001
0000
0100
0010
0000
0010
,
0100
0000
0000
0000
0000
0000
0000
0000
0002
0003
0000
0000
0000
0000
0000
0000
3210
0000
0000
0000
0000
0000
0000
0000
0320
0000
0000
0000
0000
0000
0000
0000
0231
0000
0000
0000
0010
0000
0000
0000
0000
0000
0000
0000
0010
0000
0000
0000
0001
0000
0000
0000
0000
0000
0000
0000
1000
0000
0000
0000
0000
0000
0000
0000
,
0010
0000
0000
0000
0000
0000
0000
0000
1000
0000
0000
0000
0000
0000
0000
0000
0001
0000
0000
0000
0010
0000
0000
0000
0000
0000
0000
0000
0010
0000
0000
0000
0001
0000
0000
0000
0000
0000
0000
0000
0002
0003
0000
0000
1000
0000
0000
0000
0321
0000
0000
0000
0000
0000
0000
0000
0032
0000
0000
0000
0000
0000
0000
0000
,
1023
0100
0000
0100
1000
0000
0001
0000
1000
0000
0001
0000
1000
0100
0000
0100
,
1000
0000
0000
0000
0000
0000
0000
0000
0002
0003
0000
0000
0000
0000
0000
0000
0132
0000
0000
0000
0000
0000
0000
0000
2003
0000
0000
0000
0000
0000
0000
0000
3102
0000
0000
0000
0010
0000
0000
0000
0000
0000
0000
0000
0010
0000
0000
0000
0100
0000
0000
0000
0000
0000
0000
0000
1000
0000
0000
0000
0000
0000
0000
0000
,
0010
0000
0000
0000
0000
0000
0000
0000
1000
0000
0000
0000
0000
0000
0000
0000
0123
0000
0000
0000
1000
0000
0000
0000
0000
0000
0000
0000
0100
0000
0000
0000
0001
0000
0000
0000
0000
0000
0000
0000
0232
0003
0000
0000
1000
0000
0000
0000
0010
0000
0000
0000
0000
0000
0000
0000
0000
0000
0000
0000
0000
0000
0000
0000
,
2310
0001
0010
0010
0001
0000
0100
0000
0001
0000
0100
0000
0001
0100
0010
0010
,
0100
0000
0000
0000
0010
0000
0100
0000
0002
0003
0000
0000
0010
0000
0000
0000
3201
0000
0000
0000
0010
0000
0000
0000
0320
0000
0000
0000
0000
0000
0000
0000
1230
0000
0000
0000
0010
0000
0000
0000
1000
0000
0000
0000
1000
0000
0000
0000
0010
0000
0000
0000
0000
0000
0000
0000
0001
0000
0000
0000
0000
0000
0000
0000
,
1000
0000
0000
0000
0000
0000
0000
0000
0010
0000
0000
0000
0000
0000
0000
0000
0001
0000
0000
0000
0010
0000
0000
0000
1000
0000
0000
0000
1000
0000
0000
0000
0010
0000
0000
0000
1000
0000
0010
0000
0002
0003
0000
0000
1000
0000
0000
0000
0321
0000
0000
0000
1000
0000
0000
0000
1032
0000
0000
0000
1000
0000
0000
0000
,
1023
0001
0100
0100
0001
0000
1000
0000
0100
0000
0001
0000
1000
0001
0100
0100
,
0001
0000
0000
0000
0100
0000
0001
0000
2000
3000
0000
0000
0100
0000
0000
0000
1032
0000
0000
0000
0100
0000
0000
0000
2003
0000
0000
0000
0000
0000
0000
0000
3012
0000
0000
0000
1000
0000
0000
0000
0100
0000
0000
0000
0100
0000
0000
0000
0010
0000
0000
0000
0000
0000
0000
0000
1000
0000
0000
0000
0000
0000
0000
0000
,
0100
0000
0000
0000
0000
0000
0000
0000
0010
0000
0000
0000
0000
0000
0000
0000
1003
0000
0000
0000
0010
0000
0000
0000
0100
0000
0000
0000
0100
0000
0000
0000
0010
0000
0000
0000
0100
0000
1000
0000
0022
0003
0000
0000
0100
0000
0000
0000
1032
0000
0000
0000
0100
0000
0000
0000
2203
0000
0000
0000
0310
0000
0000
0000
,
3210
0000
0000
1000
0000
1000
0001
0000
0000
0000
0010
0000
2310
0000
0000
0100
,
0000
0100
3002
0100
0100
0000
0100
0000
1023
0000
0000
0100
0000
0100
0001
0000
,
0000
0000
1000
0000
1000
0100
0000
0100
0100
0100
0030
0100
0102
0000
0123
0100
,
0231
0000
0000
1000
0000
1000
0001
0000
0320
0000
0231
0000
2301
0000
0000
0010
,
0000
0010
3002
0010
2013
0000
3210
0000
1320
0000
0000
0100
0000
0100
0001
0000
,
0000
0000
0100
0000
1000
0000
0100
0001
1000
0000
0100
0000
0000
0000
0100
0000
0130
0000
0100
0000
2000
0000
0100
0000
3210
0000
0000
0000
0312
0000
0010
0000
,
1023
0000
0000
0100
0000
0100
0001
0000
0000
0000
1000
0000
1230
0000
0000
0010
,
0000
0010
2300
0100
0100
0000
0100
0000
3012
0000
0000
0100
0000
0100
0010
0000
,
0000
0000
0010
0000
0010
0100
0000
0100
0100
0100
0003
0100
2100
0000
3102
0100
,
1023
0000
0000
0100
0000
0100
0001
0000
0032
0000
1023
0000
1230
0000
0000
0010
,
0000
0010
2300
0010
3012
0000
0123
0000
0132
0000
0000
0010
0000
0010
1000
0000
,
0000
0000
0010
0000
0100
0000
0010
1000
0100
0000
0010
0000
0000
0000
0010
0000
0010
0000
0010
0000
0000
0000
0010
0000
0010
0000
0000
0000
0013
0000
0010
0000
,
1001
0010
0001
0101
1000
0100
1001
0010
1001
0100
1000
0100
1001
0010
0001
0101
,
1000
0000
0000
0000
0100
0000
0010
0000
2100
3000
0000
0000
0001
0000
0000
0000
1100
0000
0000
0000
0001
0000
0000
0000
1010
0000
0000
0000
0100
0000
0000
0000
1010
0000
0000
0000
0001
0000
0000
0000
1000
0000
0000
0000
1010
0000
0000
0000
0001
0000
0000
0000
0010
0000
0000
0000
1100
0000
0000
0000
0001
0000
0000
0000
,
1100
0000
0000
0000
0010
0000
0000
0000
0100
0000
0000
0000
0010
0000
0000
0000
1100
0000
0000
0000
0001
0000
0000
0000
1000
0000
0000
0000
1010
0000
0000
0000
0100
0000
0000
0000
0010
0000
0001
0000
0210
0300
0000
0000
1000
0000
0000
0000
0110
0000
0000
0000
1000
0000
0000
0000
1001
0000
0000
0000
1000
0000
0000
0000
,
0110
1000
0100
0101
0010
0001
0110
1000
0110
0001
0010
0001
0110
1000
0100
0101
,
0010
0000
0000
0000
0100
0000
1000
0000
0021
0030
0000
0000
0100
0000
0000
0000
1010
0000
0000
0000
0100
0000
0000
0000
1010
0000
0000
0000
0001
0000
0000
0000
1010
0000
0000
0000
0001
0000
0000
0000
1000
0000
0000
0000
1010
0000
0000
0000
0100
0000
0000
0000
0010
0000
0000
0000
1100
0000
0000
0000
0001
0000
0000
0000
,
1100
0000
0000
0000
0010
0000
0000
0000
0100
0000
0000
0000
0010
0000
0000
0000
1100
0000
0000
0000
0001
0000
0000
0000
1000
0000
0000
0000
1001
0000
0000
0000
0100
0000
0000
0000
0010
0000
0001
0000
0210
0300
0000
0000
1000
0000
0000
0000
0101
0000
0000
0000
1000
0000
0000
0000
1001
0000
0000
0000
1000
0000
0000
0000
,
1001
0010
0001
0101
1000
0100
1001
0010
1001
0100
1000
0100
1001
0010
0001
0101
,
1000
0000
0000
0000
0100
0000
0010
0000
2100
3000
0000
0000
0001
0000
0000
0000
1100
0000
0000
0000
0001
0000
0000
0000
1010
0000
0000
0000
0100
0000
0000
0000
1010
0000
0000
0000
0001
0000
0000
0000
1000
0000
0000
0000
1010
0000
0000
0000
0001
0000
0000
0000
0010
0000
0000
0000
1100
0000
0000
0000
0001
0000
0000
0000
,
1100
0000
0000
0000
0010
0000
0000
0000
0100
0000
0000
0000
0010
0000
0000
0000
1100
0000
0000
0000
0001
0000
0000
0000
1000
0000
0000
0000
1010
0000
0000
0000
0100
0000
0000
0000
0010
0000
0001
0000
0210
0300
0000
0000
1000
0000
0000
0000
0110
0000
0000
0000
1000
0000
0000
0000
1001
0000
0000
0000
1000
0000
0000
0000
,
0110
1000
0100
0101
0010
0001
0110
1000
0110
0001
0010
0001
0110
1000
0100
0101
,
0010
0000
0000
0000
0100
0000
1000
0000
0021
0030
0000
0000
0100
0000
0000
0000
1010
0000
0000
0000
0100
0000
0000
0000
1010
0000
0000
0000
0001
0000
0000
0000
1010
0000
0000
0000
0001
0000
0000
0000
1000
0000
0000
0000
1010
0000
0000
0000
0100
0000
0000
0000
0010
0000
0000
0000
1100
0000
0000
0000
0001
0000
0000
0000
,
1100
0000
0000
0000
0010
0000
0000
0000
0100
0000
0000
0000
0010
0000
0000
0000
1100
0000
0000
0000
0001
0000
0000
0000
1000
0000
0000
0000
1001
0000
0000
0000
0100
0000
0000
0000
0010
0000
0001
0000
0210
0300
0000
0000
1000
0000
0000
0000
0101
0000
0000
0000
1000
0000
0000
0000
1200
0000
0000
0000
1300
0000
0000
0000
,
1002
0003
0000
0000
0000
0000
0000
0000
;
