#TITLE:Imagine Breaker;
#SUBTITLE:;
#ARTIST:Helblinde;
#TITLETRANSLIT:;
#SUBTITLETRANSLIT:;
#ARTISTTRANSLIT:;
#CREDIT:;
#BANNER:../banner.png;
#BACKGROUND:../bg.png;
#LYRICSPATH:;
#CDTITLE:;
#MUSIC:Imagine Breaker.ogg;
#OFFSET:-0.096;
#SAMPLESTART:59.500;
#SAMPLELENGTH:19.400;
#SELECTABLE:NO;
#BPMS:0.000=200.000;
#STOPS:;
#BGCHANGES:;
// cache tags:
#FIRSTBEAT:8.000;
#LASTBEAT:407.000;
#SONGFILENAME:Songs/Cirque du Lykan/Imagine Breaker - [Zaia]/Imagine Breaker.sm;
#HASMUSIC:1;
#HASBANNER:1;
#MUSICLENGTH:122.618;
// end cache tags

//---------------dance-single - Zaia - 15(low)----------------
#NOTES:
     dance-single:
     Zaia - 15(low):
     Challenge:
     15:
     1.000,1.000,0.212,0.310,1.000,1200.000,26.000,38.000,0.000,0.000:
0000
0000
0000
0000
,
0000
0000
0000
0000
,
0001
0100
0010
1000
0001
0010
0400
0000
,
1300
0010
0100
0001
0010
0001
4000
0000
,
3001
0010
0100
1000
0001
0100
0040
0000
,
1030
0100
0010
0100
1000
0010
0400
0000
,
1301
0000
0010
0000
0000
0100
1001
0000
,
0000
0001
1010
0000
1000
1000
0011
0000
,
0001
1000
0110
0000
0000
1000
0101
0000
,
0000
0001
1100
0000
1000
1000
0000
0000
,
0001
0100
0010
1000
0001
0010
0001
0100
0010
1000
0001
1000
0100
0010
0100
1000
,
0010
0100
0001
0010
0001
1000
0100
0010
0001
0100
0001
1000
0100
0010
0100
1000
,
0001
0100
0001
1000
0010
1000
0100
0010
0001
1000
0001
0100
0010
0100
0001
0010
,
0100
1000
0001
1000
0010
0100
0001
0010
0001
1000
0001
1000
0010
0100
0001
1000
,
0001
0010
0100
1000
0001
0100
0001
0010
0100
1000
0001
1000
0010
0100
0010
1000
,
0100
0010
0001
0100
0001
1000
0010
0100
0001
0010
0001
1000
0010
0100
0010
1000
,
0001
0010
0001
1000
0100
1000
0010
0100
0001
1000
0001
0010
0100
0010
0001
0100
,
0010
0000
1010
0000
0001
0001
0010
0001
,
1000
0010
0100
0001
1000
0100
1000
0010
0100
0001
1000
0001
0010
0100
0010
0001
,
0100
0010
1000
0100
1000
0001
0010
0100
1000
0010
1000
0001
0010
0100
0010
0001
,
1000
0010
1000
0001
0100
0001
0010
0100
1000
0001
1000
0010
0100
0010
1000
0100
,
0010
0001
1000
0001
0100
0010
1000
0100
1000
0001
1000
0001
0100
0010
1000
0001
,
1000
0100
0010
0001
1000
0010
1000
0100
0010
0001
1000
0001
0100
0010
0100
0001
,
0010
0100
1000
0010
1000
0001
0100
0010
1000
0100
1000
0001
0100
0010
0100
0001
,
1000
0100
1000
0001
0010
0001
0100
0010
1000
0001
1000
0100
0010
0100
1000
0010
,
0100
0001
0100
0010
0100
0001
1000
0001
0010
0100
1000
0001
2000
0000
0000
0000
,
3010
0100
0001
1000
0100
1000
0001
0010
0001
0100
0001
1000
0100
0010
0001
1000
,
0001
0100
0010
0100
0001
1000
0100
1000
0010
1000
0001
0100
0001
1000
0100
0010
,
0100
1000
0001
0100
0010
1000
0001
0100
0001
1000
0100
0010
0100
1000
0001
1000
,
0010
1000
0100
1000
0001
0010
0001
1000
0010
0100
0001
1000
0001
0010
0100
1000
,
0001
0100
0001
0010
0001
1000
0100
1000
0001
0100
0010
0100
0001
0010
0100
1000
,
0010
1000
0001
0100
0001
1000
0100
0010
0001
0100
0010
1000
0001
1000
0100
0010
,
0100
1000
0001
1000
0010
0100
0001
0100
0010
1000
0001
0010
0001
1000
0100
1000
,
0010
1000
0001
0100
0001
0010
0001
1000
0100
0010
0100
1000
0001
1000
0010
0100
,
0001
1000
0100
1000
0001
0100
0001
1000
0100
0010
0001
0100
0010
0100
0001
1000
,
0100
0010
0100
1000
0001
0010
0001
1000
0001
0100
0010
1000
0001
1000
0100
0010
,
0001
1000
0010
1000
0001
0010
0001
1000
0010
0100
0001
0010
0100
0000
1000
0000
,
0001
0100
0010
0100
0001
0000
2000
0000
,
3001
0100
0102
0000
1003
0100
0020
0000
,
0130
1000
1002
0000
0103
0010
2000
0000
,
3001
0010
0012
0000
0013
0100
2000
0000
,
3010
0100
0120
0031
1000
0100
2000
0000
,
3001
0010
1200
0000
1300
0001
0020
0000
,
0031
0100
0120
0000
1030
0001
0200
0000
,
0301
1000
1002
0000
0013
0100
2000
0000
,
3001
0100
0110
0010
1000
0001
0010
0100
,
1000
0001
0000
0100
0010
1000
0000
0100
,
0010
0001
0000
0100
0010
0000
1001
0110
,
1001
0000
0101
0000
0110
1001
0000
0000
,
0000
0000
0000
0000
0000
0000
0000
0000
0000
0000
0000
0000
1000
0100
0010
0001
,
1000
0001
0100
0010
1000
0001
1000
0010
1000
0001
0010
0001
0100
0010
1000
0001
,
1000
0100
0010
0100
1000
0001
0100
0010
0100
0001
1000
0001
0010
0100
1000
0001
,
1000
0010
0100
0010
1000
0001
1000
0100
1000
0001
0010
0001
1000
0010
0100
0001
,
0010
0100
0010
0001
0100
0010
1000
0001
0100
0010
0100
0001
0010
0100
1000
0001
,
0100
0001
1000
0010
1000
0100
1000
0010
0100
0001
0100
0010
1000
0001
1000
0001
,
0010
0001
1000
0100
1000
0010
1000
0100
0010
0001
0010
0100
1000
0001
1000
0010
,
1000
0001
0010
0001
0100
0001
0010
0100
1000
0100
0010
0001
1000
0000
0010
0000
,
0000
0000
0100
0000
0000
0000
0001
0000
4000
0000
3000
0000
0001
0100
0010
1000
,
0001
1000
0100
0010
0001
1000
0001
0010
0001
1000
0010
1000
0100
0010
0001
1000
,
0001
0100
0010
0100
0001
1000
0100
0010
0100
1000
0001
1000
0010
0100
0001
1000
,
0001
0010
0100
0010
0001
1000
0001
0100
0001
1000
0010
1000
0001
0010
0100
1000
,
0010
0100
0010
1000
0001
0100
0001
1000
0100
1000
0001
1000
0010
0100
0001
1000
,
0100
1000
0001
0010
0001
0100
0001
0010
0100
1000
0100
0010
0001
1000
0001
1000
,
0010
1000
0001
0100
0001
0010
0001
0100
0010
1000
0010
0100
0001
1000
0001
0010
,
0001
1000
0010
1000
0100
1000
0010
0100
0001
0100
0010
1000
0001
0000
0010
0000
,
0000
0100
1000
0000
1001
0000
0001
0000
,
0200
0000
0000
0000
0310
1000
0010
1000
0001
0000
0010
0000
0200
0000
2300
0000
,
3020
0000
0000
0000
0130
0001
1000
0001
1000
0000
0010
0000
0200
0000
0302
0000
,
0023
0000
0000
0000
0130
1000
0001
1000
0010
0000
0100
0000
0002
0000
2003
0000
,
3200
0000
0000
0000
0310
0001
1000
0010
0100
0000
0001
0000
2000
0000
3020
0000
,
0230
0000
0000
0000
0301
1000
0001
0010
0100
0000
0010
0000
0002
0000
2003
0000
,
3020
0000
0000
0000
0130
0001
0100
0001
1000
0000
0100
0000
0020
0000
0032
0000
,
2003
0000
0000
0000
3010
0100
0010
1000
0001
0000
0010
0000
0200
0000
2300
0000
,
3002
0000
0000
0000
0103
0010
1000
0010
0100
0000
0000
0000
0001
0000
0100
0000
,
0010
1000
0100
1000
0010
0100
0001
0010
,
0100
1000
0001
1000
0010
1000
0100
1000
,
0001
0100
0010
1000
0001
0010
0001
0100
,
0010
1000
0100
0010
0001
0100
0001
0010
,
0100
1000
0001
0010
0100
1000
0001
0100
,
0010
1000
0001
0100
0010
1000
0001
0010
,
0100
1000
0001
1000
0010
0100
0001
0010
0100
1000
0001
0100
0010
0000
0000
0000
,
0000
0000
0000
0000
0000
0000
0000
0000
1000
0000
0000
0000
0001
0100
0010
1000
,
0100
0010
0100
0010
0001
0100
0010
1000
0100
0010
0100
0010
0001
0100
0010
1000
,
0100
0010
0100
1000
0010
0100
0001
1000
0100
1000
0010
1000
0001
0010
0100
1000
,
0010
0100
0010
0100
0001
0010
0100
1000
0010
0100
0010
0100
0001
0010
0100
1000
,
0010
0100
0010
1000
0100
0010
0001
1000
0010
1000
0100
1000
0001
1000
0100
0010
,
0001
0100
0010
0100
0010
1000
0100
0010
0001
0100
0010
0100
0010
1000
0100
0010
,
0001
0100
0010
0100
0001
0010
0100
1000
0001
0100
0001
0010
0001
1000
0010
0100
,
0001
0010
0100
0010
0100
1000
0010
0100
0001
0010
0100
0010
0100
1000
0010
0100
,
0001
0010
0100
0010
0001
0100
0010
1000
0001
0010
0001
0100
0001
1000
0100
0010
,
0001
0100
0001
0100
0010
1000
0001
0010
0100
1000
0100
1000
0010
0100
0010
1000
,
0001
0100
0001
0100
0010
1000
0001
0010
0100
1000
0001
1000
0001
0100
0010
0100
,
0001
0010
0001
0010
0100
1000
0001
0100
0010
1000
0010
1000
0100
0010
0100
1000
,
0001
0010
0001
0010
0100
1000
0001
0100
0010
1000
0001
1000
0100
0000
0010
0000
,
0001
0010
0100
1000
0010
0100
0001
1000
,
0100
0010
0001
1000
0010
0100
0010
1000
,
0001
0100
0001
1000
0001
0010
0100
1000
0010
0100
0001
1000
0100
0010
0001
1000
,
0010
0100
0001
1000
0001
0010
0001
1000
0010
0000
0100
0000
0001
0010
0100
1000
,
0001
0100
0010
0100
0001
1000
0100
1000
0001
0010
0100
1000
0001
0100
0010
1000
,
0100
1000
0001
0100
0010
1000
0100
1000
0001
0100
0010
0100
0001
0100
0010
1000
,
0001
0010
0100
0010
0001
1000
0010
1000
0001
0100
0010
1000
0001
0010
0100
1000
,
0010
1000
0001
0010
0100
1000
0010
1000
0001
0010
0001
1000
0001
0000
0000
0000
;

//---------------dance-single - Zaia - 13(low-mid)----------------
#NOTES:
     dance-single:
     Zaia - 13(low-mid):
     Hard:
     13:
     1.000,1.000,0.277,0.310,0.979,948.000,34.000,38.000,0.000,0.000:
0000
0000
0000
0000
,
0000
0000
0000
0000
,
0001
0100
0010
1000
0001
0010
0400
0000
,
1300
0010
0100
0001
0010
0001
4000
0000
,
3001
0010
0100
1000
0001
0100
0040
0000
,
1030
0100
0010
0100
1000
0010
0400
0000
,
1301
0000
0010
0000
0000
0100
1001
0000
,
0000
0001
1010
0000
1000
1000
0011
0000
,
0001
1000
0110
0000
0000
1000
0101
0000
,
0000
0001
1100
0000
1000
1000
0000
0000
,
0001
0000
0100
0000
0010
1000
0010
0000
0100
0000
0001
0000
0010
0100
0010
0000
,
0001
0000
1000
0000
0010
0100
0010
0000
1000
0000
0001
0000
0010
0001
0010
0000
,
0100
0000
1000
0000
0001
0100
0001
0000
0010
0000
0100
0000
1000
0010
1000
0000
,
0001
0100
0001
0000
1000
0000
0001
0010
0001
0000
0100
0000
0010
1000
0001
1000
,
0100
0000
0010
0000
0100
1000
0100
0000
0010
0000
0001
0000
0100
0010
0100
0000
,
0001
0000
1000
0000
0100
0010
0100
0000
1000
0000
0001
0000
0100
0001
0100
0000
,
0010
0000
1000
0000
0001
0010
0001
0000
0100
0000
0010
0000
1000
0100
1000
0000
,
0001
0000
1010
0000
0001
0001
0010
0001
,
1000
0000
0010
0000
0100
0001
0100
0000
0010
0000
1000
0000
0100
0010
0100
0000
,
1000
0000
0001
0000
0100
0010
0100
0000
0001
0000
1000
0000
0100
1000
0100
0000
,
0010
0000
0001
0000
1000
0010
1000
0000
0100
0000
0010
0000
0001
0100
0001
0000
,
1000
0010
1000
0000
0001
0000
1000
0100
1000
0000
0010
0000
0100
0001
1000
0001
,
0010
0000
0100
0000
0010
0001
0010
0000
0100
0000
1000
0000
0010
0100
0010
0000
,
1000
0000
0001
0000
0010
0100
0010
0000
0001
0000
1000
0000
0010
1000
0010
0000
,
0100
0000
0001
0000
1000
0100
1000
0000
0010
0000
0100
0000
0001
0010
0001
0000
,
1000
0010
0010
0100
0001
0001
2000
0000
,
3010
0100
0001
1000
0100
1000
0001
0010
0001
0100
0001
1000
0100
0010
0001
1000
,
0001
0100
0010
0100
0001
1000
0100
1000
0010
1000
0001
0100
0001
1000
0100
0010
,
0100
1000
0001
0100
0010
1000
0001
0100
0001
1000
0100
0010
0100
1000
0001
1000
,
0010
1000
0100
1000
0001
0000
0010
0000
0001
0000
1000
0000
0001
0010
0100
1000
,
0001
0100
0001
0010
0001
1000
0100
1000
0001
0100
0010
0100
0001
0010
0100
1000
,
0010
1000
0001
0100
0001
1000
0100
0010
0001
0100
0010
1000
0001
1000
0100
0010
,
0100
1000
0001
1000
0010
0100
0001
0100
0010
1000
0001
0010
0001
1000
0100
1000
,
0010
1000
0001
0100
0001
0010
0001
1000
0100
0010
0100
1000
0001
1000
0010
0100
,
0001
1000
0100
1000
0001
0100
0001
1000
0100
0010
0001
0100
0010
0100
0001
1000
,
0100
0010
0100
1000
0001
0000
0100
0000
0010
0000
0100
0000
0001
1000
0100
0010
,
0001
1000
0010
1000
0001
0010
0001
1000
0010
0100
0001
0010
0100
0000
1000
0000
,
0001
0100
0010
0100
0001
0000
2000
0000
,
3001
0100
0102
0000
1003
0100
0020
0000
,
0130
1000
1002
0000
0103
0010
2000
0000
,
3001
0010
0012
0000
0013
0100
2000
0000
,
3010
0100
0120
0031
1000
0100
2000
0000
,
3001
0010
1200
0000
1300
0001
0020
0000
,
0031
0100
0120
0000
1030
0001
0200
0000
,
0301
1000
1002
0000
0013
0100
2000
0000
,
3001
0100
0110
0010
1000
0001
0010
0100
,
1000
0001
0000
0100
0010
1000
0000
0100
,
0010
0001
0000
0100
0010
0000
1001
0110
,
1001
0000
0101
0000
0110
1001
0000
0000
,
0000
0000
0000
0000
0000
0000
1000
0100
,
1000
0001
1000
0010
1000
0001
0010
0100
,
1000
0010
0100
0001
0010
0001
1000
0100
,
1000
0001
0100
0010
0100
0001
1000
0100
,
0010
0100
1000
0010
0100
0001
1000
0100
,
0010
0001
0100
0001
0010
0100
1000
0001
,
0100
0010
1000
0100
1000
0010
0100
0001
,
0010
0100
1000
0010
0100
0001
1000
0010
,
0000
0100
0000
0001
4000
3000
0001
0100
,
0001
1000
0001
0010
0001
1000
0010
0100
,
0001
0010
0100
1000
0010
1000
0001
0100
,
0001
1000
0100
0010
0100
1000
0001
0100
,
0010
0100
0001
0010
0100
1000
0001
0100
,
0010
1000
0100
1000
0010
0100
0001
1000
,
0100
0010
0001
0100
0001
0010
0100
1000
,
0010
0100
0001
0010
0100
1000
0001
0100
,
0000
0010
1000
0000
1001
0000
0001
0000
,
0200
0000
0000
0000
0310
1000
0010
1000
0001
0000
0010
0000
0200
0000
2300
0000
,
3020
0000
0000
0000
0130
0001
1000
0001
1000
0000
0010
0000
0200
0000
0302
0000
,
0023
0000
0000
0000
0130
1000
0001
1000
0010
0000
0100
0000
0002
0000
2003
0000
,
3200
0000
0000
0000
0310
0001
1000
0010
0100
0000
0001
0000
2000
0000
3020
0000
,
0230
0000
0000
0000
0301
1000
0001
0010
0100
0000
0010
0000
0002
0000
2003
0000
,
3020
0000
0000
0000
0130
0001
0100
0001
1000
0000
0100
0000
0020
0000
0032
0000
,
2003
0000
0000
0000
3010
0100
0010
1000
0001
0000
0010
0000
0200
0000
2300
0000
,
3002
0000
0000
0000
0103
0010
1000
0010
0100
0000
0000
0000
0001
0000
0100
0000
,
0010
1000
0100
1000
0010
0100
0001
0010
,
0100
1000
0001
1000
0010
1000
0100
1000
,
0001
0100
0010
1000
0001
0010
0001
0100
,
0010
1000
0100
0010
0001
0100
0001
0010
,
0100
1000
0001
0010
0100
1000
0001
0100
,
0010
1000
0001
0100
0010
1000
0001
0010
,
0100
1000
0001
1000
0010
0100
0001
0010
0100
1000
0001
0100
0010
0000
0000
0000
,
0000
0000
0000
0000
0000
0000
0000
0000
1000
0000
0000
0000
0001
0100
0010
1000
,
0100
0010
0100
0010
0001
0100
0010
1000
0100
0010
0100
0010
0001
0100
0010
1000
,
0100
0010
0100
1000
0010
0100
0001
1000
0100
1000
0010
1000
0001
0010
0100
1000
,
0010
0100
0010
0100
0001
0010
0100
1000
0010
0100
0010
0100
0001
0010
0100
1000
,
0010
0100
0010
1000
0100
0010
0001
1000
0010
1000
0100
1000
0001
1000
0100
0010
,
0001
0100
0010
0100
0010
1000
0100
0010
0001
0100
0010
0100
0010
1000
0100
0010
,
0001
0100
0010
0100
0001
0010
0100
1000
0001
0100
0001
0010
0001
1000
0010
0100
,
0001
0010
0100
0010
0100
1000
0010
0100
0001
0010
0100
0010
0100
1000
0010
0100
,
0001
0010
0100
0010
0001
0100
0010
1000
0001
0010
0001
0100
0001
1000
0100
0010
,
0001
0100
0001
0100
0010
1000
0001
0010
0100
1000
0100
1000
0010
0100
0010
1000
,
0001
0100
0001
0100
0010
1000
0001
0010
0100
1000
0001
1000
0001
0100
0010
0100
,
0001
0010
0001
0010
0100
1000
0001
0100
0010
1000
0010
1000
0100
0010
0100
1000
,
0001
0010
0001
0010
0100
1000
0001
0100
0010
1000
0001
1000
0100
0000
0010
0000
,
0001
0010
0100
1000
0010
0100
0001
1000
,
0100
0010
0001
1000
0010
0100
0010
1000
,
0001
0100
0001
1000
0001
0010
0100
1000
0010
0100
0001
1000
0100
0010
0001
1000
,
0010
0100
0001
1000
0001
0010
0001
1000
0010
0000
0100
0000
0001
0000
0000
0000
,
0101
0100
0110
0010
,
1010
1000
1001
0001
,
0011
0010
0110
0100
,
1100
0000
1000
0001
1001
0100
0010
0000
;

//---------------dance-single - Zaia - 10(low)----------------
#NOTES:
     dance-single:
     Zaia - 10(low):
     Medium:
     10:
     0.906,0.913,0.285,0.326,0.000,694.000,35.000,40.000,0.000,0.000:
0000
0000
0000
0000
,
0000
0000
0000
0000
,
0001
0100
0010
1000
0001
0010
0400
0000
,
1300
0010
0100
0001
0010
0001
4000
0000
,
3001
0010
0100
1000
0001
0100
0040
0000
,
1030
0100
0010
0100
1000
0010
0400
0000
,
1301
0000
0010
0000
0000
0100
1001
0000
,
0000
0001
1010
0000
1000
1000
0011
0000
,
0001
1000
0110
0000
0000
1000
0101
0000
,
0000
0001
1100
0000
1000
1000
0000
0000
,
0001
0100
0010
0100
0001
1000
0100
0010
,
0100
1000
0001
0100
0001
0001
0100
0010
,
1000
0100
1000
0010
1000
0001
0010
0100
,
1000
1000
0001
0100
0100
0010
1000
0010
,
1000
0100
0010
0100
1000
0001
0100
0010
,
0100
0001
1000
0100
1000
1000
0100
0010
,
0001
0100
0001
0010
0001
1000
0010
0100
,
0001
0000
1010
0000
0001
0001
0010
0001
,
1000
0010
0100
0010
1000
0001
0010
0100
,
0010
0001
1000
0010
1000
1000
0010
0100
,
0001
0010
0001
0100
0001
1000
0100
0010
,
0001
0001
1000
0010
0010
0100
0001
0100
,
0001
0010
0100
0010
0001
1000
0010
0100
,
0010
1000
0001
0010
0001
0001
0010
0100
,
1000
0010
1000
0100
1000
0001
0100
0010
,
1000
0010
0010
0100
0001
0001
2000
0000
,
3010
0100
0001
1000
0100
0010
0100
1000
,
0001
0100
0010
1000
0001
0010
0001
0100
,
0010
1000
0001
0010
0100
1000
0001
0100
,
0010
1000
0001
0010
0001
1000
0100
0010
,
0100
0010
0001
1000
0010
0100
0010
1000
,
0001
0010
0100
1000
0001
0100
0001
0010
,
0100
1000
0001
0100
0010
1000
0001
0010
,
0100
1000
0001
0100
0001
1000
0010
0100
,
0001
0010
0100
1000
0010
0100
0001
0010
,
0100
1000
0010
0100
0010
1000
0100
0010
,
0001
0100
0010
1000
0100
0010
0100
1000
,
0001
0100
0010
0100
0001
0000
2000
0000
,
3001
0100
0102
0000
1003
0100
0020
0000
,
0130
1000
1002
0000
0103
0010
2000
0000
,
3001
0010
0012
0000
0013
0100
2000
0000
,
3010
0100
0120
0031
1000
0100
2000
0000
,
3001
0010
1200
0000
1300
0001
0020
0000
,
0031
0100
0120
0000
1030
0001
0200
0000
,
0301
1000
1002
0000
0013
0100
2000
0000
,
3001
0100
0110
0010
1000
0001
0010
0100
,
1000
0001
0000
0100
0010
1000
0000
0100
,
0010
0001
0000
0100
0010
0000
1000
0001
,
1000
0000
0010
0000
0100
0001
0000
0000
,
0000
0000
0000
0000
0000
0000
1000
0100
,
1000
0001
1000
0010
1000
0001
0010
0100
,
1000
0010
0100
0001
0010
0001
1000
0100
,
1000
0001
0100
0010
0100
0001
1000
0100
,
0010
0100
1000
0010
0100
0001
1000
0100
,
0010
0001
0100
0001
0010
0100
1000
0001
,
0100
0010
1000
0100
1000
0010
0100
0001
,
0010
0100
1000
0010
0100
0001
1000
0010
,
0000
0100
0000
0001
4000
3000
0001
0100
,
0001
1000
0001
0010
0001
1000
0010
0100
,
0001
0010
0100
1000
0010
1000
0001
0100
,
0001
1000
0100
0010
0100
1000
0001
0100
,
0010
0100
0001
0010
0100
1000
0001
0100
,
0010
1000
0100
1000
0010
0100
0001
1000
,
0100
0010
0001
0100
0001
0010
0100
1000
,
0010
0100
0001
0010
0100
1000
0001
0100
,
0000
0010
1000
0000
1001
0000
0001
0000
,
0200
0000
0320
2030
3001
0010
0400
4300
,
3020
0000
0230
0302
1003
0010
0400
0304
,
0023
0000
0230
2300
3010
0100
0004
4003
,
3200
0000
0320
0032
0103
0001
4000
3040
,
0230
0000
0302
2003
3100
0010
0004
4003
,
3020
0000
0230
0302
1003
0100
0040
0034
,
2003
0000
3020
0230
0301
0010
0400
4300
,
3002
0000
2003
3020
0130
0000
0001
0100
,
0010
1000
0100
1000
0010
0100
0001
0010
,
0100
1000
0001
1000
0010
1000
0100
1000
,
0001
0100
0010
1000
0001
0010
0001
0100
,
0010
1000
0100
0010
0001
0100
0001
0010
,
0100
1000
0001
0010
0100
1000
0001
0100
,
0010
1000
0001
0100
0010
1000
0001
1000
,
0010
0100
0001
0010
0100
1000
0010
0000
,
0000
0000
0000
0000
1000
0000
0001
0100
,
0001
0010
0001
0100
0001
0010
0001
0100
,
0001
0010
0100
1000
0010
0100
0001
1000
,
0010
1000
0001
1000
0010
1000
0001
1000
,
0010
0100
0001
0010
0001
0100
0010
1000
,
0100
0010
0100
1000
0100
0010
0100
1000
,
0100
0010
0001
0100
0001
0010
0100
1000
,
0001
1000
0100
1000
0010
1000
0001
0010
,
0001
0100
0001
0010
0100
1000
0001
0010
,
0001
0100
0001
0010
0001
0100
0001
0010
,
0001
0100
0010
1000
0100
0010
0001
1000
,
0100
1000
0001
1000
0100
1000
0001
1000
,
0100
0010
0001
0100
0001
0010
0100
0010
,
0001
0010
0100
1000
0010
0100
0001
1000
,
0100
0010
0001
1000
0010
0100
0010
1000
,
0001
0100
0001
0010
0100
1000
0010
1000
,
0100
1000
0001
0100
0010
0100
0001
0000
,
0101
0100
0110
0010
,
1010
1000
1001
0001
,
0011
0010
0110
0100
,
1100
0000
1000
0001
1001
0100
0010
0000
;
