#TITLE:To The Sky;
#SUBTITLE:;
#ARTIST:Owl City;
#TITLETRANSLIT:;
#SUBTITLETRANSLIT:;
#ARTISTTRANSLIT:;
#CREDIT:owenviau1;
#BANNER:;
#BACKGROUND:;
#LYRICSPATH:;
#CDTITLE:;
#MUSIC:Owl City - To The Sky.ogg;
#OFFSET:-0.415;
#SAMPLESTART:107.376;
#SAMPLELENGTH:29.999;
#SELECTABLE:YES;
#BPMS:0.000=175.000;
#STOPS:;
#BGCHANGES:;
// cache tags:
#FIRSTBEAT:0.000;
#LASTBEAT:624.000;
#SONGFILENAME:Songs/owenviau1 Simfiles 7/To The Sky - [owenviau1] v1.0.3/To The Sky.sm;
#HASMUSIC:1;
#HASBANNER:0;
#MUSICLENGTH:219.810;
// end cache tags

//---------------dance-single - 21.95 (22-) (owenvia----------------
#NOTES:
     dance-single:
     21.95 (22-) (owenvia:
     Challenge:
     22:
     1.000,1.000,0.005,1.000,1.000,1887.000,1.000,268.000,15.000,0.000:
1000
0000
0010
0100
0000
0001
1000
0000
0100
1000
0000
0010
,
0100
0000
0001
0100
0000
0100
0010
0000
1000
0001
0000
0001
,
1000
0000
1000
0100
0000
0100
0010
0000
0010
0001
0000
0001
,
1000
0000
0010
1000
0000
0010
0100
0000
0001
0100
0000
0010
,
1000
0000
1000
0001
0000
0001
0100
0000
0100
0010
0000
0010
,
1000
0000
0001
0010
0000
0001
1000
0000
0010
1000
0000
0001
,
0010
0000
0010
0100
0000
0100
1000
0000
1000
0001
0000
0001
,
0100
0000
0010
1000
0000
0100
1000
0000
0010
0100
0000
0001
,
1000
0000
1000
0010
0000
0010
0100
0000
0100
0001
0000
0001
,
1000
0000
0100
0010
0000
0001
1000
0000
0010
1000
0000
0001
,
0020
0000
0000
0130
0000
2000
3000
0000
2000
3010
0000
0010
,
0200
0000
0000
0301
0000
0020
0030
0000
0020
0130
0000
0100
,
2000
0000
0000
3001
0000
0200
0310
0000
2000
3010
0000
0200
,
0301
0000
2000
3100
0000
0020
0032
0000
1003
0020
0000
0130
,
0002
0000
1003
0100
0000
2000
3000
0000
2000
3010
0000
0010
,
0200
0000
0000
0301
0000
0020
0030
0000
0020
0130
0000
0100
,
2000
0000
0000
3001
0000
0200
0310
0000
2000
3010
0000
0200
,
0301
0000
2000
3100
0000
0020
0032
0000
1003
0020
0000
0000
,
0230
0000
0000
0000
0000
0000
M000
0000
0000
0000
0000
0000
0301
0000
0000
0000
0000
0000
0000
0000
0000
0000
0000
0000
0020
0000
0000
0000
0000
0000
0000
0000
0000
0030
0000
0000
0100
0000
0000
0000
0000
0000
0000
0000
1000
0000
0000
0000
,
0002
0000
0000
0103
0000
0020
0000
0000
1030
0002
0000
0003
,
0020
0000
0000
0030
0100
0000
1000
0000
0000
0000
0001
0000
0200
0000
0000
0000
0310
0000
2000
0000
0000
0000
3001
0000
,
0020
0000
0000
0230
0000
1300
0002
0000
1003
0010
0000
0000
,
0200
0000
0000
0302
0000
1003
0200
0000
1300
0020
0000
0130
,
0002
0000
0000
1003
0000
0200
0000
03M0
2000
0001
0000
3000
,
0020
0000
1030
0001
0000
0010
0200
0000
1300
0010
0000
0100
,
0002
0000
1003
0010
0000
0200
0000
0000
0301
1000
0000
0010
,
0200
0000
0301
0020
0000
0230
2300
0000
3001
0200
0300
0010
,
2000
0000
0000
3010
0000
0200
0300
0000
0001
2000
0000
3000
,
0200
0000
1300
0010
0000
0200
0001
0300
0020
1000
0030
0100
,
0002
0000
0000
1003
0000
0200
0000
0000
1300
0001
0000
0000
,
0020
0000
0130
2000
0000
3000
0002
0000
0203
0320
0000
1030
,
0200
0000
0000
1300
0000
0002
0010
0003
2000
0010
0000
3000
,
0002
0000
0013
0200
0000
1300
0020
0000
0130
0002
0003
2000
,
0010
0000
0000
0010
0000
0000
3010
0000
0100
0002
0000
0000
,
1003
0010
0100
0001
1000
0001
0100
0010
0100
0001
1000
0010
1000
0100
0010
0001
0100
0010
1000
0010
0100
0001
1000
0001
,
0010
0100
1000
0010
0100
0001
0100
0010
1000
0001
0100
0001
0010
0100
1000
0001
0010
0001
0100
0010
1000
0010
0100
0001
,
1000
0001
0010
0100
1000
0001
0100
0010
1000
0010
0100
0001
1000
0100
1000
0010
0100
0001
0100
0010
1000
0001
1000
0100
,
0010
0001
1000
0010
0100
0001
0100
0010
1000
0001
0010
0001
0100
0010
1000
0010
0100
0001
1000
0100
1000
0010
0100
0001
,
1000
0100
0010
0001
0100
0001
1000
0010
0100
0001
1000
0100
1000
0001
0010
0100
1000
0001
0010
0001
0100
0010
0100
0001
,
1000
0010
1000
0100
0010
0001
0100
0010
0100
0001
1000
0010
1000
0100
0010
0001
1000
0100
1000
0010
0100
0001
0100
0010
,
1000
0001
1000
0100
0010
0001
0100
0010
0100
0001
1000
0010
1000
0001
0100
0001
0010
0100
1000
0010
0100
0001
1000
0100
,
0010
0001
0100
0010
1000
0010
0100
0001
1000
0100
0010
0001
0100
0010
1000
0010
0100
0001
1000
0001
0010
0100
1000
0010
,
0100
0010
1000
0001
0100
0001
0010
0100
1000
0010
0100
0001
1000
0010
0100
0010
1000
0001
0100
0010
0100
0001
1000
0001
,
0010
0100
1000
0001
0100
0010
1000
0010
0100
0001
1000
0001
0100
0010
1000
0010
0100
0001
1000
0100
0010
0001
1000
0010
,
0100
0010
1000
0001
0100
0001
0010
0100
1000
0001
0010
0001
0100
0010
1000
0010
0100
0001
1000
0100
1000
0010
0100
0001
,
1000
0010
0100
0010
1000
0001
0100
0001
1000
0100
0010
0001
1000
0010
0100
0001
0100
0010
1000
0001
0010
0100
1000
0001
,
0200
0000
0320
1030
0000
0002
0103
0000
0010
2000
0000
3001
,
0020
0000
0130
2000
3000
0002
0100
0003
2000
0010
3000
0100
,
0020
0000
0030
1000
0000
0002
0000
0000
0103
0010
0000
1000
,
0020
0000
0000
0130
0000
0002
0000
0000
1003
0100
0000
0100
,
2000
0000
0000
3010
0000
0200
0001
0000
0310
2000
0000
3002
,
0013
0000
0100
2000
3000
0020
0100
0000
2030
3002
0000
1003
,
0020
0000
0130
0002
0003
2000
0010
0000
3100
0020
0031
1000
,
0020
0000
0030
0200
0000
0300
0002
0000
0000
2003
3000
0020
,
1030
0001
0100
0010
1000
0010
0100
0001
1000
0100
0010
0001
1000
0001
0100
0010
1000
0010
0100
0001
1000
0100
1000
0001
,
0010
0100
1000
0010
0100
0010
1000
0001
0100
0001
0010
0100
1000
0001
0100
0010
1000
0010
0100
0001
1000
0001
0100
0010
,
1000
0010
0100
0001
1000
0100
0010
0001
1000
0100
1000
0010
0100
0010
1000
0001
0100
0001
0010
0100
1000
0001
0010
0001
,
0100
0010
1000
0010
0100
0001
1000
0001
0100
0010
1000
0010
0100
0001
1000
0100
0010
0001
1000
0100
1000
0010
0100
0001
,
1000
0001
0010
0100
1000
0001
0100
0001
1000
0010
0100
0001
0100
0010
1000
0001
0100
0001
0010
0100
1000
0001
0010
0001
,
1000
0100
1000
0010
0100
0001
1000
0100
1000
0010
0100
0010
1000
0001
0100
0001
1000
0100
1000
0010
0100
0001
1000
0100
,
0010
0001
1000
0010
0100
0001
1000
0001
0100
0010
0100
0001
1000
0010
1000
0100
0010
0001
1000
0100
1000
0010
0100
0001
,
0100
0010
1000
0001
0100
0001
0010
0100
1000
0001
0010
0001
0100
0010
1000
0010
0100
0001
1000
0100
0010
0001
0100
0001
,
2000
0000
3010
0200
0000
0302
2003
0000
3100
2000
0000
3001
,
0200
0000
0000
0310
0000
2000
0000
3000
0002
0010
0000
0003
,
0200
0000
0320
1000
0030
0200
0302
0000
1003
0200
0000
1300
,
0020
0000
0000
0000
0000
0000
0230
0000
0000
0300
0001
0000
2000
0000
0000
0000
3010
0000
0100
0000
0000
0000
0001
0000
,
0200
0000
0320
2030
0000
3004
0023
0030
0200
1000
0300
1000
,
0020
0000
0130
0001
0000
2000
0000
0000
3020
0100
0000
0030
,
2000
0000
3001
0020
0030
0200
2300
0000
3010
0200
0000
0301
,
2000
0000
3200
0010
0300
0002
M000
0000
1003
0010
0000
0000
,
0200
0000
0301
2000
3000
0020
0230
0000
0301
2000
0000
3010
,
2000
0000
3002
0100
0003
2000
0010
3000
0001
2000
0000
3000
,
0200
0000
0320
0001
0030
1000
0200
0000
1300
0020
0000
0130
,
0002
0000
0000
2003
0000
3010
0200
0000
0310
1000
0000
1000
,
0002
0000
0023
0230
0000
1300
0002
0000
1003
0020
0000
0130
,
0002
0000
0003
2000
0000
3010
0200
0000
0301
2000
0000
3020
,
0100
0000
0000
1030
0000
0001
0020
0000
0031
2000
0000
3010
,
0200
0000
0000
0001
0000
0000
0301
0000
0001
1000
0000
0000
,
0001
0100
0010
0100
0001
1000
0001
0100
0010
1000
0010
0100
0001
1000
0001
0010
0100
1000
0010
0100
0001
0100
0010
1000
,
0001
0100
0001
0010
0100
1000
0001
0010
0001
0100
0010
1000
0010
0100
0001
1000
0001
0010
0100
1000
0001
0100
0010
1000
,
0010
0100
0001
1000
0100
1000
0010
0100
0001
0100
0010
1000
0001
1000
0100
0010
0001
1000
0010
0100
0001
0100
0010
1000
,
0001
0010
0001
0100
0010
1000
0010
0100
0001
1000
0100
1000
0010
0100
0001
1000
0100
0010
0001
0100
0001
1000
0010
0100
,
0001
1000
0100
1000
0001
0010
0100
1000
0001
0010
0001
0100
0010
0100
0001
1000
0010
1000
0100
0010
0001
0100
0010
0100
,
0001
1000
0010
1000
0100
0010
0001
1000
0100
1000
0010
0100
0001
0100
0010
1000
0001
1000
0100
0010
0001
0100
0010
0100
,
0001
1000
0010
1000
0001
0100
0001
0010
0100
1000
0010
0100
0001
1000
0100
0010
0001
0100
0010
1000
0010
0100
0001
1000
,
0100
0010
0001
0100
0010
1000
0010
0100
0001
1000
0001
0010
0100
1000
0010
0100
0010
1000
0001
0100
0001
0010
0100
1000
,
0010
0100
0001
1000
0010
0100
0010
1000
0001
0100
0010
0100
0001
1000
0001
0010
0100
1000
0001
0100
0010
1000
0010
0100
,
0001
1000
0001
0100
0010
1000
0010
0100
0001
1000
0100
0010
0001
1000
0010
0100
0010
1000
0001
0100
0001
0010
0100
1000
,
0001
0010
0001
0100
0010
1000
0010
0100
0001
1000
0100
1000
0010
0100
0001
1000
0010
0100
0010
1000
0001
0100
0001
1000
,
0100
0010
0001
1000
0010
0100
0001
0100
0010
1000
0001
0010
0100
1000
0001
0010
0001
0100
0010
1000
0010
0100
0001
1000
,
0020
0000
1030
0001
0000
M002
0103
0000
0M10
2000
0000
3001
,
0020
0000
0130
2000
3000
00M2
0100
0003
2M00
0010
3000
0100
,
0020
0000
0030
1000
0000
00M2
0000
0000
M103
0010
0000
1M00
,
0020
0000
000M
0130
0000
M002
0M00
0000
1003
01M0
0000
0100
,
20M0
0000
0000
3010
0000
0200
0001
0000
0310
2000
0000
3002
,
0013
0000
0100
2000
3000
0020
0100
0000
2030
3002
0000
1003
,
0020
0000
0130
0002
0003
2000
0010
0000
3100
0020
0031
1000
,
0020
0000
0030
0200
0000
0300
0002
0000
0000
2003
3000
0020
,
1030
0000
1000
0100
0000
0100
0010
0000
0010
0001
0000
0001
,
1000
0000
1000
0010
0000
0010
1000
0000
1000
0100
0000
0100
,
0010
0000
0010
0001
0000
0001
1000
0000
1000
0001
0000
0001
,
0200
0000
0310
2000
0000
3001
0200
0000
0301
0020
0000
0230
,
1300
0000
1000
0001
0000
0001
0100
0000
0100
0010
0000
0010
,
0100
0000
0100
0001
0000
0001
1000
0000
1000
0100
0000
0100
,
0010
0000
0010
0100
0000
0100
1000
0000
1000
0001
0000
0001
,
0100
0000
0100
0010
0000
0010
1000
0000
1000
0001
0000
0001
,
0010
0100
1000
0001
0100
0010
0100
0001
1000
0010
1000
0001
0100
0010
0100
0001
,
1000
0100
1000
0010
0100
0001
1000
0100
0010
0001
0100
0001
1000
0010
0100
0010
,
1000
0001
0010
0001
0100
0010
0100
0001
1000
0010
1000
0001
0100
0010
0100
0001
,
1000
0100
1000
0010
0100
0001
1000
0100
0010
0001
0100
0010
1000
0001
0100
0001
,
1000
0010
1000
0001
0010
0100
1000
0001
0010
0001
0100
0010
0100
0001
1000
0010
,
1000
0100
0010
0001
0100
0010
0100
0001
0010
0100
1000
0001
0100
0010
0100
0001
,
1000
0010
1000
0001
0100
0001
1000
0100
0010
0001
0100
0010
1000
0001
0100
0001
,
0010
0100
1000
0010
0100
0010
1000
0001
0100
0001
1000
0100
0010
0001
0100
0010
,
1000
0100
1000
0001
0010
0100
1000
0010
0100
0010
1000
0001
0100
0001
0010
0100
1000
0001
0100
0010
1000
0010
0100
0001
,
1000
0001
0100
0010
1000
0010
0100
0001
1000
0100
0010
0001
1000
0100
1000
0010
0100
0010
1000
0001
0100
0001
0010
0100
,
1000
0001
0010
0001
0100
0010
1000
0010
0100
0001
1000
0001
0100
0010
1000
0010
0100
0001
1000
0100
0010
0001
1000
0100
,
1000
0010
0100
0001
1000
0001
0010
0100
1000
0001
0100
0001
1000
0010
0100
0001
0100
0010
1000
0001
0100
0001
0010
0100
,
1000
0001
0010
0001
1000
0100
1000
0010
0100
0001
1000
0100
1000
0010
0100
0010
1000
0001
0100
0001
1000
0100
1000
0010
,
0100
0001
1000
0100
0010
0001
1000
0010
0100
0001
1000
0001
0100
0010
0100
0001
1000
0010
1000
0100
0010
0001
1000
0100
,
1000
0010
0100
0001
0100
0010
1000
0001
0100
0001
0010
0100
1000
0010
0100
0001
0100
0010
1000
0001
0100
0010
1000
0001
,
0100
0001
0010
0100
1000
0001
0100
0010
1000
0010
0100
0001
1000
0001
0100
0010
1000
0010
0100
0001
1000
0100
0010
0001
,
1000
0100
1000
0010
0100
0010
1000
0001
0100
0001
0010
0100
1000
0001
0010
0001
0100
0010
1000
0010
0100
0001
1000
0001
,
0100
0010
1000
0010
0100
0001
1000
0100
0010
0001
1000
0100
1000
0010
0100
0001
1000
0001
0010
0100
1000
0001
0100
0001
,
1000
0010
0100
0001
0100
0010
1000
0001
0100
0001
0010
0100
1000
0001
0010
0001
1000
0100
1000
0010
0100
0001
1000
0100
,
1000
0010
0100
0010
1000
0001
0100
0001
1000
0100
1000
0010
0100
0001
1000
0100
0010
0001
1000
0010
0100
0001
1000
0001
,
0200
0000
0320
1030
0000
0002
0103
0000
0010
2000
0000
3001
,
0020
0000
0130
2000
3000
0002
0100
0003
2000
0010
3000
0100
,
0020
0000
0030
1000
0000
0002
0000
0000
0103
0010
0000
1000
,
0020
0000
0000
0130
0000
0002
0000
0000
1003
0100
0000
0100
,
2000
0000
0000
3010
0000
0200
0001
0000
0310
2000
0000
3002
,
0013
0000
0100
2000
3000
0020
0100
0000
2030
3002
0000
1003
,
0020
0000
0130
0002
0003
2000
0010
0000
3100
0020
0031
1000
,
0020
0000
0030
0200
0000
0300
0002
0000
0000
2003
3000
0020
,
1030
0000
1000
0001
0000
0001
0100
0000
0100
0001
0000
0001
,
1000
0000
1000
0010
0000
0010
1000
0000
1000
0100
0000
0100
,
0010
0000
0010
0001
0000
0001
1000
0000
1000
0001
0000
0001
,
0200
0000
0310
2000
0000
3001
0200
0000
0301
0020
0000
0230
,
1300
0000
1000
0001
0000
0001
0100
0000
0100
0010
0000
0010
,
0100
0000
0100
0001
0000
0001
1000
0000
1000
0100
0000
0100
,
0010
0000
0010
0100
0000
0100
1000
0000
1000
0001
0000
0002
,
0103
0000
0200
0310
0000
0020
1030
0000
2000
3001
0000
0002
,
0023
0000
0000
0130
0000
2000
3000
0000
2000
3010
0000
0010
,
0200
0000
0000
0301
0000
0020
0030
0000
0020
0130
0000
0100
,
2000
0000
0000
3001
0000
0200
0310
0000
2000
3010
0000
0200
,
0301
0000
2000
3100
0000
0020
0032
0000
1003
0020
0000
0130
,
0002
0000
1003
0100
0000
2000
3000
0000
2000
3010
0000
0010
,
0200
0000
0000
0301
0000
0020
0030
0000
0020
0130
0000
0100
,
2000
0000
0000
3001
0000
0200
0310
0000
2000
3010
0000
0010
,
2000
0000
3001
0020
0000
0031
0200
0000
0300
0002
0003
2000
,
0002
0000
0000
0003
,
0000
0000
0000
0000
,
0000
0000
0000
0000
,
0000
0000
0000
0000
,
0000
0000
0000
0000
,
0000
0000
0000
0000
,
3000
0000
0000
0000
,
0000
0000
0000
0000
,
0000
0000
0000
0000
,
0000
0000
0000
0000
;

//---------------dance-single - 13.86 (14-) (owenvia----------------
#NOTES:
     dance-single:
     13.86 (14-) (owenvia:
     Hard:
     14:
     1.000,1.000,0.005,1.000,1.000,1535.000,1.000,268.000,15.000,0.000:
1000
0000
0010
0100
0000
0001
1000
0000
0100
1000
0000
0010
,
0100
0000
0001
0100
0000
0100
0010
0000
1000
0001
0000
0001
,
1000
0000
1000
0100
0000
0100
0010
0000
0010
0001
0000
0001
,
1000
0000
0010
1000
0000
0010
0100
0000
0001
0100
0000
0010
,
1000
0000
1000
0001
0000
0001
0100
0000
0100
0010
0000
0010
,
1000
0000
0001
0010
0000
0001
1000
0000
0010
1000
0000
0001
,
0010
0000
0010
0100
0000
0100
1000
0000
1000
0001
0000
0001
,
0100
0000
0010
1000
0000
0100
1000
0000
0010
0100
0000
0001
,
1000
0000
1000
0010
0000
0010
0100
0000
0100
0001
0000
0001
,
1000
0000
0100
0010
0000
0001
1000
0000
0010
1000
0000
0001
,
0020
0000
0000
0130
0000
2000
3000
0000
2000
3010
0000
0010
,
0200
0000
0000
0301
0000
0020
0030
0000
0020
0130
0000
0100
,
2000
0000
0000
3001
0000
0200
0310
0000
2000
3010
0000
0200
,
0301
0000
2000
3100
0000
0020
0032
0000
1003
0020
0000
0130
,
0002
0000
1003
0100
0000
2000
3000
0000
2000
3010
0000
0010
,
0200
0000
0000
0301
0000
0020
0030
0000
0020
0130
0000
0100
,
2000
0000
0000
3001
0000
0200
0310
0000
2000
3010
0000
0200
,
0301
0000
2000
3100
0000
0020
0032
0000
1003
0020
0000
0000
,
0230
0000
0000
0000
0000
0000
M000
0000
0000
0000
0000
0000
0301
0000
0000
0000
0000
0000
0000
0000
0000
0000
0000
0000
0020
0000
0000
0000
0000
0000
0000
0000
0000
0030
0000
0000
0100
0000
0000
0000
0000
0000
0000
0000
1000
0000
0000
0000
,
0002
0000
0000
0103
0000
0020
0000
0000
1030
0002
0000
0003
,
0020
0000
0000
0030
0100
0000
1000
0000
0000
0000
0001
0000
0200
0000
0000
0000
0310
0000
2000
0000
0000
0000
3001
0000
,
0020
0000
0000
0230
0000
1300
0002
0000
1003
0010
0000
0000
,
0200
0000
0000
0302
0000
1003
0200
0000
1300
0020
0000
0130
,
0002
0000
0000
1003
0000
0200
0000
03M0
2000
0001
0000
3000
,
0020
0000
1030
0001
0000
0010
0200
0000
1300
0010
0000
0100
,
0002
0000
1003
0010
0000
0200
0000
0000
0301
1000
0000
0010
,
0200
0000
0301
0020
0000
0230
2300
0000
3001
0200
0300
0010
,
2000
0000
0000
3010
0000
0200
0300
0000
0001
2000
0000
3000
,
0200
0000
1300
0010
0000
0200
0001
0300
0020
1000
0030
0100
,
0002
0000
0000
1003
0000
0200
0000
0000
1300
0001
0000
0000
,
0020
0000
0130
2000
0000
3000
0002
0000
0203
0320
0000
1030
,
0200
0000
0000
1300
0000
0002
0010
0003
2000
0010
0000
3000
,
0002
0000
0013
0200
0000
1300
0020
0000
0130
0002
0003
2000
,
0010
0000
0000
0010
0000
0000
3010
0000
0100
0002
0000
0000
,
1003
0100
0010
0001
1000
0010
0100
0010
1000
0001
0100
0001
0010
0100
1000
0001
,
0100
0010
0100
0001
1000
0010
1000
0001
0100
0010
1000
0001
0010
0001
0100
0010
,
0100
0001
1000
0010
1000
0100
0010
0001
0100
0010
1000
0001
0010
0001
1000
0100
,
1000
0010
0100
0001
0100
0010
1000
0001
1000
0100
0010
0001
0100
0010
1000
0001
,
0100
0001
1000
0100
1000
0010
0100
0010
1000
0001
0100
0001
0010
0100
1000
0001
,
0010
0001
0100
0010
0100
0001
1000
0010
1000
0001
0100
0010
0100
0001
1000
0010
,
1000
0001
0100
0010
0100
0001
1000
0100
1000
0010
0100
0010
1000
0001
0100
0001
,
0010
0100
1000
0001
0010
0001
0100
0010
0100
0001
1000
0010
1000
0001
0100
0001
,
1000
0100
1000
0010
0100
0010
1000
0001
0100
0001
0010
0100
1000
0010
0100
0010
,
1000
0001
0010
0001
0100
0010
0100
0001
1000
0100
1000
0010
0100
0001
1000
0100
,
0010
0001
1000
0010
0100
0001
0100
0010
1000
0001
0010
0100
1000
0001
0100
0001
,
1000
0010
0100
0010
1000
0001
0010
0001
1000
0100
1000
0010
0100
0001
1000
0001
,
0200
0000
0320
1030
0000
0002
0103
0000
0010
2000
0000
3001
,
0020
0000
0130
2000
3000
0002
0100
0003
2000
0010
3000
0100
,
0020
0000
0030
1000
0000
0002
0000
0000
0103
0010
0000
1000
,
0020
0000
0000
0130
0000
0002
0000
0000
1003
0100
0000
0100
,
2000
0000
0000
3010
0000
0200
0001
0000
0310
2000
0000
3002
,
0013
0000
0100
2000
3000
0020
0100
0000
2030
3002
0000
1003
,
0020
0000
0130
0002
0003
2000
0010
0000
3100
0020
0031
1000
,
0020
0000
0030
0200
0000
0300
0002
0000
0000
2003
3000
0020
,
1030
0001
0100
0001
0010
0100
1000
0010
0100
0001
1000
0100
1000
0010
0100
0010
,
1000
0001
0100
0001
0010
0100
1000
0001
0010
0001
0100
0010
0100
0001
1000
0010
,
1000
0001
0100
0010
0100
0001
1000
0100
1000
0010
0100
0001
1000
0100
0010
0001
,
0100
0001
1000
0010
0100
0010
1000
0001
0010
0001
0100
0010
1000
0010
0100
0001
,
1000
0100
1000
0010
0100
0001
1000
0100
0010
0001
1000
0001
0100
0010
0100
0001
,
1000
0010
1000
0001
0100
0010
1000
0001
0010
0001
0100
0010
0100
0001
1000
0010
,
1000
0001
0100
0010
1000
0001
0010
0100
1000
0001
0010
0001
0100
0010
0100
0001
,
1000
0010
1000
0001
0100
0010
1000
0001
0010
0100
1000
0001
0100
0010
1000
0001
,
2000
0000
3010
0200
0000
0302
2003
0000
3100
2000
0000
3001
,
0200
0000
0000
0310
0000
2000
0000
3000
0002
0010
0000
0003
,
0200
0000
0320
1000
0030
0200
0302
0000
1003
0200
0000
1300
,
0020
0000
0000
0000
0000
0000
0230
0000
0000
0300
0001
0000
2000
0000
0000
0000
3010
0000
0100
0000
0000
0000
0001
0000
,
0200
0000
0320
2030
0000
3004
0023
0030
0200
1000
0300
1000
,
0020
0000
0130
0001
0000
2000
0000
0000
3020
0100
0000
0030
,
2000
0000
3001
0020
0030
0200
2300
0000
3010
0200
0000
0301
,
2000
0000
3200
0010
0300
0002
M000
0000
1003
0010
0000
0000
,
0200
0000
0301
2000
3000
0020
0230
0000
0301
2000
0000
3010
,
2000
0000
3002
0100
0003
2000
0010
3000
0001
2000
0000
3000
,
0200
0000
0320
0001
0030
1000
0200
0000
1300
0020
0000
0130
,
0002
0000
0000
2003
0000
3010
0200
0000
0310
1000
0000
1000
,
0002
0000
0023
0230
0000
1300
0002
0000
1003
0020
0000
0130
,
0002
0000
0003
2000
0000
3010
0200
0000
0301
2000
0000
3020
,
0100
0000
0000
1030
0000
0001
0020
0000
0031
2000
0000
3010
,
0200
0000
0000
0001
0000
0000
0301
0000
0001
1000
0000
0000
,
0010
1000
0001
0100
0010
0100
0001
1000
0100
1000
0010
0100
0001
1000
0100
0010
,
0001
1000
0010
1000
0001
0100
0010
0100
0001
1000
0100
1000
0010
0100
0001
1000
,
0100
0010
0001
1000
0010
0100
0010
1000
0001
0100
0001
1000
0100
0010
0001
0100
,
0010
1000
0001
0100
0001
1000
0100
1000
0010
0100
0010
1000
0001
0010
0001
0100
,
0010
0100
0001
1000
0010
1000
0001
0100
0010
1000
0001
0010
0001
1000
0100
0010
,
0001
0100
0010
1000
0010
1000
0001
0100
0010
0100
0001
1000
0100
1000
0010
0100
,
0001
1000
0100
0010
0001
1000
0010
1000
0001
0100
0010
0100
0001
1000
0100
1000
,
0010
0100
0001
1000
0100
0010
0001
1000
0010
0100
0010
1000
0001
0100
0001
1000
,
0100
0010
0001
0100
0010
1000
0001
0100
0001
1000
0100
1000
0010
0100
0010
1000
,
0001
0010
0001
0100
0010
0100
0001
1000
0010
1000
0001
0100
0010
1000
0001
0010
,
0001
1000
0100
0010
0001
0100
0010
1000
0001
1000
0100
0010
0001
1000
0010
0100
,
0010
1000
0001
0100
0001
0010
0100
1000
0001
0100
0010
1000
0100
1000
0001
0100
,
0020
0000
1030
0001
0000
M002
0103
0000
0M10
2000
0000
3001
,
0020
0000
0130
2000
3000
00M2
0100
0003
2M00
0010
3000
0100
,
0020
0000
0030
1000
0000
00M2
0000
0000
M103
0010
0000
1M00
,
0020
0000
000M
0130
0000
M002
0M00
0000
1003
01M0
0000
0100
,
20M0
0000
0000
3010
0000
0200
0001
0000
0310
2000
0000
3002
,
0013
0000
0100
2000
3000
0020
0100
0000
2030
3002
0000
1003
,
0020
0000
0130
0002
0003
2000
0010
0000
3100
0020
0031
1000
,
0020
0000
0030
0200
0000
0300
0002
0000
0000
2003
3000
0020
,
1030
0000
1000
0100
0000
0100
0010
0000
0010
0001
0000
0001
,
1000
0000
1000
0010
0000
0010
1000
0000
1000
0100
0000
0100
,
0010
0000
0010
0001
0000
0001
1000
0000
1000
0001
0000
0001
,
0200
0000
0310
2000
0000
3001
0200
0000
0301
0020
0000
0230
,
1300
0000
1000
0001
0000
0001
0100
0000
0100
0010
0000
0010
,
0100
0000
0100
0001
0000
0001
1000
0000
1000
0100
0000
0100
,
0010
0000
0010
0100
0000
0100
1000
0000
1000
0001
0000
0001
,
0100
0000
0100
0010
0000
0010
1000
0000
1000
0001
0000
0001
,
0010
0100
1000
0001
0100
0010
0100
0001
1000
0010
1000
0001
0100
0010
0100
0001
,
1000
0100
1000
0010
0100
0001
1000
0100
0010
0001
0100
0001
1000
0010
0100
0010
,
1000
0001
0010
0001
0100
0010
0100
0001
1000
0010
1000
0001
0100
0010
0100
0001
,
1000
0100
1000
0010
0100
0001
1000
0100
0010
0001
0100
0010
1000
0001
0100
0001
,
1000
0010
1000
0001
0010
0100
1000
0001
0010
0001
0100
0010
0100
0001
1000
0010
,
1000
0100
0010
0001
0100
0010
0100
0001
0010
0100
1000
0001
0100
0010
0100
0001
,
1000
0010
1000
0001
0100
0001
1000
0100
0010
0001
0100
0010
1000
0001
0100
0001
,
0010
0100
1000
0010
0100
0010
1000
0001
0100
0001
1000
0100
0010
0001
0100
0010
,
1000
0100
0010
0001
1000
0010
0100
0010
1000
0001
0100
0001
0010
0100
1000
0001
,
0100
0010
0100
0001
1000
0010
1000
0001
0100
0010
1000
0001
0010
0001
0100
0010
,
0100
0001
1000
0010
1000
0100
0010
0001
0100
0010
1000
0001
0010
0001
1000
0100
,
1000
0010
0100
0001
0100
0010
1000
0001
1000
0100
0010
0001
0100
0010
1000
0001
,
0100
0001
1000
0100
1000
0010
0100
0010
1000
0001
0100
0001
0010
0100
1000
0001
,
0010
0001
0100
0010
0100
0001
1000
0010
1000
0001
0100
0010
0100
0001
1000
0010
,
1000
0001
0100
0010
0100
0001
1000
0100
1000
0010
0100
0010
1000
0001
0100
0001
,
0010
0100
1000
0001
0010
0001
0100
0010
0100
0001
1000
0010
1000
0001
0100
0001
,
1000
0100
1000
0010
0100
0010
1000
0001
0100
0001
0010
0100
1000
0010
0100
0010
,
1000
0001
0010
0001
0100
0010
0100
0001
1000
0100
1000
0010
0100
0001
1000
0100
,
0010
0001
1000
0010
0100
0001
0100
0010
1000
0001
0010
0100
1000
0001
0100
0001
,
1000
0010
0100
0010
1000
0001
0010
0001
1000
0100
1000
0010
0100
0001
1000
0001
,
0200
0000
0320
1030
0000
0002
0103
0000
0010
2000
0000
3001
,
0020
0000
0130
2000
3000
0002
0100
0003
2000
0010
3000
0100
,
0020
0000
0030
1000
0000
0002
0000
0000
0103
0010
0000
1000
,
0020
0000
0000
0130
0000
0002
0000
0000
1003
0100
0000
0100
,
2000
0000
0000
3010
0000
0200
0001
0000
0310
2000
0000
3002
,
0013
0000
0100
2000
3000
0020
0100
0000
2030
3002
0000
1003
,
0020
0000
0130
0002
0003
2000
0010
0000
3100
0020
0031
1000
,
0020
0000
0030
0200
0000
0300
0002
0000
0000
2003
3000
0020
,
1030
0000
1000
0001
0000
0001
0100
0000
0100
0001
0000
0001
,
1000
0000
1000
0010
0000
0010
1000
0000
1000
0100
0000
0100
,
0010
0000
0010
0001
0000
0001
1000
0000
1000
0001
0000
0001
,
0200
0000
0310
2000
0000
3001
0200
0000
0301
0020
0000
0230
,
1300
0000
1000
0001
0000
0001
0100
0000
0100
0010
0000
0010
,
0100
0000
0100
0001
0000
0001
1000
0000
1000
0100
0000
0100
,
0010
0000
0010
0100
0000
0100
1000
0000
1000
0001
0000
0002
,
0103
0000
0200
0310
0000
0020
1030
0000
2000
3001
0000
0002
,
0023
0000
0000
0130
0000
2000
3000
0000
2000
3010
0000
0010
,
0200
0000
0000
0301
0000
0020
0030
0000
0020
0130
0000
0100
,
2000
0000
0000
3001
0000
0200
0310
0000
2000
3010
0000
0200
,
0301
0000
2000
3100
0000
0020
0032
0000
1003
0020
0000
0130
,
0002
0000
1003
0100
0000
2000
3000
0000
2000
3010
0000
0010
,
0200
0000
0000
0301
0000
0020
0030
0000
0020
0130
0000
0100
,
2000
0000
0000
3001
0000
0200
0310
0000
2000
3010
0000
0010
,
2000
0000
3001
0020
0000
0031
0200
0000
0300
0002
0003
2000
,
0002
0000
0000
0003
,
0000
0000
0000
0000
,
0000
0000
0000
0000
,
0000
0000
0000
0000
,
0000
0000
0000
0000
,
0000
0000
0000
0000
,
3000
0000
0000
0000
;

//---------------dance-single - ----------------
#NOTES:
     dance-single:
     :
     Medium:
     9:
     0.786,0.887,0.141,1.000,0.764,908.000,31.000,270.000,3.000,0.000:
1000
0000
0010
0100
0000
0001
1000
0000
0100
1000
0000
0010
,
0100
0000
0001
0100
0000
0100
0010
0000
1000
0001
0000
0001
,
1000
0000
1000
0100
0000
0100
0010
0000
0010
0001
0000
0001
,
1000
0000
0010
1000
0000
0010
0100
0000
0001
0100
0000
0010
,
1000
0000
1000
0001
0000
0001
0100
0000
0100
0010
0000
0010
,
1000
0000
0001
0010
0000
0001
1000
0000
0010
1000
0000
0001
,
0010
0000
0010
0100
0000
0100
1000
0000
1000
0001
0000
0001
,
0100
0000
0010
1000
0000
0100
1000
0000
0010
0100
0000
0001
,
1000
0000
1000
0010
0000
0010
0100
0000
0100
0001
0000
0001
,
1000
0000
0100
0010
0000
0001
1000
0000
0010
1000
0000
0001
,
0020
0000
0000
0130
0000
2000
3000
0000
2000
3010
0000
0010
,
0200
0000
0000
0301
0000
0020
0030
0000
0020
0130
0000
0100
,
2000
0000
0000
3001
0000
0200
0310
0000
2000
3010
0000
0200
,
0301
0000
2000
3100
0000
0020
0032
0000
1003
0020
0000
0130
,
0002
0000
1003
0100
0000
2000
3000
0000
2000
3010
0000
0010
,
0200
0000
0000
0301
0000
0020
0030
0000
0020
0130
0000
0100
,
2000
0000
0000
3001
0000
0200
0310
0000
2000
3010
0000
0200
,
0301
0000
2000
3100
0000
0020
0032
0000
1003
0020
0000
0000
,
0230
0000
0000
0000
0000
0000
M000
0000
0000
0000
0000
0000
0301
0000
0000
0000
0000
0000
0000
0000
0000
0000
0000
0000
0020
0000
0000
0000
0000
0000
0000
0000
0000
0030
0000
0000
0100
0000
0000
0000
0000
0000
0000
0000
1000
0000
0000
0000
,
0002
0000
0000
0103
0000
0020
0000
0000
1030
0002
0000
0003
,
0020
0000
0000
0030
0100
0000
1000
0000
0000
0000
0001
0000
0200
0000
0000
0000
0310
0000
2000
0000
0000
0000
3001
0000
,
0020
0000
0000
0230
0000
1300
0002
0000
1003
0010
0000
0000
,
0200
0000
0000
0302
0000
1003
0200
0000
1300
0020
0000
0130
,
0002
0000
0000
1003
0000
0200
0000
03M0
2000
0001
0000
3000
,
0020
0000
1030
0001
0000
0010
0200
0000
1300
0010
0000
0100
,
0002
0000
1003
0010
0000
0200
0000
0000
0301
1000
0000
0010
,
0200
0000
0301
0020
0000
0230
2300
0000
3001
0200
0300
0010
,
2000
0000
0000
3010
0000
0200
0300
0000
0001
2000
0000
3000
,
0200
0000
1300
0010
0000
0200
0001
0300
0020
1000
0030
0100
,
0002
0000
0000
1003
0000
0200
0000
0000
1300
0001
0000
0000
,
0020
0000
0130
2000
0000
3000
0002
0000
0203
0320
0000
1030
,
0200
0000
0000
1300
0000
0002
0010
0003
2000
0010
0000
3000
,
0002
0000
0013
0200
0000
1300
0020
0000
0130
0002
0003
2000
,
0010
0000
0000
0010
0000
0000
3010
0000
0100
0002
0000
0000
,
1003
0010
0100
0001
,
0011
0001
0100
0010
,
1000
0010
0100
0001
,
0011
0001
0100
0010
,
1010
0001
0100
0001
,
0011
0001
0100
0010
,
1010
1000
0001
0100
,
0011
0001
0100
0010
,
1010
0001
0101
0001
,
1001
0010
0100
0001
,
0011
0001
0100
0010
,
1001
0010
0100
0001
,
0200
0000
0320
1030
0000
0002
0103
0000
0010
2000
0000
3001
,
0020
0000
0130
2000
3000
0002
0100
0003
2000
0010
3000
0100
,
0020
0000
0030
1000
0000
0002
0000
0000
0103
0010
0000
1000
,
0020
0000
0000
0130
0000
0002
0000
0000
1003
0100
0000
0100
,
2000
0000
0000
3010
0000
0200
0001
0000
0310
2000
0000
3002
,
0013
0000
0100
2000
3000
0020
0100
0000
2030
3002
0000
1003
,
0020
0000
0130
0002
0003
2000
0010
0000
3100
0020
0031
1000
,
0020
0000
0030
0200
0000
0300
0002
0000
0000
2003
3000
0020
,
2030
0000
0000
3010
,
0200
0000
0000
0301
,
0010
0000
0100
0000
0000
0100
0010
0000
0000
0010
0000
1000
,
0001
0100
0010
1000
,
0001
0100
0010
1000
,
0001
0010
0001
0100
,
0010
1000
0001
0100
,
0010
1000
0001
1000
,
2000
0000
3010
0200
0000
0302
2003
0000
3100
2000
0000
3001
,
0200
0000
0000
0310
0000
2000
0000
3000
0002
0010
0000
0003
,
0200
0000
0320
1000
0030
0200
0302
0000
1003
0200
0000
1300
,
0020
0000
0000
0000
0000
0000
0230
0000
0000
0300
0001
0000
2000
0000
0000
0000
3010
0000
0100
0000
0000
0000
0001
0000
,
0200
0000
0320
2030
0000
3004
0023
0030
0200
1000
0300
1000
,
0020
0000
0130
0001
0000
2000
0000
0000
3020
0100
0000
0030
,
2000
0000
3001
0020
0030
0200
2300
0000
3010
0200
0000
0301
,
2000
0000
3200
0010
0300
0002
M000
0000
1003
0010
0000
0000
,
0200
0000
0301
2000
3000
0020
0230
0000
0301
2000
0000
3010
,
2000
0000
3002
0100
0003
2000
0010
3000
0001
2000
0000
3000
,
0200
0000
0320
0001
0030
1000
0200
0000
1300
0020
0000
0130
,
0002
0000
0000
2003
0000
3010
0200
0000
0310
1000
0000
1000
,
0002
0000
0023
0230
0000
1300
0002
0000
1003
0020
0000
0130
,
0002
0000
0003
2000
0000
3010
0200
0000
0301
2000
0000
3020
,
0100
0000
0000
1030
0000
0001
0020
0000
0031
2000
0000
3010
,
0200
0000
0000
0001
0000
0000
0301
0000
0001
1000
0000
0000
,
0001
0100
0010
1000
,
0011
0001
0100
0010
,
0110
0010
1000
0001
,
0011
0001
0100
0010
,
1001
0010
0100
0010
,
0110
0001
1000
0010
,
0110
0001
0010
0100
,
0110
0001
1000
0010
,
0110
0001
0011
0001
,
0101
0010
1000
0010
,
0110
0001
0010
0100
,
0110
0001
1000
0001
,
0020
0000
1030
0001
0000
0002
0103
0000
0010
2000
0000
3001
,
0020
0000
0130
2000
3000
0002
0100
0003
2000
0010
3000
0100
,
0020
0000
0030
1000
0000
0002
0000
0000
0103
0010
0000
1000
,
0020
0000
0000
0130
0000
0002
0000
0000
1003
0100
0000
0100
,
2000
0000
0000
3010
0000
0200
0001
0000
0310
2000
0000
3002
,
0013
0000
0100
2000
3000
0020
0100
0000
2030
3002
0000
1003
,
0020
0000
0130
0002
0003
2000
0010
0000
3100
0020
0031
1000
,
0020
0000
0030
0200
0000
0300
0002
0000
0000
2003
3000
0020
,
1030
0000
1000
0100
0000
0100
0010
0000
0010
0001
0000
0001
,
1000
0000
1000
0010
0000
0010
1000
0000
1000
0100
0000
0100
,
0010
0000
0010
0001
0000
0001
1000
0000
1000
0001
0000
0001
,
0200
0000
0310
2000
0000
3001
0200
0000
0301
0020
0000
0230
,
1300
0000
1000
0001
0000
0001
0100
0000
0100
0010
0000
0010
,
0100
0000
0100
0001
0000
0001
1000
0000
1000
0100
0000
0100
,
0010
0000
0010
0100
0000
0100
1000
0000
1000
0001
0000
0001
,
0100
0000
0100
0010
0000
0010
1000
0000
1000
0001
0000
0001
,
1000
0010
0100
0001
,
0010
0100
1000
0001
,
0100
0010
1000
0001
,
0010
0010
0100
0100
,
1000
0001
0100
0100
,
0010
0010
1000
1000
,
0001
0100
0010
1000
,
0001
0100
0010
1000
,
0001
0010
0001
0100
,
0010
1010
0001
0101
,
0010
1000
0001
0010
,
0100
0100
1000
1000
,
0001
0100
0010
1000
,
0001
0010
0100
1000
,
0001
0100
0010
1000
,
0001
0010
0010
0100
,
1001
0010
1001
0100
,
1001
0010
0100
0001
,
1001
0010
1000
0001
,
1001
0100
0001
0000
,
0200
0000
0320
1030
0000
0002
0103
0000
0010
2000
0000
3001
,
0020
0000
0130
2000
3000
0002
0100
0003
2000
0010
3000
0100
,
0020
0000
0030
1000
0000
0002
0000
0000
0103
0010
0000
1000
,
0020
0000
0000
0130
0000
0002
0000
0000
1003
0100
0000
0100
,
2000
0000
0000
3010
0000
0200
0001
0000
0310
2000
0000
3002
,
0013
0000
0100
2000
3000
0020
0100
0000
2030
3002
0000
1003
,
0020
0000
0130
0002
0003
2000
0010
0000
3100
0020
0031
1000
,
0020
0000
0030
0200
0000
0300
0002
0000
0000
2003
3000
0020
,
1030
0000
1000
0001
0000
0001
0100
0000
0100
0001
0000
0001
,
1000
0000
1000
0010
0000
0010
1000
0000
1000
0100
0000
0100
,
0010
0000
0010
0001
0000
0001
1000
0000
1000
0001
0000
0001
,
0200
0000
0310
2000
0000
3001
0200
0000
0301
0020
0000
0230
,
1300
0000
1000
0001
0000
0001
0100
0000
0100
0010
0000
0010
,
0100
0000
0100
0001
0000
0001
1000
0000
1000
0100
0000
0100
,
0010
0000
0010
0100
0000
0100
1000
0000
1000
0001
0000
0002
,
0103
0000
0200
0310
0000
0020
1030
0000
2000
3001
0000
0002
,
0023
0000
0000
0130
0000
2000
3000
0000
2000
3010
0000
0010
,
0200
0000
0000
0301
0000
0020
0030
0000
0020
0130
0000
0100
,
2000
0000
0000
3001
0000
0200
0310
0000
2000
3010
0000
0200
,
0301
0000
2000
3100
0000
0020
0032
0000
1003
0020
0000
0130
,
0002
0000
1003
0100
0000
2000
3000
0000
2000
3010
0000
0010
,
0200
0000
0000
0301
0000
0020
0030
0000
0020
0130
0000
0100
,
2000
0000
0000
3001
0000
0200
0310
0000
2000
3010
0000
0010
,
2000
0000
3001
0020
0000
0031
0200
0000
0300
0002
0003
2000
,
0002
0000
0000
0003
,
0000
0000
0000
0000
,
0000
0000
0000
0000
,
0000
0000
0000
0000
,
0000
0000
0000
0000
,
0000
0000
0000
0000
,
3000
0000
0000
0000
;

//---------------dance-single - ----------------
#NOTES:
     dance-single:
     :
     Easy:
     3:
     0.199,0.313,0.146,0.009,0.000,272.000,32.000,2.000,0.000,0.000:
0000
0000
0000
0000
,
0000
0000
0000
0000
,
0000
0000
0000
0000
,
0000
0000
0000
0000
,
0000
0000
0000
0000
,
1000
0000
0000
0000
,
0001
0000
0000
0000
,
0100
0000
0000
0000
,
0010
0000
0000
0000
,
1000
0000
0000
0000
,
0001
0000
0100
0000
,
0010
0000
1000
0000
,
0001
0000
0100
0000
,
0010
0000
1000
0000
,
0001
0000
0100
0000
,
0010
0000
1000
0000
,
0001
0000
0100
0000
,
0010
0000
1000
0000
,
1001
0000
0010
0000
,
0100
0001
0100
0000
,
0010
0000
1000
0000
,
0101
0000
0010
0000
,
1001
0000
0100
0000
,
1001
0000
0100
0000
,
0110
0000
0010
0000
,
1001
0000
0100
0000
,
0010
0000
1000
0000
,
1001
0000
0100
0000
,
0010
0000
1000
0000
,
1001
0000
0001
0000
,
0101
0000
0010
0000
,
1001
0000
0100
0000
,
0110
0000
0001
0000
,
1000
0000
0001
0000
,
1000
0000
0010
0000
,
0100
0000
0000
0000
,
0001
0000
0010
0000
,
0100
0000
1000
0000
,
0001
0000
0100
0000
,
0100
0000
0010
0000
,
1000
0000
0001
0000
,
0000
0000
0000
0000
,
0000
0000
0000
0000
,
0000
0000
0000
0000
,
0001
0000
0100
0000
,
0010
0000
1000
0000
,
0001
0000
1000
0000
,
0010
0000
0100
0000
,
0001
0000
0010
0000
,
0100
0000
1000
0000
,
0001
0000
0100
0000
,
0010
0000
1000
0000
,
0001
0000
0010
0000
,
1100
0000
0000
0000
,
1000
0000
0001
0000
,
0100
0000
0010
0000
,
1000
0000
0010
0000
,
0100
0000
0001
0000
,
1000
1000
1000
0000
,
0010
0010
0010
0000
,
0100
0100
0100
0000
,
0001
0001
0001
0000
,
1000
0001
0100
0010
,
1000
0000
0000
0000
,
1001
0000
0000
0000
,
0110
0000
0000
0001
,
1001
0000
0000
0000
,
0110
0000
0000
0000
,
1001
0000
0000
0000
,
1001
0000
0000
0000
,
1001
0001
1000
0001
,
1001
0000
0000
0000
,
0110
0000
0000
0000
,
1001
0001
0100
0010
,
1001
0000
0000
0000
,
0110
0000
0000
0000
,
1001
0000
0000
0000
,
1001
0000
0000
0000
,
0001
0000
1000
0000
,
0001
0000
0000
0000
,
0100
0000
0000
0000
,
0010
0000
0000
0000
,
1000
0000
0001
0000
,
0100
0000
0010
0000
,
1000
0000
0010
0000
,
0100
0000
0001
0000
,
1001
0000
0010
0000
,
0100
0000
0000
0000
,
0001
0000
1000
0000
,
0010
0000
0100
0000
,
0001
0000
1000
0000
,
0010
0000
0100
0000
,
0001
0000
0010
0000
,
0100
0000
1000
0000
,
0001
0000
0100
0000
,
0010
0000
1000
0000
,
0010
0000
0100
0000
,
1001
0000
0000
0000
,
1000
0000
0001
0000
,
0100
0000
0010
0000
,
1000
0001
1000
0000
,
0010
0010
0010
0000
,
1001
0000
0010
0000
,
0100
0100
0100
0000
,
0001
0000
1000
0000
,
0001
0000
0100
0000
,
0010
0000
0010
0000
,
1000
0000
1000
0000
,
0001
0000
0001
0000
,
0100
0000
0100
0000
,
0010
0000
0010
0000
,
1000
0000
0100
0000
,
0010
0000
0010
0000
,
1000
0000
0001
0000
,
1000
0000
1000
0000
,
1000
0000
0000
0000
,
0001
0000
0100
0000
,
0010
0000
1000
0000
,
0010
0000
0100
0000
,
0001
0000
0010
0000
,
0100
0000
1000
0000
,
0001
0000
0100
0000
,
0010
0000
0010
0000
,
1000
0000
0000
0000
,
0001
0000
1000
0000
,
0001
0000
0100
0000
,
0010
0000
0010
0000
,
1000
0000
0001
0000
,
0010
0000
0100
0000
,
1000
0000
0001
0000
,
1001
0000
0010
0000
,
0001
0000
0100
0000
,
0010
0000
0010
0000
,
1001
0000
0000
0000
,
0001
0000
1000
0000
,
0010
0000
0100
0000
,
0001
0000
0100
0000
,
0010
0000
1000
0000
,
0001
0000
0100
0000
,
0010
0000
1000
0000
,
0010
0000
0100
0000
,
0001
0000
1000
0000
,
0001
0000
0001
0000
,
1000
0000
0010
0000
,
0100
0000
0001
0000
,
0100
0000
0010
0000
,
1000
0000
0010
0000
,
0100
0000
0010
0000
,
1000
0000
0001
0000
,
0100
0000
0010
0000
,
2002
0000
0000
0000
,
0000
0000
0000
0000
,
0000
0000
0000
0000
,
3003
0000
0000
0000
;

//---------------dance-single - ----------------
#NOTES:
     dance-single:
     :
     Beginner:
     1:
     0.107,0.171,0.027,0.023,0.000,153.000,6.000,5.000,0.000,0.000:

0000
0000
0000
0000
,
0000
0000
0000
0000
,
0000
0000
0000
0000
,
0000
0000
0000
0000
,
0000
0000
0000
0000
,
1000
0000
0000
0000
,
0001
0000
0000
0000
,
0100
0000
0000
0000
,
0010
0000
0000
0000
,
1000
0000
0000
0000
,
0010
0000
0000
0000
,
0100
0000
0000
0000
,
0001
0000
0000
0000
,
1000
0000
0000
0000
,
0010
0000
0000
0000
,
0100
0000
0000
0000
,
0001
0000
0000
0000
,
1000
0000
0000
0000
,
1001
0000
0000
0000
,
1000
0000
0000
0000
,
0010
0000
0000
0000
,
0100
0000
0000
0000
,
0001
0000
0000
0000
,
1000
0000
0000
0000
,
0010
0000
0000
0000
,
0100
0000
0000
0000
,
0001
0000
0000
0000
,
1000
0000
0000
0000
,
0010
0000
0000
0000
,
0100
0000
0000
0000
,
0001
0000
0000
0000
,
1000
0000
0000
0000
,
0010
0000
0000
0000
,
0100
0000
0000
0000
,
0010
0000
0000
0000
,
0001
0000
0000
0000
,
1000
0000
0000
0000
,
0010
0000
0000
0000
,
0100
0000
0000
0000
,
0001
0000
0000
0000
,
1000
0000
0000
0000
,
0010
0000
0000
0000
,
0100
0000
0000
0000
,
0010
0000
0000
0000
,
1000
0000
0000
0000
,
0010
0000
0000
0000
,
0100
0000
0000
0000
,
0001
0000
0000
0000
,
1000
0000
0000
0000
,
0010
0000
0000
0000
,
0100
0000
0000
0000
,
0001
0000
0000
0000
,
1000
0000
0000
0000
,
0001
0000
0000
0000
,
2000
0000
3000
0000
,
0002
0000
0003
0000
,
0100
0000
0100
0000
,
0010
0000
0010
0000
,
1000
0000
0001
0000
,
0100
0000
0000
0000
,
0010
0000
0000
0000
,
1000
0000
0000
0000
,
1001
0000
0000
0000
,
0010
0000
0000
0000
,
1001
0000
0000
0000
,
0100
0000
0000
0000
,
0010
0000
0000
0000
,
0100
0000
0000
0000
,
1000
0000
0000
0000
,
0001
0000
0000
0000
,
0100
0000
0000
0000
,
0010
0000
0000
0000
,
0010
0000
0000
0000
,
0100
0000
0000
0000
,
0010
0000
0000
0000
,
1000
0000
0000
0000
,
0001
0000
0000
0000
,
0010
0000
0000
0000
,
1000
0000
0000
0000
,
0001
0000
0000
0000
,
0100
0000
0000
0000
,
0010
0000
0000
0000
,
1000
0000
0000
0000
,
0010
0000
0000
0000
,
0100
0000
0000
0000
,
1000
0000
0000
0000
,
0001
0000
0000
0000
,
0100
0000
0000
0000
,
0010
0000
0000
0000
,
0100
0000
0000
0000
,
0010
0000
0000
0000
,
1000
0000
0000
0000
,
0010
0000
0000
0000
,
0100
0000
0000
0000
,
0010
0000
0000
0000
,
0100
0000
0000
0000
,
0010
0000
0010
0000
,
1001
0000
0000
0000
,
2000
0000
3000
0000
,
0020
0000
0030
0000
,
0200
0000
0300
0000
,
0001
0000
0001
0000
,
1000
0000
0000
0000
,
0010
0000
0000
0000
,
0100
0000
0000
0000
,
0010
0000
0000
0000
,
1000
0000
0000
0000
,
1000
0000
0000
0000
,
0010
0000
0000
0000
,
0100
0000
0000
0000
,
0010
0000
0000
0000
,
0100
0000
0000
0000
,
0010
0000
0000
0000
,
0100
0000
0000
0000
,
0001
0000
1000
0000
,
0001
0000
0000
0000
,
0100
0000
0010
0000
,
0100
0000
0000
0000
,
0001
0000
0000
0000
,
1000
0000
0000
0000
,
0010
0000
0000
0000
,
0100
0000
0000
0000
,
0010
0000
0000
0000
,
1000
0000
0000
0000
,
0001
0000
0000
0000
,
0100
0000
0000
0000
,
0010
0000
0000
0000
,
0100
0000
0000
0000
,
0010
0000
0000
0000
,
0100
0000
0000
0000
,
0010
0000
0000
0000
,
1000
0000
0000
0000
,
0001
0000
0000
0000
,
1001
0000
0000
0000
,
0100
0000
0000
0000
,
0010
0000
0000
0000
,
1000
0000
0000
0000
,
0001
0000
0000
0000
,
0100
0000
0000
0000
,
0010
0000
0000
0000
,
1000
0000
0000
0000
,
0001
0000
0000
0000
,
0010
0000
0000
0000
,
0001
0000
0000
0000
,
0100
0000
0000
0000
,
0010
0000
0000
0000
,
1000
0000
0000
0000
,
0001
0000
0000
0000
,
0100
0000
0000
0000
,
0010
0000
0000
0000
,
1001
0000
0000
0000
;
