#TITLE:You;
#SUBTITLE:Higurashi no Naku Koro ni Insert song;
#ARTIST:Yuzuki remixed by DJ Orochi Kazuya;
#TITLETRANSLIT:;
#SUBTITLETRANSLIT:;
#ARTISTTRANSLIT:;
#CREDIT:Don;
#BANNER:You-bn.png;
#BACKGROUND:You-bg.png;
#LYRICSPATH:;
#CDTITLE:cdtitle.png;
#MUSIC:You.mp3;
#OFFSET:-3.876;
#SAMPLESTART:64.427;
#SAMPLELENGTH:12.000;
#SELECTABLE:YES;
#BPMS:0.000=99.090,6.000=99.094,7.000=99.090,19.000=99.094,20.000=99.090,44.000=99.094,45.000=99.090,69.000=99.094,70.000=99.090,72.000=99.086,73.000=99.090,93.000=99.094,94.000=99.090,142.000=99.094,143.000=99.090,150.000=99.086,151.000=99.090,190.000=99.094,191.000=99.090,287.000=99.094,288.000=99.090,307.000=99.086,308.000=99.094,309.000=99.086,310.000=99.094,311.000=99.086,312.000=99.094,313.000=99.086,314.000=99.094,315.000=99.086,316.000=99.094,317.000=99.086,318.000=99.094,319.000=99.086,320.000=99.094,321.000=99.086,322.000=99.094,323.000=99.086,324.000=99.094,325.000=99.086,326.000=99.094,327.000=99.086,328.000=99.094,329.000=99.086,330.000=99.094,331.000=99.086,332.000=99.094,333.000=99.086,334.000=99.094,335.000=99.086,336.000=99.094,337.000=99.086,338.000=99.094,339.000=99.086,340.000=99.094,341.000=99.086,342.000=99.094,343.000=99.086,344.000=99.094,345.000=99.086,346.000=99.094,347.000=99.086,348.000=99.094,349.000=99.086,350.000=99.094,351.000=99.086,352.000=99.094,353.000=99.086,354.000=99.094,355.000=99.086;
#STOPS:;
#BGCHANGES:;
// cache tags:
#FIRSTBEAT:0.000;
#LASTBEAT:340.000;
#SONGFILENAME:Songs/new cedric/[Don] You/You.sm;
#HASMUSIC:1;
#HASBANNER:1;
#MUSICLENGTH:220.029;
// end cache tags

//---------------dance-single - ----------------
#NOTES:
     dance-single:
     :
     Challenge:
     13:
     1.000,1.000,1.000,0.305,1.000,1350.000,685.000,67.000,0.000,35.000:
0010
0000
0000
0000
1001
0000
0000
0000
0010
0000
0000
0000
0101
0000
0010
0000
0010
0000
0000
0000
1001
0000
0000
0000
0011
0000
0000
0100
1010
0000
0010
0100
,
1000
0000
0000
0000
0110
0000
0000
0000
0010
0000
0010
0000
0101
0000
0000
0000
1000
0000
1000
0000
1010
0000
0000
0000
0001
0010
0100
0000
0110
0000
0100
0000
,
1011
0000
0000
0000
1001
0000
0000
0000
0100
0000
0000
0000
0011
0000
1000
0000
1000
0000
0000
0000
0101
0000
0000
0000
0001
0000
0000
0010
1100
0000
1000
0100
,
0010
0000
0000
0000
0110
0000
0000
0000
0001
0000
0000
0000
1010
0000
0100
0010
0100
0000
0100
0000
1001
0100
1000
0000
1000
0100
1000
0000
2020
0000
3030
0000
,
1001
0000
0010
0000
0101
0000
1000
0000
0001
0000
0100
0000
0011
0000
1000
0000
1000
0000
0100
0000
1010
0000
0001
0000
0010
0000
0000
0100
0011
0000
0001
0010
,
0100
0000
0010
0000
1001
0000
0100
0000
0010
0000
0010
0000
0011
0000
1000
0000
0010
0000
0010
0000
0101
0000
0100
0000
0010
1000
0010
0000
0010
0000
0010
0000
,
1011
0000
0100
0000
0011
0000
0100
0000
1000
0000
0001
0000
1100
0000
0010
0000
0010
0000
1000
0000
0101
0000
0010
0000
0100
0000
0000
0100
1010
0000
1000
0100
,
0010
0000
0100
0000
1001
0000
0010
0000
0100
0000
0010
0000
0101
0000
1000
0100
0011
0000
1100
0000
0001
0100
0011
0000
1100
0010
0100
0000
0022
0000
0033
0000
,
1001
0000
0100
0000
0011
0000
1000
0000
0100
0000
0010
0000
1100
0000
0001
0000
0100
0000
0010
0000
0101
0000
0010
0000
1100
0000
0000
0010
1001
0000
0001
0010
,
0100
0000
0010
0000
0101
0000
0001
0000
0100
0000
0100
0000
1001
0000
0010
0000
0001
0000
0001
0000
0001
0000
0100
0000
1000
0100
1000
0000
1000
0000
1000
0000
,
1011
0000
0100
0000
0011
0000
1000
0000
0100
0000
0010
0000
1100
0000
0001
0000
0001
0000
0010
0000
0101
0000
1000
0000
0010
0000
0000
0100
1010
0000
1000
0100
,
0010
0000
0100
0000
1001
0000
0010
0000
0100
0000
0010
0000
1100
0000
0001
0010
0001
0000
0001
0000
0001
0010
0001
0000
0001
0010
0001
0000
0220
0000
0330
0000
,
1001
0000
0010
0000
1100
0000
0010
0000
1000
0000
0100
0000
0011
0000
0100
0000
0100
0000
0001
0000
1010
0000
0100
0000
1000
0000
0000
0010
1100
0000
1000
0100
,
0010
0000
0100
0000
0011
0000
1000
0000
0010
0000
0010
0000
0101
0000
1000
0000
0100
0000
0100
0000
1010
0000
0010
0000
0100
0010
0100
0000
0100
0000
0100
0000
,
1101
0000
0010
0000
0101
0000
1000
0000
0010
0000
0100
0000
0011
0000
1000
0000
1000
0000
0010
0000
1100
0000
0001
0000
0010
0000
0000
0100
1010
0000
1000
0100
,
1011
0000
0100
0000
0011
0000
1000
0000
0010
0000
0100
0000
1010
0000
0100
1000
0111
0000
0100
0000
0100
0010
0100
0000
0100
0010
0100
0000
0202
0000
0303
0000
,
1101
0000
0010
0000
1100
0000
0001
0000
0100
0000
0010
0000
0101
0000
1000
0000
1000
0000
0010
0000
1001
0000
0100
0000
0010
0000
0000
0100
1010
0000
1000
0100
,
0010
0000
0100
0000
1001
0000
0010
0000
0100
0000
0100
0000
0011
0000
1000
0000
0010
0000
0010
0000
0101
0000
1000
0000
0010
1000
0010
0000
0010
0000
0010
0000
,
1110
0000
0001
0000
0110
0000
1000
0000
0100
0000
0010
0000
0101
0000
1000
0000
1000
0000
0100
0000
1010
0000
0001
0000
0010
0000
0000
0100
0011
0000
0001
0010
,
0100
0000
1000
0000
0101
0000
1000
0000
0010
0000
0100
0000
1010
0000
0100
0001
0100
0000
0100
0000
0100
0010
0100
0000
0100
0010
0100
0000
2020
0000
3030
0000
,
1110
0000
0001
0000
1010
0000
0100
0000
0010
0000
1000
0000
0110
0000
0001
0010
1101
0000
0001
0000
0001
0100
0001
0000
0001
0100
0001
0000
0220
0000
0330
0000
,
0111
0000
1000
0000
0110
0000
0001
0000
1000
0000
0010
0000
1100
0000
1000
0100
1011
0000
1000
0000
1000
0010
1000
0000
1000
0010
1000
0000
0220
0000
0330
0000
,
1011
0000
0100
0000
1010
0000
0001
0000
0100
0000
0010
0000
0101
0000
1000
0000
1101
0000
0010
0000
0101
0000
1000
0000
0100
0000
0010
0000
1100
0000
0001
0010
,
1101
0000
0010
0000
0101
0000
1000
0000
0100
0000
0010
0000
1001
0000
0100
1000
0111
0000
0100
0000
0100
0001
0100
0000
0010
1000
0010
0000
0220
0000
0330
0000
,
1001
0000
0000
0000
,
1000
0100
0010
0000
0001
0010
0100
0000
,
0010
0100
0001
0000
0100
0010
1000
0000
,
1000
0100
0010
0000
0001
0010
0100
0000
,
0010
0100
0001
0000
0100
0010
1000
0000
,
1001
0001
0001
0001
0011
0110
1100
1100
0101
0100
0110
0010
1010
0011
0110
0100
,
0101
0001
0001
0011
1010
1100
0110
0010
1010
1000
1001
0001
0101
0100
0100
0100
,
0110
0010
0110
0010
0011
0110
1100
1000
1001
0001
0001
0001
0101
1100
0110
0010
,
0011
0010
0010
0010
0110
1100
0110
0100
1010
0100
0100
0010
0001
0001
0100
1000
,
1001
1000
1000
1000
1100
0110
0011
0001
0101
0100
0110
0010
1010
1100
0101
0001
,
0011
0010
0010
0010
0110
0101
1100
1000
1010
0010
0110
0100
0101
0001
0001
0001
,
1001
1000
1000
1000
1010
0110
0011
0010
0110
0100
0110
0100
0101
1100
0110
0010
,
0010
0000
1010
0000
1000
0000
1000
0000
1001
0000
0101
0000
0011
0000
0010
0000
0110
0000
0100
0000
0100
0100
0100
0100
0100
0100
0100
0100
0100
0100
0100
0100
,
1001
0000
0000
0000
0101
0000
0000
0000
0110
0000
0000
0000
1100
0000
1100
0000
1100
0000
0000
0000
0110
0000
0000
0000
0011
0000
0000
1010
0101
0000
0101
1010
,
0101
0000
0000
0000
0110
0000
0000
0000
0011
0000
0110
0000
1100
0000
0000
0000
1010
0000
1010
0000
1010
0000
0000
0000
1001
0110
1001
0000
1001
0000
1001
0000
,
1011
0000
0000
0000
0110
0000
0000
0000
0101
0000
0000
0000
0011
0000
0011
0000
0011
0000
0000
0000
0110
0000
0000
0000
1010
0000
0000
0110
1001
0000
1001
0110
,
1001
0000
0000
0000
1010
0000
0000
0000
0110
0000
0000
0000
0101
0000
1100
0011
1100
0000
1100
0000
1100
0011
1100
0000
0011
1100
0011
0000
0220
0000
0330
0000
,
1101
0000
0010
0000
0101
0000
1000
0000
0110
0000
0001
0000
1010
0000
1010
0000
1010
0000
0100
0000
1001
0000
0010
0000
0101
0000
0000
1100
0011
0000
0011
1100
,
0011
0000
0010
0000
0101
0000
0010
0000
1001
0000
1001
0000
1001
0000
0010
0000
1100
0000
1100
0000
1100
0000
0000
0000
1010
0101
1010
0000
1010
0000
1010
0000
,
1011
0000
0100
0000
0101
0000
0010
0000
1010
0000
0001
0000
0110
0000
0110
0000
0110
0000
0100
0000
1010
0000
0001
0000
1100
0000
0000
1001
0110
0000
0110
1001
,
0110
0000
1000
0000
0101
0000
0001
0000
1010
0000
1000
0000
0110
0000
0110
1001
0110
0000
0110
0000
0011
1100
0011
0000
1100
0011
1100
0000
0220
0000
0330
0000
,
1101
0000
0100
0000
0000
0000
0010
0000
0010
0000
1000
0000
0000
0000
1000
0100
,
0001
0010
0001
0100
0001
0010
0100
1000
,
1001
0100
1000
0100
0010
0100
0001
0010
0100
1000
0100
0010
0001
0010
0100
0010
1000
0001
1000
0010
1000
0001
0100
0001
1000
0100
0010
0001
0010
0100
0010
1000
,
0011
1000
0010
0100
0001
0100
1000
0100
0010
0001
1000
0010
0001
0100
0010
1000
0001
0010
0100
1000
0001
1000
0001
1000
0001
1000
0001
1000
0001
1000
0001
1000
,
0101
0000
0000
0000
1001
0000
0000
0000
0010
0000
0100
0000
1001
0000
1001
0000
0110
0000
0000
0000
1010
0000
0000
0000
1001
0000
0100
0011
1100
0000
1100
0011
,
1100
0000
0000
0000
1001
0000
0000
0000
0101
0000
0101
0000
1010
0000
0000
0000
1100
0000
1100
0000
0011
0000
0000
0000
1001
0110
1001
0000
0110
0000
0010
0000
,
1101
0000
0000
0000
1010
0000
0000
0000
0110
0000
0001
0000
1100
0000
1100
0000
1001
0000
0000
0000
0110
0000
0000
0000
0101
0000
0010
0101
1010
0000
1010
0101
,
1010
0000
0000
0000
1001
0000
0000
0000
0110
0000
1000
0000
0011
0000
1100
0011
1100
0000
1100
0000
1100
0011
1100
0000
1100
0011
1100
0000
0220
0000
0330
0000
,
1011
0000
0000
0000
0110
0000
0000
0000
0101
0000
0010
0000
1100
0000
0011
0000
0011
0000
0000
0000
1010
0000
0000
0000
0110
0000
0100
1001
0110
0000
0110
1001
,
0110
0000
0000
0000
0101
0000
0000
0000
1100
0000
0011
0000
1100
0000
0000
0000
1001
0000
1001
0000
0101
0000
0000
0000
1100
0011
1100
0000
1001
0000
1001
0000
,
1011
0000
0000
0000
0110
0000
0000
0000
0101
0000
0010
0000
1100
0000
1100
0000
1010
0000
0000
0000
0011
0000
0000
0000
0110
0000
0010
1001
0110
0000
0110
1001
,
0110
0000
0000
0000
1010
0000
0000
0000
1100
0000
0001
0000
0110
0000
1000
0100
1001
0000
1001
0000
1001
0110
1001
0000
1001
0110
1001
0000
0220
0000
0330
0000
,
2110
3000
0001
0000
0210
0300
1000
0000
0021
0030
0100
0000
1010
0000
1010
0000
1002
0003
0100
0000
1020
0030
0001
0000
1200
0300
0000
1001
0110
0000
1001
0110
,
1002
0003
0010
0000
0201
0300
1000
0000
0120
0030
1001
0000
1001
0000
0010
0000
0101
0000
0101
0000
1100
0000
0010
0000
0110
1001
0110
0000
1001
0000
1001
0000
,
2101
3000
0010
0000
0201
0300
1000
0000
0120
0030
0001
0000
0110
0000
0110
0000
0102
0003
1000
0000
0120
0030
0001
0000
1200
0300
0000
0011
1100
0000
1100
0011
,
1200
0300
0001
0000
0120
0030
0001
0000
2010
3000
0100
0000
0011
0000
1001
0110
1001
0000
1001
0000
1001
0110
1001
0000
1001
0110
1001
0000
0220
0000
0330
0000
,
0112
0003
1000
0000
0120
0030
0001
0000
1200
0300
0010
0000
0101
0000
1100
0000
2100
3000
0010
0000
0201
0300
1000
0000
0120
0030
0000
0110
1001
0000
0110
1001
,
0120
0030
1000
0000
0201
0300
0010
0000
1002
0003
1001
0000
0110
0000
1000
0000
0201
0300
0101
0000
0120
0030
0000
0000
1100
0011
1100
0000
0110
0000
0110
0000
,
2101
3000
0010
0000
0201
0300
1000
0000
0120
0030
0001
0000
1010
0000
1010
0000
1002
0003
0100
0000
1020
0030
0001
0000
1200
0300
0000
0101
1010
0000
1010
0001
,
0010
0000
1000
0100
0001
0000
0001
0010
0100
0000
1000
0100
0010
0000
0001
1000
0100
0000
1000
0001
0010
0000
0100
0010
1000
0000
0010
0001
0100
0000
0100
0010
,
1001
0000
0100
0000
1010
0000
0001
0000
0110
0000
1100
0000
0101
0000
0101
0000
0011
0000
0100
0000
1010
0000
0001
0000
0110
0000
1100
0010
0101
0000
0101
0010
,
1001
0000
0100
0000
1010
0000
0110
0000
0011
0000
1010
0000
1100
0000
0000
0000
0101
0000
0001
0000
1001
0000
0000
0000
0101
0010
0101
0000
1001
0000
1001
0000
,
1011
0000
0100
0000
1010
0000
0001
0000
0110
0000
0101
0000
1100
0000
1100
0000
1010
0000
0100
0000
0011
0000
0100
0000
1001
0000
1010
0100
1010
0000
0101
0010
,
0101
0000
1000
0000
1001
0000
0010
0000
0101
0000
0110
0000
0011
0000
1010
0101
1010
0000
1010
0000
1001
0110
1001
0000
1001
0110
1001
0000
0220
0000
0330
0000
,
1110
0000
0001
0000
0110
0000
1000
0000
0101
0000
1100
0000
0110
0000
0110
0000
1001
0000
0010
0000
0101
0000
1000
0000
0011
0000
0110
0000
0101
0010
0101
0000
,
1010
0100
1010
0000
0101
0000
0010
0000
1100
0000
0110
0000
0011
0000
0000
0000
1010
0000
1000
0000
1001
0000
0000
0000
1001
0110
1001
0000
1001
0000
1001
0000
,
1101
0000
0010
0000
0101
0000
1000
0000
0011
0000
0110
0000
1100
0000
1100
0000
1010
0000
0100
0000
1001
0000
0010
0000
1100
0000
0101
0010
0101
0000
1010
0100
,
1010
0000
0100
0000
1001
0000
0010
0000
0101
0000
0011
0000
0101
0000
1100
0011
1100
0000
1100
0000
0011
1100
0011
0000
1100
0011
1100
0000
0220
0000
0330
0000
,
1001
0000
0000
0000
1001
0000
0000
0000
1001
0000
0000
0000
1010
0000
1010
0000
0110
0000
0000
0000
0110
0000
0000
0000
0110
0000
0000
1010
0101
0000
0011
0000
,
0101
0000
0000
0000
0110
0000
0000
0000
1010
0000
1010
0000
1001
0000
0000
0000
0110
0000
1001
0000
0110
0000
0000
0000
1001
0110
1001
0000
1001
0000
1001
0000
,
1011
0000
0000
0000
0110
0000
0000
0000
0110
0000
0000
0000
0110
0000
0110
0000
1100
0000
0000
0000
1100
0000
0000
0000
1100
0000
0000
1010
0101
0000
0101
1010
,
0101
0000
0000
0000
0110
0000
0000
0000
0110
0000
0000
0000
0011
0000
0011
1100
0011
0000
0011
0000
1100
0011
1100
0000
0011
1100
0011
0000
0220
0000
0330
0000
,
1101
0000
0000
0000
0110
0000
0000
0000
0110
0000
0000
0000
0101
0000
0101
0000
0011
0000
0000
0000
0110
0000
0000
0000
1100
0000
0110
1001
0000
0000
1001
0110
,
1001
0000
0000
0000
1010
0000
0000
0000
0101
0000
0101
0000
0110
0000
0000
0000
1001
0000
1001
0000
1001
0000
0000
0000
0110
1001
0110
0000
1001
0000
1001
0000
,
1101
0000
0000
0000
0110
0000
0000
0000
1100
0000
0000
0000
0110
0000
0110
0000
1101
0000
0000
0000
1010
0000
0000
0000
0110
0000
0000
0011
1100
0000
1100
0011
,
1100
0000
0001
0010
0100
0000
1000
0100
0010
0000
0001
0100
0010
0000
0100
0010
1000
0000
0010
0001
1000
0000
0100
1000
0001
0000
1000
0100
0011
0000
0000
0000
,
1100
1000
1001
0001
0001
0001
0101
0100
0110
0010
0110
0100
0100
0100
0110
1010
,
0011
0001
0101
0100
1100
1000
1100
0100
0110
0010
1010
1000
1010
0010
0110
0100
,
0010
0100
0010
1000
0100
0010
0001
0010
0100
0001
1000
0100
0010
0001
0010
0100
0010
1000
0010
0100
0010
1000
0001
0100
0010
0001
0010
0100
1000
0010
0100
0010
,
1000
0001
0010
0100
0010
1000
0100
1000
0001
0100
0010
0001
1000
0010
0001
0100
1001
0000
0000
0000
1001
0000
0000
0000
1001
0110
1001
0000
1001
0000
1001
0000
,
1011
0000
0000
0000
,
0000
0000
0000
0000
,
0000
0000
0000
0000
,
0000
0000
0000
0000
,
0000
0000
0000
0000
;
