#TITLE:Shooting Star;
#SUBTITLE:;
#ARTIST:Owl City;
#TITLETRANSLIT:;
#SUBTITLETRANSLIT:;
#ARTISTTRANSLIT:;
#CREDIT:Owem;
#BANNER:../banner.png;
#BACKGROUND:../bg.png;
#LYRICSPATH:;
#CDTITLE:../cdtitleowem.png;
#MUSIC:Owl City - Shooting Star.ogg;
#OFFSET:-0.146;
#SAMPLESTART:79.014;
#SAMPLELENGTH:29.999;
#SELECTABLE:YES;
#BPMS:0.000=123.998;
#STOPS:;
#BGCHANGES:;
// cache tags:
#FIRSTBEAT:2.000;
#LASTBEAT:495.750;
#SONGFILENAME:Songs/Owem's Simfiles 08 - 1.2/Shooting Star - [Braeden & Owem]/Shooting Star.sm;
#HASMUSIC:1;
#HASBANNER:1;
#MUSICLENGTH:246.230;
// end cache tags

//---------------dance-single - 8/16-8/8 (24ths)----------------
#NOTES:
     dance-single:
     8/16-8/8 (24ths):
     Hard:
     14:
     1.000,1.000,0.102,1.000,1.000,1542.000,25.000,258.000,16.000,0.000:
0000
0000
0000
0000
0000
0000
0000
0000
1000
0000
0200
0000
0310
0002
0000
1003
,
0020
0000
0130
0002
0000
1003
0200
0000
0310
0002
0000
1003
0020
0000
0130
0002
,
0000
1003
0200
0000
0310
0002
0000
1003
00M2
0000
0203
0000
0310
2000
0000
3010
,
0200
0000
0301
2000
0000
3100
2000
0000
3010
0200
0000
0301
2000
0000
3001
0020
,
0000
0230
1300
0001
1000
0010
1000
0001
02M0
0000
0320
0000
1030
0002
0000
0013
,
0200
0000
1300
0002
0000
1003
0020
0000
0130
0002
0000
1003
0200
0000
0310
0002
,
0000
1003
0020
0000
0230
0301
1000
0001
0020
0000
0032
0000
1003
0020
0000
0130
,
0020
0000
1030
0002
0000
0013
0200
0000
1300
0001
2000
0000
3010
0100
0002
0000
,
1003
0010
0200
0000
0302
0000
0000
0000
1003
0000
0100
0000
0000
0010
0000
0000
,
0002
0000
0000
2000
0003
0000
3020
0000
0100
0000
0030
0000
0100
0000
0001
0000
,
2000
0000
0000
3200
0000
0000
0320
0000
0031
0000
2000
0000
3000
0020
0030
0000
,
0200
0000
0000
0001
0300
0000
2002
0000
0000
3003
0000
0000
1000
0000
0100
0000
,
0010
0000
0000
0001
0000
0000
2000
0000
3010
0000
0100
0000
0000
0001
0000
0000
,
2000
0000
3000
0010
0000
0000
0220
0000
0000
0330
0000
0000
0100
0000
0001
0000
,
2000
0000
3010
0100
0001
0000
2000
0000
0010
0000
3000
0000
0010
0000
0100
0000
,
0001
0000
0000
1000
0000
0000
1020
0000
1000
0000
0000
0000
1000
0030
0010
0000
,
0100
0000
0001
1000
0000
0010
1000
0000
M001
0000
0100
0000
0000
0010
0000
0000
,
0100
0000
0000
0001
0000
0000
2001
0000
0000
0000
3000
0000
0010
0000
0100
0000
,
0001
0000
0000
1000
0000
0000
0200
0000
0310
0000
0001
0000
1000
0000
0001
0000
,
0200
0000
0000
0320
0000
0000
2030
0000
0001
3000
0000
0000
0001
0000
0010
0000
,
0100
0000
0000
1000
0000
0000
2010
0000
3010
0000
0200
0000
0000
0302
0000
0003
,
0200
0000
0000
0020
0300
0000
2030
0000
0001
0000
0000
3000
0001
0000
0010
0000
,
0200
0000
1300
0010
0100
0000
0002
0000
1003
0000
0100
0000
1000
0000
0010
0000
,
0100
0000
0001
0000
1000
0000
0001
0000
0010
0100
1000
0001
0100
0010
1000
0100
,
1000
0001
0100
0010
1000
0000
0020
0000
0030
0000
0200
0000
0300
0000
0002
0000
,
0000
0003
1000
0000
0100
0000
0020
0000
0030
0000
0002
0000
0000
0003
2000
0000
,
0000
3000
0010
0000
0100
0000
0020
0000
0030
0000
2000
0000
0000
3000
0002
0000
,
0000
0000
0203
0320
0000
0030
0000
0000
,
2000
3200
0320
0032
2003
0000
0000
3020
,
0000
0030
0200
0000
0301
0000
0001
1000
,
0020
0230
0320
2030
3002
0000
0000
0023
,
0000
0230
1000
1300
,
1000
0020
0230
0302
1003
0200
1300
0020
,
0130
0002
2003
3002
0013
0002
0103
0020
,
1030
0002
0203
0302
1003
0020
1030
0200
,
0310
0001
2000
3200
1300
0010
0100
0001
,
2000
3200
2300
3002
0043
0031
0100
0040
,
1030
0010
0400
0301
1000
0100
1000
0001
,
2000
3200
0320
0032
4003
3010
0100
0040
,
1030
0000
0001
0000
0400
0000
0301
0000
0010
0100
1000
0001
1000
0010
0100
0001
,
1000
0000
0000
0100
0000
0000
1000
0000
0000
0001
0000
0000
0200
0000
0000
0000
0000
0000
0320
0000
0000
0000
0000
0000
1030
0000
0001
0000
0100
0000
0010
0000
1000
0000
0010
0000
0100
0000
0001
0000
1000
0000
0100
0000
1000
0000
0001
0000
,
0010
0100
1000
0001
1000
0100
1000
0001
0100
0010
1000
0100
1000
0001
0100
0010
1000
0001
0100
0010
0100
0001
1000
0010
,
1000
0001
0100
0010
1000
0001
0010
0100
1000
0001
1000
0100
0010
0001
1000
0100
1000
0001
0100
0010
1000
0001
0100
0001
,
1000
0100
1000
0001
0010
0100
1000
0001
1000
0010
0100
0001
1000
0100
0010
0100
1000
0001
0010
0001
1000
0100
1000
0001
,
0100
0010
1000
0001
0100
0001
1000
0100
0010
0100
1000
0001
0010
0001
0100
0010
1000
0100
1000
0001
1000
0100
0010
0001
,
1000
0100
1000
0001
0100
0010
1000
0100
1000
0001
0010
0001
0100
0010
1000
0001
1000
0100
0010
0100
1000
0001
0100
0001
,
1000
0010
0100
0001
0100
0010
1000
0100
0010
0001
1000
0001
0100
0010
1000
0100
1000
0001
0010
0001
0100
0010
1000
0100
,
1000
0001
0100
0010
1000
0001
0010
0100
1000
0001
1000
0100
0010
0001
1000
0100
1000
0001
0100
0010
1000
0001
0010
0001
,
0100
0000
0010
0000
1000
0000
0001
0000
1000
0000
0100
0000
0010
0000
0001
0000
1000
0000
0010
0000
0100
0000
0001
0000
1000
0000
0000
0000
0000
0000
0001
0000
0000
0000
0000
0000
0000
0000
0000
0100
0000
0000
0000
0000
0000
0000
0000
0000
,
0010
0000
0000
0100
0000
0000
0002
0000
1000
0000
0003
0000
1000
0000
0010
0000
,
0200
0000
0000
0301
0000
0000
2000
0000
0010
3000
0100
0000
0010
0000
1000
0000
,
0002
0000
0003
0100
0000
0000
0020
0000
1030
0001
0000
0100
0001
0000
0020
0130
,
2000
0000
3000
0001
0000
0000
0200
0000
0310
0000
1000
0000
0000
0001
0000
0000
,
2000
0000
0000
3020
0000
0000
0230
0000
0001
0000
0300
0000
0001
0000
1000
0000
,
0020
0000
0130
0001
2000
0000
3002
0000
0103
0000
0010
0000
1000
0001
1000
0000
,
0100
0000
0000
0010
0000
0000
0002
0000
1000
0000
0000
0000
1003
0000
0040
0000
,
0130
0004
0000
1003
0040
0000
0230
0000
0301
0000
2000
0000
3000
0100
0000
0000
,
0020
0000
0000
0032
0000
0000
2003
0000
0010
0000
0000
3000
0010
0000
0100
0000
,
0002
0000
0003
2000
0000
3000
0020
0000
0100
0030
00M1
0000
1000
0000
0001
0000
,
0020
0000
0130
2000
0000
3000
0002
0000
0100
0000
0003
0000
0100
0000
0010
0000
,
0100
0000
0000
0001
0000
0000
2000
0000
0100
3000
0020
0000
0031
0000
1000
0000
,
0020
0000
0130
0001
1000
0000
0200
0000
0010
0000
0000
0300
2000
0000
3001
0000
,
0200
0000
0310
0000
1000
0001
0000
0200
0301
0000
1000
0000
0100
0000
0020
0000
,
0032
0000
1003
0020
0130
0000
0002
0000
1003
0100
1000
0010
0100
0001
0010
0001
,
1000
0000
0000
0010
0000
0000
0100
0000
0000
0001
0000
0000
2000
0000
0000
0000
0000
0000
3020
0000
0000
0000
0000
0000
0130
0000
0001
0000
1000
0000
0100
0000
1000
0000
0001
0000
0100
0000
0010
0000
1000
0000
0100
0000
0010
0000
0100
0000
,
1000
0001
0100
0001
1000
0010
0100
0001
1000
0100
1000
0001
0010
0100
1000
0001
0010
0001
0100
0010
1000
0100
1000
0001
,
0100
0010
1000
0100
1000
0001
0100
0010
1000
0001
1000
0100
0010
0001
1000
0100
1000
0001
0100
0010
1000
0100
1000
0001
,
0100
0010
0100
0001
1000
0010
1000
0100
0010
0001
1000
0100
1000
0001
0100
0010
0100
0001
1000
0100
0010
0100
1000
0001
,
0100
0001
0010
0100
1000
0001
1000
0100
0010
0100
1000
0001
1000
0010
0100
0001
1000
0100
1000
0001
0100
0010
1000
0001
,
0100
0010
0100
0001
1000
0010
1000
0100
0010
0001
1000
0100
1000
0001
0100
0010
1000
0001
0010
0001
0100
0010
1000
0010
,
0100
0001
1000
0100
1000
0010
0100
0001
1000
0001
0010
0100
1000
0001
0010
0001
1000
0100
0010
0001
1000
0010
0100
0001
,
1000
0001
0100
0010
1000
0100
1000
0001
0010
0001
1000
0100
0010
0100
1000
0001
0100
0001
1000
0010
0100
0001
1000
0100
,
1000
0001
0100
0010
1000
0001
0010
0001
0100
0010
1000
0100
1000
0001
1000
0100
0010
0001
1000
0100
1000
0001
0100
0010
,
1000
0001
1000
0010
0100
0001
0010
0001
1000
0100
1000
0001
0100
0001
1000
0100
0010
0001
1000
0001
0100
0010
0100
0001
,
1000
0010
1000
0001
0100
0001
1000
0100
0010
0100
1000
0001
0010
0001
1000
0100
0010
0100
1000
0001
0010
0001
0100
0001
,
1000
0010
0100
0001
1000
0100
1000
0001
0010
0100
1000
0001
0010
0001
0100
0010
1000
0001
1000
0100
0010
0001
1000
0100
,
1000
0001
0100
0001
1000
0010
0100
0001
1000
0100
1000
0001
0100
0001
1000
0010
0100
0001
1000
0001
0010
0100
1000
0001
,
0010
0001
1000
0100
0010
0100
1000
0001
1000
0010
0100
0001
1000
0100
1000
0001
0100
0001
1000
0010
0100
0001
1000
0001
,
0010
0100
1000
0001
0100
0010
1000
0001
0010
0001
1000
0100
1000
0001
0100
0010
1000
0001
0010
0001
1000
0100
0010
0100
,
1000
0001
1000
0010
0100
0001
1000
0001
1000
0100
0010
0001
1000
0100
1000
0001
0010
0001
1000
0010
0100
0001
1000
0001
,
0010
0100
1000
0001
1000
0010
0200
0000
0000
0320
0000
0000
0130
0001
1000
0010
1000
0100
0010
0001
1000
0100
1000
0001
,
0100
0010
1000
0001
0010
0001
1000
0100
0010
0100
1000
0001
0100
0001
1000
0010
0100
0001
1000
0100
1000
0001
0010
0001
,
1000
0100
1000
0001
0100
0010
1000
0001
0100
0001
1000
0010
1000
0100
0010
0001
1000
0001
0100
0001
0010
0100
1000
0001
,
0010
0001
1000
0100
1000
0001
0100
0010
1000
0001
0010
0001
1000
0100
0010
0100
1000
0001
0010
0001
0100
0010
1000
0001
,
0100
0001
1000
0100
0010
0100
1000
0001
0100
0001
1000
0010
0100
0001
1000
0010
1000
0001
0100
0010
1000
0100
1000
0001
,
0100
0001
1000
0100
0010
0100
1000
0001
1000
0001
0100
0010
1000
0001
0010
0001
0100
0010
1000
0100
1000
0001
0100
0001
,
1000
0100
0010
0100
1000
0001
0010
0001
0100
0010
1000
0001
1000
0100
0010
0001
1000
0010
1000
0001
0100
0010
0100
0001
,
1000
0010
1000
0100
0010
0001
1000
0100
1000
0001
0100
0010
1000
0001
0010
0001
0100
0010
1000
0001
1000
0100
0010
0100
,
1000
0001
0100
0001
1000
0010
0100
0001
1000
0100
0010
0001
1000
0000
0000
0010
0000
0000
1000
0000
0000
0001
0000
0000
,
0200
0000
0300
0002
0000
0003
2000
0000
3010
0000
0200
0000
0301
0000
2000
0000
,
3001
0000
0200
0000
0310
0000
0200
0000
0001
0300
0001
0000
1000
0010
0100
0000
,
0002
0000
0003
2000
0000
3000
0020
0000
0130
0000
0002
0000
0000
2003
0000
3000
,
0020
0000
0000
0200
0030
0000
0302
0000
1000
0003
0001
0000
0100
0000
0020
0000
,
2030
0000
3000
0002
0000
0000
0203
0000
0300
0020
0000
0030
0200
0000
0000
0302
,
0000
0000
1003
0000
0020
0000
0230
0000
0301
0000
1000
000M
0010
0100
0001
0000
,
0200
0000
0000
0320
0000
0030
2000
0000
0002
3000
0000
0000
0100
0000
0000
0003
,
1020
0000
0000
0000
0100
0000
0000
0030
0201
0000
0000
0300
1002
0000
0000
0003
,
2100
0000
0000
0000
0000
0000
0000
0000
0000
0000
0000
0000
0000
0000
0000
0000
0000
0000
0000
0000
0000
0000
0000
0000
0000
0000
0000
0000
0000
0000
0000
0000
0000
0000
0000
0000
3000
0000
0000
0000
0000
0000
0000
0000
0000
0000
0000
0000
0210
0000
0000
0000
0000
0000
0000
0000
0000
0000
0000
0000
0000
0000
0000
0000
0000
0000
0000
0000
0000
0000
0000
0000
0000
0000
0000
0000
0000
0000
0000
0000
0000
0000
0000
0000
0300
0000
0000
0000
0000
0000
0000
0000
0000
0000
0000
0000
0020
0000
0000
0000
0000
0000
0000
0000
0000
0000
0000
0000
0030
0000
0000
0000
0000
0000
0000
0000
0000
0000
0000
0000
0002
0000
0000
0000
0000
0000
0000
0000
0003
0000
0000
0000
0000
0000
0000
0000
0000
0000
0000
0000
0000
0000
0000
0000
0020
0000
0000
0000
0000
0000
0030
0000
0000
0000
0000
0000
0000
0000
0000
0000
0000
0000
0000
0000
0000
0000
0000
0000
0200
0000
0000
0000
0300
0000
0000
0000
0000
0000
0000
0000
0000
0000
0000
0000
0000
0000
0000
0000
0000
0000
0000
0000
,
2000
3000
0000
0000
0000
0000
0000
0000
0020
0000
0000
0000
0000
0000
0000
0000
0230
0000
0000
0000
0000
0000
0000
0000
0302
0000
0000
0000
0000
0000
0000
0000
0003
0000
0000
0000
0000
0000
0000
0000
2000
0000
0000
0000
0000
0000
0000
0000
3000
0000
0000
0000
0000
0000
0000
0000
0002
0000
0000
0000
0000
0000
0000
0000
,
0000
0003
1000
0000
0100
0000
0020
0000
0030
0000
0002
0000
0000
0003
2000
0000
,
0000
3000
0010
0000
0100
0000
0020
0000
0030
0000
2000
0000
0000
3000
0002
0000
,
0000
0000
2003
3200
0000
0300
0000
0000
,
0020
0230
0320
0032
2003
0000
0000
3020
,
0000
0030
2000
0000
3100
0000
0100
1000
,
0002
0023
0230
2300
3002
0000
0000
0023
,
0000
0230
1000
1300
,
1000
0020
0230
0302
1003
0200
1300
0020
,
0130
0002
2003
3002
0013
0200
1300
0020
,
1030
0002
0203
0302
1003
0020
1030
0200
,
0310
0001
2000
3200
1300
0010
0100
0001
,
2000
3200
2300
3002
0043
0031
0100
0040
,
1030
0010
0400
0301
1000
0100
1000
0001
,
2000
3200
0320
0032
4003
3010
0100
0040
,
1030
0000
0001
0000
0400
0000
0301
0000
0010
0100
1000
0001
1000
0010
0100
0001
,
1000
0000
0000
0100
0000
0000
1000
0000
0000
0001
0000
0000
0200
0000
0000
0000
0000
0000
0320
0000
0000
0000
0000
0000
1030
0000
0100
0000
1000
0000
0001
0000
0100
0000
0010
0000
0100
0000
0001
0000
1000
0000
0100
0000
1000
0000
0001
0000
,
0010
0100
1000
0001
1000
0100
1000
0001
0100
0010
1000
0100
1000
0001
0100
0010
1000
0001
0100
0010
0100
0001
1000
0010
,
1000
0001
0100
0010
1000
0001
0010
0100
1000
0001
1000
0100
0010
0001
1000
0100
1000
0001
0100
0010
1000
0001
0100
0001
,
1000
0100
1000
0001
0010
0100
1000
0001
1000
0010
0100
0001
1000
0100
0010
0100
1000
0001
0010
0001
1000
0100
1000
0001
,
0100
0010
1000
0001
0100
0001
1000
0100
0010
0100
1000
0001
0010
0001
0100
0010
1000
0100
1000
0001
1000
0100
0010
0001
,
1000
0100
1000
0001
0100
0010
1000
0100
1000
0001
0010
0001
0100
0010
1000
0001
1000
0100
0010
0100
1000
0001
0100
0001
,
1000
0010
0100
0001
0100
0010
1000
0100
0010
0001
1000
0001
0100
0010
1000
0100
1000
0001
0010
0001
0100
0010
1000
0100
,
1000
0001
0100
0010
1000
0001
0010
0100
1000
0001
1000
0100
0010
0001
1000
0100
1000
0001
0100
0010
1000
0001
0010
0001
,
0100
0000
0000
0000
0000
0000
0000
0000
0010
0000
0000
0000
0000
0000
0000
0000
1000
0000
0000
0000
0000
0000
0000
0000
0001
0000
0000
0000
0000
0000
0000
0000
1000
0000
0000
0000
0000
0000
0000
0000
0100
0000
0000
0000
0000
0000
0000
0000
0010
0000
0000
0000
0000
0000
0000
0000
0001
0000
0000
0000
0000
0000
0000
0000
1000
0000
0000
0000
0000
0000
0000
0000
0010
0000
0000
0000
0000
0000
0000
0000
1000
0000
0000
0000
0000
0000
0000
0000
0001
0000
0000
0000
0000
0000
0000
0000
0200
0000
0000
0000
0000
0000
0000
0000
0000
0000
0000
0000
0000
0000
0000
0000
0000
0000
0000
0000
0000
0000
0000
0000
0000
0000
0000
0000
0000
0000
0000
0000
0300
0000
0000
0000
0000
0000
0000
0000
0000
0000
0000
0000
0000
0000
0000
0000
0000
0000
0000
0000
0000
0000
0000
0000
0000
0000
0000
0000
0000
0000
0000
0000
0000
0000
0000
0000
0000
0000
0000
0000
0000
0000
0000
0000
0000
0000
0000
0000
0000
0000
0000
0000
000M
0000
0000
0000
0000
0000
000M
0000
0000
0000
0000
0000
,
000M
000M
000M
000M
000M
000M
000M
0000
0000
0000
0000
0000
0000
0000
0M00
0000
0000
0000
0000
0000
0000
0000
0000
0000
0000
0000
0000
0000
0000
0000
00M0
0000
;

//---------------dance-single - 8/16-8/8 (32nds)----------------
#NOTES:
     dance-single:
     8/16-8/8 (32nds):
     Challenge:
     21:
     1.000,1.000,0.102,1.000,1.000,1860.000,25.000,258.000,16.000,0.000:
0000
0000
0000
0000
0000
0000
0000
0000
1000
0000
0200
0000
0310
0002
0000
1003
,
0020
0000
0130
0002
0000
1003
0200
0000
0310
0002
0000
1003
0020
0000
0130
0002
,
0000
1003
0200
0000
0310
0002
0000
1003
00M2
0000
0203
0000
0310
2000
0000
3010
,
0200
0000
0301
2000
0000
3100
2000
0000
3010
0200
0000
0301
2000
0000
3001
0020
,
0000
0230
1300
0001
1000
0010
1000
0001
02M0
0000
0320
0000
1030
0002
0000
0013
,
0200
0000
1300
0002
0000
1003
0020
0000
0130
0002
0000
1003
0200
0000
0310
0002
,
0000
1003
0020
0000
0230
0301
1000
0001
0020
0000
0032
0000
1003
0020
0000
0130
,
0020
0000
1030
0002
0000
0013
0200
0000
1300
0001
2000
0000
3010
0100
0002
0000
,
1003
0010
0200
0000
0302
0000
0000
0000
1003
0000
0100
0000
0000
0010
0000
0000
,
0002
0000
0000
2000
0003
0000
3020
0000
0100
0000
0030
0000
0100
0000
0001
0000
,
2000
0000
0000
3200
0000
0000
0320
0000
0031
0000
2000
0000
3000
0020
0030
0000
,
0200
0000
0000
0001
0300
0000
2002
0000
0000
3003
0000
0000
1000
0000
0100
0000
,
0010
0000
0000
0001
0000
0000
2000
0000
3010
0000
0100
0000
0000
0001
0000
0000
,
2000
0000
3000
0010
0000
0000
0220
0000
0000
0330
0000
0000
0100
0000
0001
0000
,
2000
0000
3010
0100
0001
0000
2000
0000
0010
0000
3000
0000
0010
0000
0100
0000
,
0001
0000
0000
1000
0000
0000
1020
0000
1000
0000
0000
0000
1000
0030
0010
0000
,
0100
0000
0001
1000
0000
0010
1000
0000
M001
0000
0100
0000
0000
0010
0000
0000
,
0100
0000
0000
0001
0000
0000
2001
0000
0000
0000
3000
0000
0010
0000
0100
0000
,
0001
0000
0000
1000
0000
0000
0200
0000
0310
0000
0001
0000
1000
0000
0001
0000
,
0200
0000
0000
0320
0000
0000
2030
0000
0001
3000
0000
0000
0001
0000
0010
0000
,
0100
0000
0000
1000
0000
0000
2010
0000
3010
0000
0200
0000
0000
0302
0000
0003
,
0200
0000
0000
0020
0300
0000
2030
0000
0001
0000
0000
3000
0001
0000
0010
0000
,
0200
0000
1300
0010
0100
0000
0002
0000
1003
0000
0100
0000
1000
0000
0010
0000
,
0100
0000
0001
0000
1000
0000
0001
0000
0010
0100
1000
0001
0100
0010
1000
0100
,
1000
0001
0100
0010
1000
0000
0020
0000
0030
0000
0200
0000
0300
0000
0002
0000
,
0000
0003
1000
0000
0100
0000
0020
0000
0030
0000
0002
0000
0000
0003
2000
0000
,
0000
3000
0010
0000
0100
0000
0020
0000
0030
0000
2000
0000
0000
3000
0002
0000
,
0000
0000
0203
0320
0000
0030
0000
0000
,
2000
3200
0320
0032
2003
0000
0000
3020
,
0000
0030
0200
0000
0301
0000
0001
1000
,
0020
0230
0320
2030
3002
0000
0000
0023
,
0000
0230
1000
1300
,
1000
0020
0230
0302
1003
0200
1300
0020
,
0130
0002
2003
3002
0013
0002
0103
0020
,
1030
0002
0203
0302
1003
0020
1030
0200
,
0310
0001
2000
3200
1300
0010
0100
0001
,
2000
3200
2300
3002
0043
0031
0100
0040
,
1030
0010
0400
0301
1000
0100
1000
0001
,
2000
3200
0320
0032
4003
3010
0100
0040
,
1030
0000
0001
0000
0400
0000
0301
0000
0010
0100
1000
0001
1000
0010
0100
0001
,
1000
0000
0100
0000
1000
0000
0001
0000
0200
0000
0000
0000
0320
0000
0000
0000
1030
0001
0100
0010
1000
0010
0100
0001
1000
0010
1000
0100
0010
0001
1000
0100
,
1000
0001
0100
0010
1000
0010
0100
0001
1000
0100
1000
0001
0010
0001
0100
0010
1000
0010
0100
0001
1000
0100
0010
0100
1000
0001
0010
0001
0100
0010
1000
0001
,
0100
0001
1000
0100
0010
0001
1000
0010
0100
0001
0100
0010
1000
0100
0010
0001
1000
0100
1000
0001
0010
0100
1000
0001
1000
0010
0100
0010
1000
0001
0100
0001
,
0010
0100
1000
0001
0010
0001
1000
0100
1000
0001
0100
0010
0100
0001
1000
0010
1000
0100
0010
0001
1000
0100
1000
0001
0100
0010
0100
0001
1000
0010
1000
0001
,
0100
0010
1000
0001
0010
0100
0010
0001
1000
0100
1000
0010
1000
0001
0100
0010
0100
0001
1000
0010
1000
0001
0100
0010
0100
0001
1000
0100
0010
0100
1000
0001
,
0010
0100
1000
0010
0100
0001
1000
0001
0100
0010
1000
0010
0100
0001
1000
0100
1000
0001
0010
0001
0100
0010
1000
0010
0100
0001
1000
0100
0010
0100
1000
0001
,
0010
0001
1000
0010
1000
0100
0010
0001
1000
0100
1000
0010
0100
0010
1000
0001
0100
0010
0100
0001
1000
0010
1000
0001
0100
0010
0100
0001
1000
0001
0010
0100
,
1000
0001
1000
0010
0100
0001
0100
0010
1000
0100
1000
0001
0010
0001
0100
0010
1000
0010
0100
0001
1000
0100
1000
0001
0100
0010
0100
0001
1000
0010
1000
0001
,
0100
0010
1000
0001
0010
0100
1000
0001
0100
0010
1000
0100
1000
0001
0100
0010
1000
0000
0000
0000
0001
0000
0000
0000
0000
0000
0100
0000
0000
0000
0000
0000
,
0010
0000
0000
0100
0000
0000
0002
0000
1000
0000
0003
0000
1000
0000
0010
0000
,
0200
0000
0000
0301
0000
0000
2000
0000
0010
3000
0100
0000
0010
0000
1000
0000
,
0002
0000
0003
0100
0000
0000
0020
0000
1030
0001
0000
0100
0001
0000
0020
0130
,
2000
0000
3000
0001
0000
0000
0200
0000
0310
0000
1000
0000
0000
0001
0000
0000
,
2000
0000
0000
3020
0000
0000
0230
0000
0001
0000
0300
0000
0001
0000
1000
0000
,
0020
0000
0130
0001
2000
0000
3002
0000
0103
0000
0010
0000
1000
0001
1000
0000
,
0100
0000
0000
0010
0000
0000
0002
0000
1000
0000
0000
0000
1003
0000
0040
0000
,
0130
0004
0000
1003
0040
0000
0230
0000
0301
0000
2000
0000
3000
0100
0000
0000
,
0020
0000
0000
0032
0000
0000
2003
0000
0010
0000
0000
3000
0010
0000
0100
0000
,
0002
0000
0003
2000
0000
3000
0020
0000
0100
0030
00M1
0000
1000
0000
0001
0000
,
0020
0000
0130
2000
0000
3000
0002
0000
0100
0000
0003
0000
0100
0000
0010
0000
,
0100
0000
0000
0001
0000
0000
2000
0000
0100
3000
0020
0000
0031
0000
1000
0000
,
0020
0000
0130
0001
1000
0000
0200
0000
0010
0000
0000
0300
2000
0000
3001
0000
,
0200
0000
0310
0000
1000
0001
0000
0200
0301
0000
1000
0000
0100
0000
0020
0000
,
0032
0000
1003
0020
0130
0000
0002
0000
1003
0100
1000
0010
0100
0001
0010
0001
,
1000
0000
0010
0000
0100
0000
0001
0000
2000
0000
0000
0000
3020
0000
0000
0000
0130
0001
1000
0010
1000
0100
0010
0001
1000
0100
1000
0001
0100
0010
1000
0010
,
0100
0001
1000
0100
1000
0001
0010
0100
0010
0001
1000
0100
1000
0010
0100
0001
1000
0100
1000
0010
0100
0001
1000
0100
1000
0001
0010
0100
1000
0001
1000
0010
,
0100
0001
1000
0100
1000
0001
0100
0010
1000
0100
1000
0001
0010
0100
1000
0001
1000
0010
0100
0001
1000
0010
1000
0100
0010
0001
1000
0100
1000
0001
0010
0100
,
1000
0001
0100
0010
0100
0001
1000
0010
1000
0001
0100
0010
1000
0100
1000
0001
0010
0001
1000
0100
0010
0001
1000
0100
1000
0001
0100
0010
1000
0010
0100
0001
,
1000
0100
1000
0001
0010
0001
0100
0010
1000
0001
1000
0100
0010
0001
1000
0010
0100
0001
1000
0100
1000
0001
0100
0010
1000
0001
0010
0100
1000
0001
1000
0010
,
1000
0001
0100
0010
1000
0001
1000
0100
0010
0001
1000
0100
1000
0001
0100
0010
1000
0010
0100
0001
1000
0100
0010
0100
1000
0001
0010
0001
1000
0100
0010
0100
,
1000
0001
0010
0001
0100
0010
1000
0001
0100
0001
1000
0010
1000
0100
0010
0001
1000
0100
1000
0001
0100
0001
1000
0010
0100
0001
1000
0100
1000
0001
0010
0001
,
0100
0010
1000
0100
1000
0001
1000
0010
0100
0001
1000
0001
0010
0100
0010
0001
1000
0100
1000
0010
1000
0001
0100
0010
1000
0100
0010
0001
1000
0001
0100
0010
,
1000
0010
0100
0001
1000
0001
0100
0010
1000
0100
1000
0001
1000
0100
0010
0001
1000
0100
1000
0001
0100
0010
0100
0001
1000
0100
1000
0010
0100
0001
1000
0100
,
1000
0001
0010
0001
0100
0010
1000
0001
1000
0100
0010
0001
1000
0100
1000
0001
0100
0010
1000
0001
0100
0001
0010
0100
1000
0001
0010
0001
0100
0010
1000
0001
,
1000
0100
0010
0001
1000
0100
1000
0001
0010
0001
0100
0010
1000
0001
1000
0100
0010
0100
1000
0001
0010
0001
0100
0010
1000
0001
0100
0001
1000
0100
1000
0001
,
0010
0001
0100
0010
1000
0001
1000
0100
0010
0001
1000
0100
1000
0001
0100
0010
1000
0001
0010
0001
0100
0010
1000
0100
1000
0001
0100
0001
1000
0100
0010
0100
,
1000
0001
0010
0001
0100
0010
1000
0001
0010
0001
0100
0010
1000
0001
0100
0001
1000
0010
1000
0100
0010
0001
1000
0100
1000
0001
0010
0001
0100
0010
1000
0001
,
1000
0100
0010
0100
1000
0001
0100
0001
0010
0100
1000
0001
0100
0010
1000
0001
0010
0100
1000
0001
0100
0001
1000
0010
0100
0001
1000
0100
1000
0001
0100
0010
,
1000
0100
1000
0001
0100
0010
0100
0001
1000
0010
1000
0100
0010
0001
1000
0100
1000
0010
0100
0001
1000
0010
0100
0001
1000
0001
0010
0100
1000
0001
0010
0001
,
0100
0001
1000
0010
1000
0100
0010
0001
1000
0100
1000
0001
0100
0010
1000
0001
0100
0010
0100
0001
1000
0010
1000
0100
0010
0001
1000
0100
1000
0001
0100
0010
,
1000
0001
0100
0001
0010
0100
1000
0001
0200
0000
0000
0000
0320
0000
0000
0000
0130
0001
1000
0010
1000
0100
0010
0001
1000
0100
1000
0001
0010
0001
0100
0010
,
1000
0001
1000
0100
0010
0001
1000
0100
1000
0001
0100
0010
1000
0001
1000
0100
0010
0100
1000
0001
0010
0001
1000
0001
0010
0100
1000
0001
0010
0001
0100
0010
,
1000
0100
1000
0001
1000
0010
0100
0001
1000
0010
1000
0100
0010
0001
1000
0100
1000
0001
0010
0001
0100
0010
1000
0100
1000
0001
0100
0001
0010
0100
1000
0001
,
0010
0100
1000
0001
1000
0100
0010
0001
1000
0100
1000
0001
0100
0010
1000
0100
1000
0001
0010
0001
0100
0010
1000
0001
1000
0100
0010
0001
1000
0100
1000
0010
,
0100
0001
1000
0100
1000
0001
0100
0010
0100
0001
1000
0010
1000
0100
0010
0001
1000
0100
1000
0001
0010
0100
1000
0001
0100
0010
0100
0001
1000
0010
1000
0100
,
0010
0001
1000
0100
1000
0001
0010
0001
0100
0010
1000
0001
1000
0100
0010
0100
1000
0001
0010
0001
0100
0010
1000
0001
1000
0100
0010
0100
1000
0001
0010
0001
,
0100
0010
1000
0001
1000
0100
0010
0100
1000
0001
0010
0001
0100
0010
1000
0100
1000
0001
0100
0010
0100
0001
1000
0010
1000
0100
0010
0001
1000
0100
1000
0001
,
0010
0100
0010
0001
1000
0100
1000
0001
0100
0010
1000
0100
1000
0001
0100
0010
1000
0010
0100
0001
1000
0100
1000
0001
0010
0001
1000
0100
0010
0001
1000
0001
,
0100
0010
1000
0001
0100
0001
0010
0100
1000
0001
1000
0010
0100
0001
1000
0010
1000
0000
0000
0000
0001
0000
0000
0000
0100
0000
0000
0000
0010
0000
0000
0000
,
0200
0000
0300
0002
0000
0003
2000
0000
3010
0000
0200
0000
0301
0000
2000
0000
,
3001
0000
0200
0000
0310
0000
0200
0000
0001
0300
0001
0000
1000
0010
0100
0000
,
0002
0000
0003
2000
0000
3000
0020
0000
0130
0000
0002
0000
0000
2003
0000
3000
,
0020
0000
0000
0200
0030
0000
0302
0000
1000
0003
0001
0000
0100
0000
0020
0000
,
2030
0000
3000
0002
0000
0000
0203
0000
0300
0020
0000
0030
0200
0000
0000
0302
,
0000
0000
1003
0000
0020
0000
0230
0000
0301
0000
1000
000M
0010
0100
0001
0000
,
0200
0000
0000
0320
0000
0030
2000
0000
0002
3000
0000
0000
0100
0000
0000
0003
,
1020
0000
0000
0000
0100
0000
0000
0030
0201
0000
0000
0300
1002
0000
0000
0003
,
2100
0000
0000
0000
0000
0000
0000
0000
0000
0000
0000
0000
0000
0000
0000
0000
0000
0000
0000
0000
0000
0000
0000
0000
0000
0000
0000
0000
0000
0000
0000
0000
0000
0000
0000
0000
3000
0000
0000
0000
0000
0000
0000
0000
0000
0000
0000
0000
0210
0000
0000
0000
0000
0000
0000
0000
0000
0000
0000
0000
0000
0000
0000
0000
0000
0000
0000
0000
0000
0000
0000
0000
0000
0000
0000
0000
0000
0000
0000
0000
0000
0000
0000
0000
0300
0000
0000
0000
0000
0000
0000
0000
0000
0000
0000
0000
0020
0000
0000
0000
0000
0000
0000
0000
0000
0000
0000
0000
0030
0000
0000
0000
0000
0000
0000
0000
0000
0000
0000
0000
0002
0000
0000
0000
0000
0000
0000
0000
0003
0000
0000
0000
0000
0000
0000
0000
0000
0000
0000
0000
0000
0000
0000
0000
0020
0000
0000
0000
0000
0000
0030
0000
0000
0000
0000
0000
0000
0000
0000
0000
0000
0000
0000
0000
0000
0000
0000
0000
0200
0000
0000
0000
0300
0000
0000
0000
0000
0000
0000
0000
0000
0000
0000
0000
0000
0000
0000
0000
0000
0000
0000
0000
,
2000
3000
0000
0000
0000
0000
0000
0000
0020
0000
0000
0000
0000
0000
0000
0000
0230
0000
0000
0000
0000
0000
0000
0000
0302
0000
0000
0000
0000
0000
0000
0000
0003
0000
0000
0000
0000
0000
0000
0000
2000
0000
0000
0000
0000
0000
0000
0000
3000
0000
0000
0000
0000
0000
0000
0000
0002
0000
0000
0000
0000
0000
0000
0000
,
0000
0003
1000
0000
0100
0000
0020
0000
0030
0000
0002
0000
0000
0003
2000
0000
,
0000
3000
0010
0000
0100
0000
0020
0000
0030
0000
2000
0000
0000
3000
0002
0000
,
0000
0000
2003
3200
0000
0300
0000
0000
,
0020
0230
0320
0032
2003
0000
0000
3020
,
0000
0030
2000
0000
3100
0000
0100
1000
,
0002
0023
0230
2300
3002
0000
0000
0023
,
0000
0230
1000
1300
,
1000
0020
0230
0302
1003
0200
1300
0020
,
0130
0002
2003
3002
0013
0200
1300
0020
,
1030
0002
0203
0302
1003
0020
1030
0200
,
0310
0001
2000
3200
1300
0010
0100
0001
,
2000
3200
2300
3002
0043
0031
0100
0040
,
1030
0010
0400
0301
1000
0100
1000
0001
,
2000
3200
0320
0032
4003
3010
0100
0040
,
1030
0000
0001
0000
0400
0000
0301
0000
0010
0100
1000
0001
1000
0010
0100
0001
,
1000
0000
0100
0000
1000
0000
0001
0000
0200
0000
0000
0000
0320
0000
0000
0000
1030
0001
0100
0010
1000
0010
0100
0001
1000
0010
1000
0100
0010
0001
1000
0100
,
1000
0001
0100
0010
1000
0010
0100
0001
1000
0100
1000
0001
0010
0001
0100
0010
1000
0010
0100
0001
1000
0100
0010
0100
1000
0001
0010
0001
0100
0010
1000
0001
,
0100
0001
1000
0100
0010
0001
1000
0010
0100
0001
0100
0010
1000
0100
0010
0001
1000
0100
1000
0001
0010
0100
1000
0001
1000
0010
0100
0010
1000
0001
0100
0001
,
0010
0100
1000
0001
0010
0001
1000
0100
1000
0001
0100
0010
0100
0001
1000
0010
1000
0100
0010
0001
1000
0100
1000
0001
0100
0010
0100
0001
1000
0010
1000
0001
,
0100
0010
1000
0001
0010
0100
0010
0001
1000
0100
1000
0010
1000
0001
0100
0010
0100
0001
1000
0010
1000
0001
0100
0010
0100
0001
1000
0100
0010
0100
1000
0001
,
0010
0100
1000
0010
0100
0001
1000
0001
0100
0010
1000
0010
0100
0001
1000
0100
1000
0001
0010
0001
0100
0010
1000
0010
0100
0001
1000
0100
0010
0100
1000
0001
,
0010
0001
1000
0010
1000
0100
0010
0001
1000
0100
1000
0010
0100
0010
1000
0001
0100
0010
0100
0001
1000
0010
1000
0001
0100
0010
0100
0001
1000
0001
0010
0100
,
1000
0001
1000
0010
0100
0001
0100
0010
1000
0100
1000
0001
0010
0001
0100
0010
1000
0010
0100
0001
1000
0100
1000
0001
0100
0010
0100
0001
1000
0010
1000
0001
,
0100
0010
1000
0001
0010
0100
1000
0001
0100
0010
1000
0100
1000
0001
0100
0010
2000
0000
0000
0000
0000
0000
3000
0000
0000
0000
0000
0000
0000
0000
000M
000M
,
000M
000M
000M
000M
000M
000M
000M
0000
0000
0000
0000
0000
0000
0000
0M00
0000
0000
0000
0000
0000
0000
0000
0000
0000
0000
0000
0000
0000
0000
0000
00M0
0000
;

//---------------dance-single - ----------------
#NOTES:
     dance-single:
     :
     Medium:
     9:
     0.690,0.822,0.175,1.000,0.248,844.000,43.000,303.000,0.000,2.000:

0000
0000
0000
0000
0000
0000
0000
0000
1000
0000
0200
0000
0310
0002
0000
1003
,
0020
0000
0130
0002
0000
1003
0200
0000
0310
0002
0000
1003
0020
0000
0130
0002
,
0000
1003
0200
0000
0310
0002
0000
1003
0002
0000
0203
0000
0310
2000
0000
3010
,
0200
0000
0301
2000
0000
3100
2000
0000
3010
0200
0000
0301
2000
0000
3001
0020
,
0000
0230
1300
0001
1000
0010
1000
0001
0200
0000
0320
0000
1030
0002
0000
0013
,
0200
0000
1300
0002
0000
1003
0020
0000
0130
0002
0000
1003
0200
0000
0310
0002
,
0000
1003
0020
0000
0230
0301
1000
0001
0020
0000
0032
0000
1003
0020
0000
0130
,
0020
0000
1030
0002
0000
0013
0200
0000
1300
0001
2000
0000
3010
0100
0002
0000
,
1003
0010
0200
0000
0302
0000
0000
0000
1003
0000
0100
0000
0000
0010
0000
0000
,
0002
0000
0000
2000
0003
0000
3020
0000
0100
0000
0030
0000
0100
0000
0001
0000
,
2000
0000
0000
3200
0000
0000
0320
0000
0031
0000
2000
0000
3000
0020
0030
0000
,
0200
0000
0000
0001
0300
0000
2002
0000
0000
3003
0000
0000
1000
0000
0100
0000
,
0010
0000
0000
0001
0000
0000
2000
0000
3010
0000
0100
0000
0000
0001
0000
0000
,
2000
0000
3000
0010
0000
0000
0220
0000
0000
0330
0000
0000
0100
0000
0001
0000
,
2000
0000
3010
0100
0001
0000
2000
0000
0010
0000
3000
0000
0010
0000
0100
0000
,
0001
0000
0000
1000
0000
0000
1020
0000
1000
0000
0000
0000
1000
0030
0010
0000
,
0100
0000
0001
1000
0000
0010
1000
0000
0001
0000
0100
0000
0000
0010
0000
0000
,
0100
0000
0000
0001
0000
0000
2001
0000
0000
0000
3000
0000
0010
0000
0100
0000
,
0001
0000
0000
1000
0000
0000
0200
0000
0310
0000
0001
0000
1000
0000
0001
0000
,
0200
0000
0000
0320
0000
0000
2030
0000
0001
3000
0000
0000
0001
0000
0010
0000
,
0100
0000
0000
1000
0000
0000
2010
0000
3010
0000
0200
0000
0000
0302
0000
0003
,
0200
0000
0000
0020
0300
0000
2030
0000
0001
0000
0000
3000
0001
0000
0010
0000
,
0200
0000
1300
0010
0100
0000
0002
0000
1003
0000
0100
0000
1000
0000
0010
0000
,
0100
0000
0001
0000
1000
0000
0001
0000
0010
0100
1000
0001
0100
0010
1000
0100
,
1000
0001
0100
0010
1000
0000
0020
0000
0030
0000
0200
0000
0300
0000
0002
0000
,
0000
0003
1000
0000
0100
0000
0020
0000
0030
0000
0002
0000
0000
0003
2000
0000
,
0000
3000
0010
0000
0100
0000
0020
0000
0030
0000
2000
0000
0000
3000
0002
0000
,
0000
0000
0203
0320
0000
0030
0000
0000
,
2000
3200
0320
0032
2003
0000
0000
3020
,
0000
0030
0200
0000
0301
0000
0001
1000
,
0020
0230
0320
2030
3002
0000
0000
0023
,
0000
0230
1000
1300
,
1000
0020
0230
0302
1003
0200
1300
0020
,
0130
0002
2003
3002
0013
0002
0103
0020
,
1030
0002
0203
0302
1003
0020
1030
0200
,
0310
0001
2000
3200
1300
0010
0100
0001
,
2000
3200
2300
3002
0043
0031
0100
0040
,
1030
0010
0400
0301
1000
0100
1000
0001
,
2000
3200
0320
0032
4003
3010
0100
0040
,
1030
0000
0001
0000
0400
0000
0301
0000
0010
0100
1000
0001
1000
0010
0100
0001
,
1000
0100
1000
0001
0200
0000
0320
0000
1030
0000
0100
0000
1000
0000
0400
0000
,
0310
0000
0001
0000
0400
0000
0310
0000
1000
0000
0010
0000
0100
0001
0040
0000
,
0031
0100
0040
1030
0100
1000
0001
0040
,
0130
0010
0004
0103
0010
1000
0100
0010
,
0002
0003
0200
0300
0020
0030
2000
3000
0200
0000
0000
0000
0000
0000
0320
0000
,
0000
0000
0032
0000
1003
0100
0010
0001
,
2000
3000
0020
0030
0200
0300
0002
0003
2000
0000
0000
0000
0000
0000
3020
0000
,
0000
0000
0230
0000
0301
0010
0001
1000
,
0100
0000
0010
0000
0001
0000
1000
0000
1000
0000
0001
0000
0000
0100
0000
0000
,
0010
0000
0000
0100
0000
0000
0002
0000
1000
0000
0003
0000
1000
0000
0010
0000
,
0200
0000
0000
0301
0000
0000
2000
0000
0010
3000
0100
0000
0010
0000
1000
0000
,
0002
0000
0003
0100
0000
0000
0020
0000
1030
0001
0000
0100
0001
0000
0020
0130
,
2000
0000
3000
0001
0000
0000
0200
0000
0310
0000
1000
0000
0000
0001
0000
0000
,
2000
0000
0000
3020
0000
0000
0230
0000
0001
0000
0300
0000
0001
0000
1000
0000
,
0020
0000
0130
0001
2000
0000
3002
0000
0103
0000
0010
0000
1000
0001
1000
0000
,
0100
0000
0000
0010
0000
0000
0002
0000
1000
0000
0000
0000
1003
0000
0040
0000
,
0130
0004
0000
1003
0040
0000
0230
0000
0301
0000
2000
0000
3000
0100
0000
0000
,
0020
0000
0000
0032
0000
0000
2003
0000
0010
0000
0000
3000
0010
0000
0100
0000
,
0002
0000
0003
2000
0000
3000
0020
0000
0100
0030
0001
0000
1000
0000
0001
0000
,
0020
0000
0130
2000
0000
3000
0002
0000
0100
0000
0003
0000
0100
0000
0010
0000
,
0100
0000
0000
0001
0000
0000
2000
0000
0100
3000
0020
0000
0031
0000
1000
0000
,
0020
0000
0130
0001
1000
0000
0200
0000
0010
0000
0000
0300
2000
0000
3001
0000
,
0200
0000
0310
0000
1000
0001
0000
0200
0301
0000
1000
0000
0100
0000
0020
0000
,
0032
0000
1003
0020
0130
0000
0002
0000
1003
0100
1000
0010
0100
0001
0010
0001
,
1000
0010
0100
0001
2000
0000
3010
0000
0100
0000
0010
0000
0001
0000
0010
0000
,
0100
0010
1000
0001
0010
1000
0010
0001
,
0100
0001
1000
0100
0010
0100
0010
0001
,
1000
0100
0010
0001
0010
0100
0010
1000
,
0001
1000
0100
1000
0002
0000
0000
0200
,
0000
0020
0000
0333
,
1000
0100
0001
0100
2000
0000
0000
0020
,
0000
0200
0000
3330
,
0000
0001
0010
0001
0000
0020
0000
0230
,
0000
1300
0001
0200
0000
0320
0000
2030
,
0000
3001
0010
0100
0000
2000
0000
3200
,
0000
0000
0320
0002
0000
0000
0033
0000
,
1000
0001
0100
0010
2200
3300
0000
0220
,
0330
0000
0021
0000
0031
0100
0010
1000
,
0010
1000
0100
0010
0220
0330
0000
0022
,
0033
0000
0000
0000
1001
0000
0000
0000
1000
0100
0010
0001
0010
0100
1000
0001
,
0100
0010
0100
0001
1000
0000
0010
0000
1000
0000
0100
0000
1000
0000
0001
0000
,
0100
0001
0010
0100
1000
0001
0100
0010
,
1000
0001
0010
0100
1000
0001
0100
0010
,
0001
0010
1000
0100
0010
0001
1000
0001
,
0100
0010
0001
0010
1000
0100
0010
0001
,
1000
0001
0100
0010
0100
0010
1000
0100
,
0010
0001
0010
0100
0010
1000
0010
0001
,
1000
0001
0100
0010
1000
0010
0100
0001
,
0010
0100
1000
0001
1000
0010
1000
0001
,
0200
0000
0300
0002
0000
0003
2000
0000
3010
0000
0200
0000
0301
0000
2000
0000
,
3001
0000
0200
0000
0310
0000
0200
0000
0001
0300
0001
0000
1000
0010
0100
0000
,
0002
0000
0003
2000
0000
3000
0020
0000
0130
0000
0002
0000
0000
2003
0000
3000
,
0020
0000
0000
0200
0030
0000
0302
0000
1000
0003
0001
0000
0100
0000
0020
0000
,
2030
0000
3000
0002
0000
0000
0203
0000
0300
0020
0000
0030
0200
0000
0000
0302
,
0000
0000
1003
0000
0020
0000
0230
0000
0301
0000
1000
0000
0010
0100
0001
0000
,
0200
0000
0000
0320
0000
0030
2000
0000
0002
3000
0000
0000
0100
0000
0000
0003
,
1020
0000
0000
0000
0100
0000
0000
0030
0201
0000
0000
0300
1002
0000
0000
0003
,
2100
0000
0000
0000
0000
0000
0000
0000
0000
0000
0000
0000
0000
0000
0000
0000
0000
0000
0000
0000
0000
0000
0000
0000
0000
0000
0000
0000
0000
0000
0000
0000
0000
0000
0000
0000
3000
0000
0000
0000
0000
0000
0000
0000
0000
0000
0000
0000
0210
0000
0000
0000
0000
0000
0000
0000
0000
0000
0000
0000
0000
0000
0000
0000
0000
0000
0000
0000
0000
0000
0000
0000
0000
0000
0000
0000
0000
0000
0000
0000
0000
0000
0000
0000
0300
0000
0000
0000
0000
0000
0000
0000
0000
0000
0000
0000
0020
0000
0000
0000
0000
0000
0000
0000
0000
0000
0000
0000
0030
0000
0000
0000
0000
0000
0000
0000
0000
0000
0000
0000
0002
0000
0000
0000
0000
0000
0000
0000
0003
0000
0000
0000
0000
0000
0000
0000
0000
0000
0000
0000
0000
0000
0000
0000
0020
0000
0000
0000
0000
0000
0030
0000
0000
0000
0000
0000
0000
0000
0000
0000
0000
0000
0000
0000
0000
0000
0000
0000
0200
0000
0000
0000
0300
0000
0000
0000
0000
0000
0000
0000
0000
0000
0000
0000
0000
0000
0000
0000
0000
0000
0000
0000
,
2000
3000
0000
0000
0000
0000
0000
0000
0020
0000
0000
0000
0000
0000
0000
0000
0230
0000
0000
0000
0000
0000
0000
0000
0302
0000
0000
0000
0000
0000
0000
0000
0003
0000
0000
0000
0000
0000
0000
0000
2000
0000
0000
0000
0000
0000
0000
0000
3000
0000
0000
0000
0000
0000
0000
0000
0002
0000
0000
0000
0000
0000
0000
0000
,
0000
0003
1000
0000
0100
0000
0020
0000
0030
0000
0002
0000
0000
0003
2000
0000
,
0000
3000
0010
0000
0100
0000
0020
0000
0030
0000
2000
0000
0000
3000
0002
0000
,
0000
0000
2003
3200
0000
0300
0000
0000
,
0020
0230
0320
0032
2003
0000
0000
3020
,
0000
0030
2000
0000
3100
0000
0100
1000
,
0002
0023
0230
2300
3002
0000
0000
0023
,
0000
0230
1000
1300
,
1000
0020
0230
0302
1003
0200
1300
0020
,
0130
0002
2003
3002
0013
0200
1300
0020
,
1030
0002
0203
0302
1003
0020
1030
0200
,
0310
0001
2000
3200
1300
0010
0100
0001
,
2000
3200
2300
3002
0043
0031
0100
0040
,
1030
0010
0400
0301
1000
0100
1000
0001
,
2000
3200
0320
0032
4003
3010
0100
0040
,
1030
0000
0001
0000
0400
0000
0301
0000
0010
0100
1000
0001
1000
0010
0100
0001
,
1000
0100
1000
0001
0200
0000
0320
0000
1030
0000
0100
0000
1000
0000
0100
0000
,
0010
0100
0010
0100
0010
0001
0100
0010
,
1000
0010
0100
0001
0010
0100
1000
0001
,
0100
0010
1000
0100
0010
0001
1000
0001
,
0100
0100
0010
0010
2020
3030
0000
2020
,
3030
0000
0011
0000
0001
0100
0010
1000
,
0010
0100
0001
0010
0022
0033
0000
2002
,
3003
0000
0220
0330
0100
1000
0100
0010
,
0001
0000
0000
0010
0000
0000
0100
0000
0000
1000
0000
0000
0200
0000
0000
0000
0300
0000
0000
0000
0000
0000
0000
0000
;
