#TITLE:Dreamin';
#SUBTITLE:W.L.O. Sekai Renai Kikou - Love Love Show - OP theme;
#ARTIST:Suzahara Chibana;
#TITLETRANSLIT:;
#SUBTITLETRANSLIT:;
#ARTISTTRANSLIT:;
#CREDIT:ALICE_;
#BANNER:Dreamin'.png;
#BACKGROUND:Dreamin'.jpg;
#LYRICSPATH:;
#CDTITLE:cdtitle.png;
#MUSIC:dreamin'.mp3;
#OFFSET:1.000;
#SAMPLESTART:69.880;
#SAMPLELENGTH:12.000;
#SELECTABLE:YES;
#BPMS:0.000=175.000;
#STOPS:;
#BGCHANGES:2.875=dreamin'.avi=1.000=1=0=1,
99999=-nosongbg-=1.000=0=0=0 // don't automatically add -songbackground-
;
// cache tags:
#FIRSTBEAT:4.000;
#LASTBEAT:308.000;
#SONGFILENAME:Songs/alice 4th complete step/dreamin'/dreamin'.sm;
#HASMUSIC:1;
#HASBANNER:1;
#MUSICLENGTH:107.110;
// end cache tags

//---------------dance-single - ----------------
#NOTES:
     dance-single:
     :
     Hard:
     8:
     0.816,0.861,0.719,0.523,0.009,479.000,77.000,56.000,0.000,0.000:
0000
0000
0000
0000
,
0001
1000
0100
1000
0001
1000
0100
1000
,
0001
1000
0100
1000
0020
0000
0230
0300
,
1000
0001
0100
0001
1000
0001
0100
0001
,
1000
0001
0100
0001
0200
0000
0320
0030
,
1001
0100
0010
1000
0001
0100
0010
1000
,
0001
0100
0010
1000
0202
0303
2200
3300
,
1001
0011
0100
1000
0010
0100
0001
1000
,
0000
0000
0000
0000
,
1100
0000
0101
0001
1000
0010
0100
0010
,
0000
1000
0100
0001
0101
0000
1100
0000
,
0011
0000
1010
1000
0001
0010
0100
0010
,
0000
0001
0100
1000
1100
0000
0101
0000
,
0110
0000
1001
1000
0100
0010
0001
0100
,
0010
1000
0001
1000
1100
0000
0101
0000
,
1010
0000
0101
0100
0010
1000
0100
0010
,
0000
0000
0000
0000
0000
0000
0000
0000
0000
0001
0000
1000
0000
0000
0000
0000
,
0002
0003
1000
0100
1000
0010
0100
0001
,
0000
1000
0100
0010
0100
0000
1001
0000
,
0001
0100
0010
0000
1000
0010
0001
0010
,
0000
1000
0100
0010
1001
0000
0110
0000
,
2000
3000
0001
0100
0001
0010
0100
1000
,
0000
0001
0100
0010
0100
0000
1001
0000
,
0010
1000
0100
0000
1000
0100
0001
0100
,
0000
1000
0010
0100
1001
0000
0110
0000
,
0001
0010
0100
0010
0001
0010
0100
1000
,
0000
0010
0001
0010
0200
0300
2002
3003
,
1000
0100
0010
0100
1000
0100
0010
0001
,
0000
0100
1000
0100
0020
0030
2002
3003
,
0101
0001
2000
3000
0001
0100
0001
1000
,
0010
0100
0001
1000
0200
0300
0020
0030
,
1100
1000
0002
0003
1000
0100
1000
0010
,
0100
0001
1000
0001
1001
0000
0110
0000
,
1010
0010
0001
0000
0010
1000
0100
1000
,
0001
0010
0100
1000
0002
0003
0200
0300
,
0011
0010
1000
0000
0010
0001
0100
0001
,
1000
0010
0100
0001
2002
3003
0220
0330
,
1000
0100
0001
0100
1000
0001
0100
0010
,
1000
0001
0010
0100
0220
0330
2002
3003
,
0001
0100
1000
0100
0001
1000
0100
0010
,
0001
1000
0010
0100
1001
0001
0010
0010
,
0200
1000
0010
1000
,
0010
0001
0010
1300
,
0002
0100
0010
0100
,
1000
0000
0100
0000
0020
0003
0130
0100
,
2001
0100
0001
0100
,
0001
0000
0010
0000
0100
0000
3001
0100
,
0101
1000
2200
3300
1100
0010
0220
0330
,
0110
0001
0202
0303
2002
3003
0220
0330
,
1000
0010
0100
0001
0010
0100
1000
0010
,
0100
0001
0100
0001
0100
1000
0100
1000
,
0100
0001
0010
0100
1000
0010
0100
0020
,
0000
1030
0010
1000
0010
0001
0010
0001
,
0010
1000
0100
0010
0001
0100
0010
2000
,
0000
3001
0001
0001
0100
0010
1000
0002
,
0000
1003
1000
1000
0001
1000
0010
0200
,
0000
0310
0010
0010
1000
0001
0100
0010
,
1100
0000
0001
0101
0000
1000
0010
0010
,
1001
0101
1100
0101
,
1000
0010
0001
0010
1000
0010
0100
0001
,
0000
0100
1100
0000
0101
0000
1100
0000
,
0001
0010
1000
0010
0001
0100
0010
2000
,
0000
3100
0001
0100
1000
1000
1000
0002
,
0000
0103
1000
0100
0001
0001
0001
0020
,
0000
0130
0010
0100
1000
1000
0001
0001
,
0101
0000
0010
1100
0000
0010
0101
1000
,
1001
0000
1010
1000
0001
0100
0010
0100
,
0001
1000
0001
0100
1010
0000
0011
0000
,
1100
0000
0101
0001
1000
0100
0010
0100
,
1000
0001
1000
0010
0011
0000
1010
0000
,
0110
0000
1001
0001
0010
0100
1000
0010
,
0100
0001
1000
0001
0011
0000
1010
0000
,
0101
0000
1010
0010
0100
0001
0010
0100
,
0000
1000
0100
0001
1000
0010
0001
0100
,
1010
1000
1000
0002
0000
0103
0100
0020
,
0000
1030
1000
0200
0300
0001
0010
2002
,
3003
0010
0100
1000
0001
0100
1010
1001
;

//---------------dance-single - ----------------
#NOTES:
     dance-single:
     :
     Challenge:
     14:
     1.000,1.000,1.000,1.000,0.303,623.000,312.000,160.000,0.000,57.000:
0000
0000
0000
0000
,
0020
0230
0320
0032
0203
2300
3200
0302
,
0023
0230
0320
0032
2203
3310
2002
3103
,
0020
0230
0320
0032
0203
2300
3200
0302
,
0023
0230
0320
0032
2023
3130
2002
3013
,
0201
0000
2301
0000
3020
0000
0032
0000
0203
0000
2300
0000
3020
0030
0002
0000
,
0203
0000
2300
0000
3020
0030
1001
1000
0100
0000
1010
0000
0101
0000
0010
0000
,
1200
1302
1023
0032
0203
2300
3020
0230
,
1301
0010
0100
0010
0100
0010
1000
0010
1000
0001
0100
0001
2100
0001
3010
0001
,
1110
0100
1001
0010
1001
1100
0010
1001
,
0010
0000
1100
0000
0011
0000
1100
0000
1020
0000
0130
0000
1002
0000
0110
0003
,
1101
0100
1010
0100
1001
0011
0100
1001
,
0101
0010
1000
0011
1100
0000
0110
0000
2001
0000
3010
0000
0201
0000
1310
0000
,
1001
1000
0101
0010
1100
0011
0100
1010
,
0110
0000
0011
0000
1001
0000
0100
0000
2020
0000
0000
3030
0202
0000
0000
0303
,
1011
0010
0101
1100
0011
1001
0100
1010
,
0000
0000
1000
0001
0100
0000
0100
0000
0010
1001
0000
1001
0100
0000
0010
0000
,
0220
0000
1330
0001
1100
1100
0010
0100
,
1001
0000
0001
0000
1010
0000
0100
1000
0010
0000
0010
0000
1001
0000
0100
0000
,
0011
1000
1001
0010
0101
0101
1000
0001
,
1100
0000
1000
0000
0101
0000
1000
0001
0220
0000
0000
0000
2332
0000
0000
3003
,
0120
0100
1031
0100
0011
0011
1000
0001
,
0110
0000
0100
0000
1001
0000
0010
0001
1100
0000
1000
0000
0101
0000
0010
0000
,
1001
0001
1100
0010
0101
0101
1000
0010
,
0110
0000
1000
0000
0011
0000
1100
0000
1001
0010
0001
0010
0101
1000
0100
1000
,
0110
0000
0100
0000
0011
0000
1000
0000
2010
3000
0102
0003
1200
0300
0021
0030
,
0100
0000
0011
0000
1001
0000
0100
0100
2020
0000
0000
3030
2002
0000
0000
3003
,
0110
0000
0001
0000
1010
0000
0100
0000
0012
0003
2100
3000
0021
0030
0200
0300
,
1000
0000
0110
0000
1001
0000
0010
0010
0102
1000
0100
1003
0210
0000
0310
0000
,
2002
0000
3103
0010
1100
1001
0100
0011
,
1001
0000
0100
0000
1010
0000
0100
1000
0001
0000
0110
0000
1001
0000
0100
0000
,
0011
1000
1001
0010
0101
0101
1000
0011
,
0100
0000
1010
0000
1001
0000
0100
0010
2002
0000
0000
0000
3223
0000
0000
0330
,
1002
1000
0113
1000
0101
1001
0010
1100
,
1001
0000
0100
0000
1001
0000
0010
0001
1100
0000
1000
0000
0101
0000
0010
0000
,
1001
1000
0011
0100
1010
1010
0001
0100
,
0110
0000
0001
0000
1100
0000
0011
0000
1001
0100
1000
0100
1010
0001
0010
0001
,
0110
0000
0010
0000
1100
0000
0001
0000
0102
0003
2010
3000
0021
0030
1200
0300
,
0010
0000
1100
0000
1001
0000
0010
0010
0202
0000
0000
0303
2002
0000
0000
3003
,
0110
0000
1000
0000
0101
0000
0010
0000
2100
3000
0012
0003
1200
0300
0020
0030
,
0001
0000
0110
0000
1001
0000
0100
0100
2010
0000
0011
3000
0120
0000
1130
0000
,
2102
0000
3100
1000
0100
1000
0100
1000
,
0100
0010
0100
0010
1000
0010
0100
0010
,
1000
0100
1000
0010
1000
0100
1000
0010
,
1103
0000
0010
0000
0011
0000
1100
0000
0001
0000
0110
0000
1001
0000
0100
0001
,
2010
0000
0101
0001
0010
0001
0110
0000
,
0101
0000
0000
0000
0011
0000
0100
0000
0001
0000
0100
3000
0010
0100
0010
0100
,
1001
1001
2012
3003
1010
1010
2120
3030
,
0101
0000
0101
0000
0212
0000
0303
0000
1001
0100
0010
0001
1100
0000
0011
0000
,
0101
1000
0010
0001
0100
1000
0010
0001
1100
0000
0101
0000
0220
0000
0000
0330
,
1001
0000
1000
0000
0101
0000
1000
0010
1100
0000
1000
0000
0101
0000
1000
0010
,
1100
0000
1000
0000
0101
0000
1000
0010
1100
0000
1100
0000
0011
0000
2002
0000
,
0000
3003
0100
0000
1010
0000
0001
0100
0011
0000
0001
0000
1010
0000
0001
0100
,
0011
0000
0001
0000
1010
0000
0001
0100
0011
0000
1010
0000
0110
0000
2002
0000
,
0000
3003
1100
0000
1001
0010
0001
0010
0101
0000
0110
0000
2002
3003
0220
0000
,
0000
0330
0011
0000
1001
0100
1000
0100
1010
0000
0110
0000
1001
0000
0220
0000
,
0000
0330
1001
0000
0011
1100
0010
1000
0101
0000
0010
0000
0100
0000
1000
0000
,
0022
0000
0030
0003
0110
0000
2002
0000
0000
3003
0100
0000
1001
0010
0001
0010
,
1101
0000
0111
0000
1101
1000
0111
0000
,
1101
1000
0111
0000
1101
1000
0111
0220
,
0000
1330
0101
0010
1001
1001
0101
0010
,
1100
1100
1001
0100
0110
1000
0011
2201
,
0000
3300
1000
0000
0011
0000
0100
0000
1010
0000
0100
0000
1001
0000
0122
0000
,
0000
0033
0001
0000
1100
0000
0010
0000
0101
0000
0010
0000
1001
0000
2210
0000
,
0000
3300
0001
0000
0110
0000
0001
0000
1100
0000
0110
0000
1001
0000
0000
0000
,
0121
0000
0000
0030
1001
0000
1210
0000
0000
0300
1001
0000
0100
0010
0100
0010
,
2002
3103
1010
0100
1001
0011
0100
1001
,
0100
0000
0011
0000
1100
0000
0011
0000
0201
0000
0310
0000
2002
0000
0000
3003
,
1011
0010
0101
0010
1001
1100
0010
1001
,
1010
0100
0001
1100
0011
0000
0110
0000
1002
0000
0103
0000
2020
0000
3030
0000
,
1101
0001
1010
0100
0011
1100
0010
0101
,
0110
0000
1100
0000
1001
0000
0010
0000
0202
0000
0000
0303
2020
0000
0000
3030
,
1101
0100
1010
0011
1100
1001
0010
1201
,
0000
0300
0001
1000
0110
0000
0110
0000
2000
0011
3000
0100
0020
0000
0000
0030
,
2100
0000
0001
0000
0101
3000
0021
0000
0000
0000
0100
0000
1001
0030
2100
0000
,
0000
0000
0010
3000
0101
0000
2002
0000
0000
0000
3100
0000
0010
0003
2001
0000
,
0000
0000
0001
0001
3010
0000
0100
0000
1000
0000
0010
0000
1001
0000
2112
0000
,
3003
0000
0000
0000
;
