#TITLE:False News Travel Fast;
#SUBTITLE:Silence (2001);
#ARTIST:Sonata Arctica;
#TITLETRANSLIT:;
#SUBTITLETRANSLIT:;
#ARTISTTRANSLIT:;
#CREDIT:SulferDragon;
#BANNER:False News Travel Fast-banner.png;
#BACKGROUND:False News Travel Fast-bg.png;
#LYRICSPATH:;
#CDTITLE:!SulferDragon.png;
#MUSIC:False News Travel Fast.mp3;
#OFFSET:-0.172;
#SAMPLESTART:52.400;
#SAMPLELENGTH:13.800;
#SELECTABLE:YES;
#BPMS:0.000=120.120,32.500=168.000,34.500=180.000,35.000=173.560,36.000=167.560,38.000=160.980,42.000=165.000,89.000=165.920,96.500=163.900,98.500=160.450,99.000=159.330,101.000=165.000,153.000=166.140,161.000=177.640,162.000=168.840,162.250=143.500,162.500=165.000,170.500=189.000,171.000=165.000,202.500=176.000,203.000=164.000,211.000=165.000,235.000=162.720,240.000=165.220,298.500=165.000,324.000=166.000,330.500=190.000,331.000=165.000,362.500=120.120,380.000=120.780,386.000=129.140,386.500=203.000,387.500=175.520,393.000=181.660,403.500=177.180,412.500=201.000,413.000=181.600,443.875=178.500,454.000=181.000,457.000=182.620,467.000=181.000,477.600=182.020,483.500=171.400,485.000=182.000,493.000=177.000,505.000=182.440,511.000=179.000,524.000=179.240,561.000=205.000,562.000=173.300,564.000=190.600;
#STOPS:32.000=0.350
;
#BGCHANGES:;
// cache tags:
#FIRSTBEAT:0.000;
#LASTBEAT:564.000;
#SONGFILENAME:Songs/Astronomic Metal Collection/False News Travel Fast (SulferDragon)/False News Travel Fast.sm;
#HASMUSIC:1;
#HASBANNER:1;
#MUSICLENGTH:214.133;
// end cache tags

//---------------dance-single - ----------------
#NOTES:
     dance-single:
     :
     Hard:
     12:
     1.000,1.000,1.000,0.313,1.000,1615.000,337.000,67.000,0.000,1.000:
0001
0010
0100
0010
0001
0010
0100
0010
0001
0100
1000
0100
0010
1000
0100
1000
,
0001
0100
0010
1000
0100
0010
0100
0010
0001
0100
1000
0100
0001
0010
1000
0100
,
0001
0010
0100
0010
0001
0010
0100
0010
0001
0100
1000
0100
0010
1000
0100
1000
,
0001
0100
0010
1000
0100
0001
0100
0010
0001
0100
0010
0100
0001
0010
0100
1000
,
0001
0010
0100
0010
0001
0010
0100
0010
0001
0100
1000
0100
0001
1000
0100
1000
,
0001
0100
0010
1000
0100
0010
0100
0010
0001
0100
1000
0100
0001
0010
1000
0100
,
0001
0010
0100
0010
0001
0010
0100
0010
0001
0100
1000
0100
0010
1000
0100
1000
,
0001
0100
0010
1000
0100
0001
0100
0010
0001
0100
0010
0100
0001
0010
0100
1000
,
0000
0000
1001
1001
0010
0001
0010
0100
0010
0100
1010
0001
1000
0001
1000
0001
,
1100
0000
0010
1000
0010
1000
0011
0000
0100
0010
1100
0000
0010
0100
0010
0100
,
0011
0000
0100
0000
0001
0100
0001
0100
0001
0100
0011
0000
0100
0010
0100
0010
,
1100
0000
0010
0000
1000
0010
1001
0010
1000
0010
1100
0000
0001
1000
0001
1000
,
0011
0000
0100
0001
0100
0001
1100
0000
0010
0000
0101
0000
0010
0100
0010
0100
,
0010
0000
0100
0000
0010
0100
1010
0100
0010
0100
0011
0000
0100
0000
0001
0100
,
0001
0000
1000
0000
0001
0000
1000
0010
1000
0000
0011
0000
1100
0000
0001
1000
,
0101
0000
1000
0000
0001
0000
1100
0001
1000
0000
0001
0000
1000
0000
0011
1000
,
0001
0000
0100
0000
0011
1100
0011
1100
0011
1100
0011
0000
0100
0001
0100
0001
,
1100
0000
0001
0000
1000
0001
1010
0000
0001
0000
1100
0000
0010
0100
0010
0100
,
0010
0000
0101
0000
0010
0100
0010
0100
0010
0100
1010
0000
0100
0000
0001
0100
,
0011
0000
0100
0000
0010
1000
0110
1000
0010
1000
0011
0000
1000
0000
0010
0100
,
1010
0000
0100
0000
0001
0100
0011
0100
0001
0100
1001
0000
0010
1000
0010
1000
,
0011
0000
0100
0000
0001
0000
1010
0100
0010
0000
0101
0000
0010
0000
0100
0010
,
0100
0000
0010
0000
1000
0010
1001
0010
1000
0000
0110
0000
1000
0000
0001
1000
,
0011
0000
1000
0000
0010
0000
1100
0001
1000
0000
0101
0000
1000
0000
0001
1000
,
0001
0000
1100
0000
0011
1100
0011
1100
0011
1100
0011
0100
0010
1000
0010
1000
,
0110
0000
0100
0000
0001
1000
0001
1000
0001
1000
0101
0000
0010
0100
0010
0100
,
0011
0000
0001
0000
1000
0100
1000
0100
1000
0100
1010
0000
0001
0100
0001
0100
,
1001
0000
1000
0000
0010
0100
0010
0100
0010
0100
0011
0000
1000
0001
1000
0001
,
1100
0000
0100
0000
0010
0100
0010
0100
0010
0100
0011
0000
1000
0010
1000
0010
,
1001
0000
0001
0000
0100
0001
0100
0001
0100
0001
0110
0000
1000
0001
1000
0001
,
1100
0000
0100
0000
0010
0001
0010
0001
0010
0001
1010
0000
0100
0010
0100
0010
,
0102
0000
0000
0000
0100
0000
0000
0003
0100
0010
1200
0000
0001
0000
0000
0000
,
0001
0300
0000
0011
0000
1100
0011
1100
0011
1100
0011
0100
0010
1000
0010
0001
,
0110
0001
0010
0100
0010
0100
1010
0100
0001
0010
1001
0100
1000
0100
0010
1000
,
0100
1000
0010
0001
0100
1000
0100
0010
0001
0100
0011
1000
0010
0001
0100
0010
,
0101
0010
0100
0001
0010
0001
1010
0100
0010
0100
1001
0010
0001
0100
0010
1000
,
0110
0001
1010
0100
0010
1000
0011
0100
0010
0001
1010
0001
0010
1000
0100
0001
,
0110
0001
0100
0010
0001
1000
0101
1000
0001
0010
1001
0100
1000
0100
0001
0010
,
0100
1000
0100
0001
1000
0001
1010
0100
0010
1000
0011
0100
0010
1000
0001
1000
,
0101
0010
0100
0001
0010
1000
0110
1000
0010
0100
1001
0100
0001
0010
1000
0001
,
1010
0001
0100
0010
1100
0010
1000
0010
1001
0100
2010
0000
0000
0000
0200
0000
,
0000
0000
0000
0000
,
3300
0000
1001
0000
1100
0011
1100
0011
1100
0011
1100
0000
0001
1000
0001
1000
,
0011
0000
0100
0001
0100
0001
1100
0000
0010
0100
0011
0000
0100
0010
0100
0010
,
1100
0000
0010
0000
1000
0010
1000
0010
1000
0010
1100
0000
0010
0100
0010
0100
,
0011
0000
0100
0001
0100
0001
1100
0000
0010
0000
0101
0000
1000
0001
1000
0001
,
1100
0000
0010
0000
0100
0000
0011
0100
0010
0100
1010
0000
0100
0010
0100
0010
,
0100
0000
0010
0000
0100
0010
0101
0010
0100
0010
1100
0000
0010
0000
1000
0010
,
1000
0000
0001
0000
1000
0000
0001
0100
0001
0000
1100
0000
0001
0000
1010
0001
,
1000
0000
0101
0000
1010
0000
0001
1000
0001
0000
1000
0000
0001
0000
1100
0001
,
1000
0000
0010
0000
1100
0011
1100
0011
1100
0011
1100
0000
0010
1000
0010
1000
,
0011
0000
0100
0010
0100
0010
1100
0000
0001
0100
0011
0000
0100
0010
0100
0010
,
0100
0000
0011
0000
1000
0010
1000
0010
1000
0010
1100
0000
0001
0000
1000
0001
,
1010
0000
0001
0000
0100
0001
1100
0001
0100
0000
0011
0000
0100
0010
0100
0010
,
1100
0000
0010
0000
0100
0000
0011
1000
0010
1000
0110
0000
1000
0001
1000
0001
,
1000
0000
0001
0000
0100
0001
0110
0001
0100
0001
1100
0000
0001
0000
1000
0001
,
1000
0000
0010
0000
1000
0010
1000
0010
1000
0010
1001
0000
0100
0000
0001
1000
,
0011
0000
1000
0000
0010
0000
1100
0001
1000
0000
0101
0000
1000
0000
0001
1000
,
0001
0000
1100
0000
0011
1100
0011
1100
0011
1100
0011
0100
0010
1000
0010
1000
,
0110
0000
0100
0000
0001
1000
0001
1000
0001
1000
0101
0000
0010
0100
0010
0100
,
0011
0000
0001
0000
1000
0100
1000
0100
1000
0100
1010
0000
0001
0100
0001
0100
,
1001
0000
1000
0000
0010
0100
0010
0100
0010
0100
0011
0000
1000
0001
1000
0001
,
1100
0000
0100
0000
0010
0100
0010
0100
0010
0100
0011
0000
1000
0010
1000
0010
,
1001
0000
0001
0000
0100
0001
0100
0001
0100
0001
0110
0000
1000
0001
1000
0001
,
1100
0000
0100
0000
0010
0001
0010
0001
0010
0001
1010
0000
0100
0010
0100
0010
,
0101
0000
0001
0000
0100
0010
0100
0010
0100
0010
1200
0000
0001
0000
0000
0000
,
0001
0300
0000
0011
0000
1100
0011
1100
0011
1100
0011
0100
0010
1000
0010
0001
,
0110
0001
0010
0100
0010
0100
1010
0100
0001
0010
1001
0100
1000
0100
0010
1000
,
0100
1000
0001
0010
0100
1000
0100
0001
0010
0100
0011
1000
0010
0001
0100
0010
,
0101
0010
0100
0001
0010
0001
1010
0100
0010
0100
1001
0010
0001
0100
0010
1000
,
0110
0001
1010
0100
0010
1000
0011
0100
0010
0001
1010
0001
0010
1000
0100
0001
,
0110
0001
0100
0010
0001
1000
0101
1000
0001
0010
1001
0100
1000
0100
0010
1000
,
0001
1000
0010
0001
1000
0001
1010
0100
0010
1000
0011
0100
0010
1000
0001
1000
,
0101
0010
0100
0001
0010
1000
0110
1000
0010
0100
1001
0100
0001
0010
0100
1000
,
0110
0001
1000
0101
1000
0100
0011
0100
1000
0101
1020
0000
1000
0000
0000
0000
,
0032
0000
1000
0203
0001
2300
0001
0000
,
0001
0000
0000
0000
0001
0000
0000
0000
0001
3000
0020
0000
0001
0000
0000
0000
,
0032
0000
1000
0203
1000
0302
1000
0000
,
0203
2300
0001
0000
0001
3020
0001
0000
,
0032
0000
1000
0203
0001
2300
0001
0000
,
0001
0000
0000
0000
0001
0000
0000
0000
0001
3000
0020
0000
0001
0000
0000
0000
,
0032
0000
1000
0203
1000
0302
1000
0000
,
0203
0000
0320
1130
0000
0011
1100
0011
1100
0011
1100
0000
1001
0000
0010
1000
,
0101
0000
0010
0000
1100
0000
0010
1000
0011
0000
1000
0000
0110
0000
1000
0010
,
0101
0000
1000
0000
0011
0000
1000
0010
1100
0000
0010
0000
0101
0000
1000
0010
,
1001
0000
0010
0000
1100
0000
0010
1000
0101
0000
1000
0000
0110
0000
1000
0010
,
0101
0000
1000
0000
0110
0000
1000
0010
1001
0000
1010
0000
0101
0000
1000
0010
,
1100
0000
0010
0000
1100
0000
0010
1000
0011
0000
1000
0000
0101
0000
0010
1000
,
0110
0000
1000
0000
0011
0000
1000
0010
1100
0000
0010
0000
1001
0000
0010
1000
,
0101
0000
1000
0000
0110
0000
1000
0010
1001
0000
0010
0000
1100
0000
0010
1000
,
0011
0000
1000
0000
0101
0000
0010
1000
0110
0000
1001
0000
0010
0000
0001
0000
,
0010
0000
0000
0100
0000
0000
1000
0000
0100
0000
0010
0000
0001
0000
0000
0010
,
0000
0000
0100
0000
0010
0000
0001
0000
0010
0000
0000
0100
0000
0000
1000
0000
,
0100
0000
0000
0000
0000
0000
0000
0000
0000
0000
0000
0000
0000
0000
0000
0000
0000
0000
0000
0000
0000
0000
0000
0000
0010
0000
0000
0000
0000
0000
0000
0000
0000
0000
0000
0000
0000
0000
0000
0000
0000
0000
0000
0000
0000
0000
0000
0000
0101
0000
0000
1000
0000
0000
0000
0000
0000
0000
0000
0000
0000
0000
0000
0000
0000
0000
0000
0000
0000
0000
0000
0000
0010
0000
0000
0000
0000
0000
0000
0000
0000
0100
0000
0000
0000
0000
0000
0000
0000
0000
0000
0000
0001
0000
0000
0000
0000
0000
0000
0000
0000
0000
0000
0000
0000
0000
0000
0000
0000
0000
0000
0000
0000
0000
0000
0000
0000
0000
0000
0000
1001
0000
0000
0000
0000
0000
0000
0000
0000
0000
0000
0000
0000
0000
0000
0000
0000
0000
0000
0000
0000
0000
0000
0000
0010
0000
0000
0000
0000
0000
0000
0000
0000
0000
0000
0000
0000
0000
0000
0000
0000
0000
0000
0000
0000
0000
0000
0000
0001
0000
0000
0000
0000
0000
0000
0000
0000
0000
0000
0000
0000
0000
0000
0000
0000
0000
0000
0000
0000
0000
0000
0000
,
1010
0000
0000
0100
1001
0000
1001
0000
0100
0000
0010
0000
0101
0000
0000
0010
,
0000
0000
0000
0000
1010
0000
0110
0000
0202
0000
0000
0303
2002
0000
0000
3003
1010
0000
0110
0000
0202
0000
0000
0303
2002
0000
0000
3003
1010
0000
0110
0000
,
0202
0000
0000
0000
0000
0000
0303
0000
2002
0000
0000
0000
0000
0000
3003
0000
1200
0010
0000
0000
0000
0000
0300
0000
0120
0000
0000
0000
0000
0000
0030
0000
0012
0000
0000
0000
0000
0000
0003
0000
2002
0000
0000
0000
3003
0000
0000
0000
0000
0000
0000
0000
0000
0000
0000
0000
1000
0000
0000
0000
0000
0000
0000
0000
,
1000
1000
1000
1000
1000
1100
1000
1000
,
1010
1000
1001
0000
0001
0001
0001
0001
,
0001
0001
0011
0001
0001
0101
0001
1001
,
0000
1000
1000
1000
1000
1000
1000
1100
,
1000
1000
1010
1000
1001
0000
0001
0001
,
0001
0000
0000
0000
0000
0000
0000
0000
0001
0000
0000
0000
0000
0000
0000
0000
0001
0000
0000
0000
0000
0000
0000
0000
0001
0000
0000
0000
0000
0000
0000
1100
0000
0000
0000
0000
0000
0000
0000
0000
0000
0000
0000
0000
0000
0000
0000
0000
0110
0000
0000
0000
0000
0000
0000
0000
0000
0000
0000
0000
0000
0000
0000
0000
,
0011
0000
0000
1000
0000
0100
0000
0001
,
0010
0100
1000
0000
0020
0000
0000
0000
,
0130
0000
1000
0000
0100
0000
0010
0000
0100
0000
0001
0000
0010
0001
0010
0100
,
1000
0010
0100
0010
0100
0001
0010
0100
1000
0001
0010
0100
0010
0001
0010
0100
,
1002
0000
0203
0320
0000
0000
2030
3002
,
0000
0000
0203
0320
0000
0000
2030
3000
,
1000
0000
0000
0000
0000
0000
0000
0000
0010
0000
0000
0000
0000
0000
0000
0000
0100
0000
0000
0000
0000
0000
0000
0000
0001
0000
0000
0000
0000
0000
0000
0000
1000
0000
0000
0000
0000
0000
0000
0000
0100
0000
0000
0000
0010
0000
0000
0000
0001
0000
0000
0000
0000
0000
1000
0000
0000
0000
0000
0000
0010
0000
0000
0000
0000
0000
0001
0000
0000
0000
0000
0000
0010
0000
0000
0000
0000
0000
0100
0000
0000
0000
0000
0000
1000
0000
0000
0000
0000
0000
0001
0000
0000
0000
0000
0000
0100
0000
0000
0000
0000
0000
0010
0000
0000
0000
0000
0000
1000
0000
0000
0000
0000
0000
0001
0000
0000
0000
0000
0000
0010
0000
0000
0000
0000
0000
0100
0000
0000
0000
0000
0000
0010
0000
0000
0000
0000
0000
0100
0000
0000
0000
0000
0000
1000
0000
0000
0000
0000
0000
0000
0000
0001
0000
0000
0000
0000
0000
0000
0000
0010
0000
0000
0000
0000
0000
0000
0000
0100
0000
0000
0000
0000
0000
0000
0000
1000
0000
0000
0000
0000
0000
0000
0000
0100
0000
0000
0000
0000
0000
0000
0000
,
0001
0000
0000
0000
0000
0000
0000
0000
0000
0000
0000
0000
0010
0000
0000
0000
0000
0000
0000
0000
0000
0000
0000
0000
0100
0000
0000
0000
0000
0000
0000
0000
0000
0000
0000
0000
1000
0000
0000
0000
0000
0000
0000
0000
0000
0000
0000
0000
0001
0000
0000
0000
0000
0000
0000
0000
0010
0000
0000
0000
0000
0000
0000
0000
0100
0000
0000
0000
0000
0000
0000
0000
0010
0000
0000
0000
0000
0000
0000
0000
0100
0000
0000
0000
0000
0000
0000
0000
1000
0000
0000
0000
0000
0000
0000
0000
0001
0000
0000
0000
0000
0000
0000
0000
0100
0000
0000
0000
0000
0000
0000
0000
0010
0000
0000
0000
0000
0000
0000
0000
0100
0000
0000
0000
0000
0000
0000
0000
0001
0000
0000
0000
0000
0000
0000
0000
1000
0000
0000
0000
0000
0000
0000
0000
0010
0000
0000
0000
0000
0000
0000
0000
0000
0000
0000
0000
0100
0000
0000
0000
0000
0000
0000
0000
0000
0000
0000
0000
0010
0000
0000
0000
0000
0000
0000
0000
0000
0100
0000
0000
0000
0000
0000
0000
0000
0000
1001
0000
0000
0000
0000
0000
,
0010
0000
0000
0000
0000
0000
0100
0000
0000
0000
0000
0000
1000
0000
0000
0000
0000
0000
0001
0000
0000
0000
0000
0000
0100
0000
0000
0000
0000
0000
0010
0000
0000
0000
0000
0000
1000
0000
0000
0000
0000
0000
0001
0000
0000
0000
0000
0000
0100
0000
0000
0000
0000
0000
0010
0000
0000
0000
0000
0000
0100
0000
0000
0000
0000
0000
0010
0000
0000
0000
0000
0000
1000
0000
0000
0000
0000
0000
0100
0000
0000
0000
0000
0000
0010
0000
0000
0000
0000
0000
0001
0000
0000
0000
0000
0000
0100
0000
0000
0000
0000
0000
0010
0000
0000
0000
0000
0000
1000
0000
0000
0000
0000
0000
0001
0000
0000
0000
0000
0000
0010
0000
0000
0000
0000
0000
0100
0000
0000
0000
0000
0000
1000
0000
0000
0000
0000
0000
0010
0000
0000
0000
0000
0000
0100
0000
0000
0000
0000
0000
0001
0000
0000
0000
0000
0000
0010
0000
0000
0000
0000
0000
0100
0000
0000
0000
0000
0000
1000
0000
0000
0000
0000
0000
0000
0000
0010
0000
0000
0000
0000
0000
0000
0200
0000
0000
0000
0000
0000
0000
0000
0000
,
0000
0000
0000
0000
0000
0000
0000
0000
0000
0000
0000
0000
0000
0000
0000
0000
0000
0000
0000
0300
0000
0000
0100
0000
0000
0000
0000
0000
0000
0000
0000
0000
0010
0002
0000
0000
0000
0000
0000
0000
0000
0000
0000
0000
0000
0000
0000
0003
1000
0000
0000
0000
0000
0000
0000
0000
0020
0000
0000
0000
0000
0000
0000
0000
,
0000
0000
0000
0000
0000
0000
0000
0000
0000
0000
0000
0000
0000
0000
0000
0000
0000
0000
0000
0000
0000
0000
0000
0000
0000
0000
0000
0000
0000
0000
0000
0000
0000
0000
0000
0000
0000
0000
0000
0000
0000
0000
0000
0000
0000
0000
0000
0000
0000
0000
0000
0000
0000
0000
0000
0000
0000
0000
0000
0000
0030
0000
0000
0000
0000
0000
0000
0000
0000
0000
0000
0000
0100
0000
0000
0000
0000
0000
0000
0000
0010
0000
0000
0000
0000
0000
0000
0000
0100
0000
0000
0000
0000
0000
0000
0000
1000
0000
0000
0000
0000
0000
0000
0000
0000
0002
0000
0000
0000
0000
0000
0000
0000
0000
0000
0000
0000
0000
0000
0000
0000
0000
0000
0000
0000
0000
0000
0000
0000
0000
0000
0000
0000
0000
0000
0000
0000
0000
0000
0000
0000
0000
0000
0000
0000
0000
0000
0000
0000
0000
0000
0000
0000
0000
0000
0000
0000
0000
0000
0000
0000
0000
0000
0000
0000
0000
0000
0000
0003
0000
0000
0000
0000
0000
0000
0000
0000
0000
0000
0000
0100
0000
0000
0000
0020
0000
0000
0000
0000
0000
0000
0000
,
0000
0000
0000
0031
0010
0100
1000
0000
0000
0001
0000
0000
0010
0000
0000
0100
0000
0000
0010
0000
0000
0001
0000
0000
,
1020
0000
0000
0000
0000
0000
0000
0000
0000
0000
0000
0000
0030
0000
0000
0001
0000
0010
0100
1000
0010
0100
0010
0100
,
0001
1000
0000
0100
0000
0001
0000
0100
0010
0001
0000
0100
0000
0010
0000
0100
0000
0010
0000
1000
0000
0100
0000
0001
,
0000
0020
0000
0000
0000
0000
0000
0000
0000
0000
0000
0000
0000
0000
0000
0000
0000
0000
0000
0000
0000
0000
0000
0000
,
0030
0001
1000
0100
0010
0001
1000
0000
0001
0010
0100
0000
0001
0000
0100
0000
0010
0000
0100
0000
1000
0000
0010
0000
,
1001
0000
0101
0000
1010
1010
1001
0100
,
0011
0000
0101
0010
1100
1100
1001
0010
,
0101
1000
0100
0010
0100
1000
0100
0001
0010
1000
0010
0001
0010
1000
0010
0001
,
1000
0100
1000
0010
1000
0100
1000
0010
0001
1000
0001
0100
0001
1000
0001
0100
,
1001
0000
0101
0000
1010
1010
1001
0010
,
1000
0000
0101
0000
1100
1100
1001
0010
,
1100
0001
0100
1000
0100
0001
0100
1000
0010
0001
0010
0100
0010
0001
0010
0100
,
1000
0001
1000
0010
1000
0001
1000
0010
0001
0100
0001
1000
0001
0100
0001
1000
,
0102
0000
1003
0000
1020
1000
0130
0000
,
1200
0000
1300
0000
1020
1030
0210
0300
,
0012
0000
1003
0000
1020
1000
0130
0000
,
0012
0000
0000
0000
0000
0000
1003
0000
0000
0000
0000
0000
0201
0000
0000
0300
0011
0000
1100
0000
0011
0000
1100
0000
,
0011
1000
0010
1100
0010
0100
0001
0010
0100
0011
0100
1000
,
0001
1000
0010
1100
0010
0100
0001
0010
0100
0011
0100
1000
,
0010
0100
0001
1010
0001
1000
0010
0100
0010
1100
0001
1000
,
0010
0100
0001
1010
0001
1000
0010
0100
0010
1100
0001
1000
,
0001
1000
0100
0011
0100
0010
0001
0100
0010
1100
0010
1000
,
0001
1000
0100
0011
0100
0010
0001
0100
0010
1100
0010
1000
,
0001
0100
0010
0101
0010
1000
0001
1000
0001
1100
0010
1000
,
0001
0100
0010
0101
0010
1000
0001
1000
0001
1100
0010
0100
,
0001
0010
0100
1010
0001
1000
0001
1000
0010
1100
0001
0100
,
0010
0100
0010
0101
1000
0001
1100
0000
0000
1001
0000
0000
,
0011
0000
0000
0000
;
