#TITLE:Trance Parys;
#SUBTITLE:;
#ARTIST:Johan Gielen;
#TITLETRANSLIT:;
#SUBTITLETRANSLIT:;
#ARTISTTRANSLIT:;
#CREDIT:;
#BANNER:TPjg.banner.jpg;
#BACKGROUND:TPJg.bg.jpg;
#LYRICSPATH:;
#CDTITLE:CDTITLE.jpg;
#MUSIC:Johan Gielen -Trance parys.MP3;
#OFFSET:-0.140;
#SAMPLESTART:140.220;
#SAMPLELENGTH:15.880;
#SELECTABLE:YES;
#BPMS:0.000=140.100;
#STOPS:;
#BGCHANGES:;
// cache tags:
#FIRSTBEAT:16.000;
#LASTBEAT:583.500;
#SONGFILENAME:Songs/Definitive Keyboard Megapack/Trance parys - Johan Gielen (Leone510)/Johan Gielen -Trance parys.sm;
#HASMUSIC:1;
#HASBANNER:1;
#MUSICLENGTH:251.511;
// end cache tags

//---------------dance-single - ----------------
#NOTES:
     dance-single:
     :
     Challenge:
     12:
     1.000,1.000,1.000,0.127,1.000,1564.000,420.000,32.000,0.000,0.000:

0000
0000
0000
0000
,
0000
0000
0000
0000
,
0000
0000
0000
0000
,
0000
0000
0000
0000
,
1000
0000
0001
0000
1010
0000
0100
0001
0010
0000
0100
1000
0000
0100
0010
0001
,
0000
0000
0001
0000
1100
0000
0100
0010
0001
0000
0001
0100
0000
0100
0010
1000
,
0000
0000
0100
0000
1001
0100
0000
0100
1000
0010
0100
0010
0000
0001
1000
0010
,
0001
1000
0100
0000
0001
0000
1000
0000
0001
0000
1000
1000
1000
0000
0001
0000
,
1010
0001
0100
0010
0100
1000
0101
0000
1001
0010
0100
1000
0011
0100
0010
1000
,
0011
0000
0101
0000
1100
0000
0100
0001
0110
1000
0010
0100
0000
0100
0001
1000
,
0000
0000
0101
0000
1001
0010
0001
0100
1010
0001
0100
0001
0000
0100
0010
0001
,
0000
0000
1100
0000
0101
0010
1000
0001
0110
1000
0100
0001
1010
0100
0001
0010
,
0100
0000
0101
0000
1010
0000
0100
0001
1010
0100
0001
0100
0000
0010
1000
0010
,
0000
0000
0110
0000
1001
0100
0001
0010
1100
0010
1001
0100
0000
0100
0001
0100
,
0000
0000
1100
0000
1001
0010
0001
0010
0101
1000
0100
0010
1100
0000
0100
0001
,
0100
0000
1001
0000
0110
0001
0010
0100
0011
0100
1000
0010
0101
1000
0010
0100
,
0000
0000
0101
0000
1100
0000
0100
0001
0110
1000
0010
0100
0000
0100
0001
1000
,
0000
0000
0101
0000
1001
0010
0001
0100
1010
0001
0100
0001
0000
0100
0010
0001
,
0000
0000
1100
0000
0101
0010
1000
0001
0110
1000
0100
0001
1010
0100
0001
0010
,
0100
0000
0101
0000
1010
0000
0100
0001
1010
0100
0001
0100
0000
0010
1000
0010
,
0000
0000
0110
0000
1001
0100
0001
0010
1100
0010
1001
0100
0000
0100
0001
0100
,
0000
0000
1100
0000
1001
0010
0001
0010
0101
1000
0100
0010
1100
0000
0100
0001
,
0100
0000
1001
0000
0110
0001
0010
0100
0011
0100
1000
0010
0101
1000
0010
0100
,
0000
0000
0101
0000
1100
0000
0100
0001
0110
1000
0010
0100
0000
0100
0001
1000
,
0000
0000
0101
0000
1001
0010
0001
0100
1010
0001
0100
0001
0000
0100
0010
0001
,
0000
0000
1100
0000
0101
0010
1000
0001
0110
1000
0100
0001
1010
0100
0001
0010
,
0100
0000
0101
0000
1010
0000
0100
0001
1010
0100
0001
0100
0000
0010
1000
0010
,
0000
0000
0110
0000
1001
0100
0001
0010
1100
0010
1001
0100
0000
0100
0001
0100
,
0000
0000
1100
0000
1001
0010
0001
0010
0101
1000
0100
0010
1100
0000
0100
0001
,
0100
0000
1001
0000
0110
0001
0010
0100
0011
0100
1000
0010
0101
1000
0010
0100
,
0000
0000
0101
0000
1100
0000
0100
0001
0110
1000
0010
0100
0000
0100
0001
1000
,
0000
0000
0101
0000
1001
0010
0001
0100
1010
0001
0100
0001
0000
0100
0010
0001
,
1100
0000
0000
0101
0000
0000
1001
0000
0000
0000
1100
0000
0000
0000
0001
0000
,
0100
0000
0011
0000
1000
0010
0000
1000
0010
0001
0000
0100
0000
0010
1000
0010
,
1001
0000
0000
0110
0000
0000
0101
0000
0000
0000
1010
0000
0000
0000
0010
0000
,
1000
0000
0101
0000
0100
0001
0000
1000
0100
0001
0000
0001
0000
0010
1000
0010
,
1100
0000
0000
0101
0000
0000
1001
0000
0000
0000
1100
0000
0000
0000
0001
0000
,
0100
0000
0011
0000
1000
0010
0000
1000
0010
0001
0000
0100
0000
0010
1000
0010
,
1001
0000
0000
0110
0000
0000
0101
0000
0000
0000
1010
0000
0000
0000
0010
0000
,
1000
0000
0101
0000
0100
0001
0000
1000
0100
0001
1000
0001
0100
0010
1000
0010
,
1001
0000
0000
1001
0000
0000
1001
0000
0000
0000
1001
0000
0000
0000
0000
0000
,
0000
0000
0000
0000
,
1001
0000
0000
1001
0000
0000
1001
0000
0000
0000
1001
0000
0000
0000
0000
0000
,
0000
0000
0000
0000
,
1001
0000
0000
1001
0000
0000
1001
0000
0000
0000
1001
0000
0000
0000
0000
0000
,
0000
0000
0000
0000
,
1001
0000
0000
1001
0000
0000
1001
0000
0000
0000
1001
0000
0000
0000
0000
0000
,
0000
0000
0000
0000
,
0000
0000
0000
2000
,
3002
2003
0000
0000
0000
3200
0000
0000
,
0000
0000
0000
0000
0000
0000
0000
0300
,
0000
0000
0000
0000
,
0002
0000
0000
0000
0000
0000
2003
0000
0000
0000
0000
0000
3002
0000
0000
0000
0000
0000
0000
0003
0002
0000
0000
0000
0000
0000
0000
0000
0000
0000
0000
0000
,
0000
0000
0000
0203
0000
0000
0000
2300
0000
0000
3200
0000
0000
0000
0320
0000
0000
0000
0000
0032
0000
0000
0000
0000
,
0203
0000
0000
0000
0000
2300
0000
0000
0000
0000
0000
0000
0000
3002
0000
0000
0000
0000
0000
0000
0000
0000
0000
0000
,
0000
0000
0000
0000
0003
0000
0000
0000
0000
0000
0000
0000
,
0000
0000
0000
2000
,
3002
2003
3200
0000
0320
0000
0000
0000
,
0000
0000
0000
0230
0000
0000
0000
0302
0000
0000
0000
0000
0000
0000
0000
0000
0000
0000
0000
2003
0000
0000
0000
0000
,
0000
0000
0000
0000
0000
0000
0000
3000
0000
0000
0000
0000
,
0000
0000
0000
0000
0000
0000
0000
0000
0000
0000
0020
0000
0000
0230
0000
0000
,
2300
0000
0000
0000
0000
3000
2000
0000
0000
0000
3002
0000
0000
0000
0000
0003
0002
0000
0000
0000
0203
0000
0000
0000
0000
0000
0000
0000
0000
0000
0000
0000
,
0000
0320
0000
0000
0000
0000
0000
0000
,
0000
0000
0000
0000
,
1030
0000
0000
0000
,
0000
0000
0000
0000
,
1010
0000
0000
0101
0000
0000
1001
0000
0000
0000
0101
0000
0100
0001
0100
0010
,
1000
0001
1100
0001
0000
0001
1010
0000
0000
0000
0101
0010
0001
1000
0001
0100
,
1000
0000
0100
1001
0000
1000
0101
0000
0000
0000
0101
0010
1000
0010
0001
0100
,
0001
0100
0001
1010
0000
0001
1010
0000
0000
0000
0101
1000
0001
0100
0010
0001
,
0100
1000
0001
1100
0000
0001
1010
0000
0000
0000
0101
1000
0010
0001
0100
0010
,
1000
0001
1000
0101
0000
1000
0101
0000
0000
0000
0001
0010
0100
0001
0100
1000
,
0010
0001
0010
1100
0000
0001
1010
0000
0000
0000
0100
0010
0001
0010
0100
0001
,
1000
0010
0100
0011
0000
0000
1010
0000
1001
0000
0101
0000
1001
0000
0101
0000
,
1000
0001
1000
0001
0100
0001
0010
1000
0010
0001
0100
0001
0010
1000
0001
1000
,
0001
0010
0100
1000
0001
0100
0001
0100
0010
1000
0001
0100
0010
1000
0001
0100
,
0001
1000
0001
0100
0001
0010
1000
0001
0010
0001
0010
0100
1000
0010
0100
1000
,
0001
1000
0001
0100
0001
0100
0001
0010
1000
0010
0100
0010
1000
0010
0001
0100
,
0001
0100
0001
0010
1000
0001
1000
0001
1000
0010
0001
0100
0010
0001
1000
0100
,
0001
0010
0001
0100
1000
0010
0001
0100
0001
1000
0010
0100
1000
0001
0100
0010
,
0001
1000
0001
1000
0001
0010
0100
1000
0001
0100
0001
0100
0001
0010
0100
1000
,
0110
0000
0000
1010
0000
0000
1010
0000
0101
0000
1001
0000
0101
0000
0110
0000
,
1010
0001
1000
0001
0110
0001
0010
1000
0110
0001
0100
0001
0110
1000
0001
1000
,
0101
0010
0100
1000
0011
0100
0001
0100
0011
1000
0001
0100
0011
1000
0001
0100
,
0011
1000
0001
0100
1001
0010
1000
0001
1010
0001
0010
0100
1001
0010
0100
1000
,
0101
1000
0001
0100
1001
0100
0001
0010
1100
0010
0100
0010
1001
0010
0001
0100
,
0011
0100
0001
0010
1100
0001
1000
0001
1100
0010
0001
0100
1010
0001
1000
0100
,
1001
0010
0001
0100
1001
0010
0001
0100
0011
1000
0010
0100
1010
0001
0100
0010
,
0101
1000
0001
1000
0101
0010
0100
1000
0011
0100
0001
0100
1001
0010
0100
1000
,
0110
0000
0000
1010
0000
0000
1010
0000
0101
0000
1001
0000
0101
0000
0110
0000
,
1010
0001
1000
0001
0110
0001
0010
1000
0110
0001
0100
0001
0110
1000
0001
1000
,
0101
0010
0100
1000
0011
0100
0001
0100
0011
1000
0001
0100
0011
1000
0001
0100
,
0011
1000
0001
0100
1001
0010
1000
0001
1010
0001
0010
0100
1001
0010
0100
1000
,
0101
1000
0001
0100
1001
0100
0001
0010
1100
0010
0100
0010
1001
0010
0001
0100
,
0011
0100
0001
0010
1100
0001
1000
0001
1100
0010
0001
0100
1010
0001
1000
0100
,
1001
0010
0001
0100
1001
0010
0001
0100
0011
1000
0010
0100
1010
0001
0100
0010
,
0101
1000
0001
1000
0101
0010
0100
1000
0011
0100
0001
0100
1001
0010
0100
1000
,
0110
0000
0000
1010
0000
0000
1010
0000
0101
0000
1001
0000
0101
0000
0110
0000
,
1010
0001
1000
0001
0110
0001
0010
1000
0110
0001
0100
0001
0110
1000
0001
1000
,
0101
0010
0100
1000
0011
0100
0001
0100
0011
1000
0001
0100
0011
1000
0001
0100
,
0011
1000
0001
0100
1001
0010
1000
0001
1010
0001
0010
0100
1001
0010
0100
1000
,
0101
1000
0001
0100
1001
0100
0001
0010
1100
0010
0100
0010
1001
0010
0001
0100
,
0011
0100
0001
0010
1100
0001
1000
0001
1100
0010
0001
0100
1010
0001
1000
0100
,
1001
0010
0001
0100
1001
0010
0001
0100
0011
1000
0010
0100
1010
0001
0100
0010
,
0101
1000
0001
1000
0101
0010
0100
1000
0011
0100
0001
0100
1001
0010
0100
1000
,
0110
0001
0010
1000
0100
0001
0010
0100
1000
0010
0001
1000
0100
0010
0001
0100
,
1010
0001
1000
0001
0110
0001
0010
1000
0110
0001
0100
0001
0110
1000
0001
1000
,
0101
0010
0100
1000
0011
0100
0001
0100
0011
1000
0001
0100
0011
1000
0001
0100
,
0011
1000
0001
0100
1001
0010
1000
0001
1010
0001
0010
0100
1001
0010
0100
1000
,
0101
1000
0001
0100
1001
0100
0001
0010
1100
0010
0100
0010
1001
0010
0001
0100
,
0011
0100
0001
0010
1100
0001
1000
0001
1100
0010
0001
0100
1010
0001
1000
0100
,
1001
0010
0001
0100
1001
0010
0001
0100
0011
1000
0010
0100
1010
0001
0100
0010
,
0101
1000
0001
1000
0101
0010
0100
1000
0011
0100
0001
0100
1001
0010
0100
1000
,
0110
0001
0110
1000
0101
1000
0011
0100
,
1010
0001
1000
0001
0110
0001
0010
1000
0110
0001
0100
0001
0110
1000
0001
1000
,
0101
0010
0100
1000
0011
0100
0001
0100
0011
1000
0001
0100
0011
1000
0001
0100
,
0011
1000
0001
0100
1001
0010
1000
0001
1010
0001
0010
0100
1001
0010
0100
1000
,
0101
1000
0001
0100
1001
0100
0001
0010
1100
0010
0100
0010
1001
0010
0001
0100
,
0011
0100
0001
0010
1100
0001
1000
0001
1100
0010
0001
0100
1010
0001
1000
0100
,
1001
0010
0001
0100
1001
0010
0001
0100
0011
1000
0010
0100
1010
0001
0100
0010
,
0101
1000
0001
1000
0101
0010
0100
1000
0011
0100
0001
0100
1001
0010
0100
1000
,
0110
0000
0000
1010
0000
0000
1010
0000
0101
0000
1001
0000
0101
0000
0110
0000
,
1010
0001
1000
0001
0110
0001
0010
1000
0110
0001
0100
0001
0110
1000
0001
1000
,
0101
0010
0100
1000
0011
0100
0001
0100
0011
1000
0001
0100
0011
1000
0001
0100
,
0011
1000
0001
0100
1001
0010
1000
0001
1010
0001
0010
0100
1001
0010
0100
1000
,
0101
1000
0001
0100
1001
0100
0001
0010
1100
0010
0100
0010
1001
0010
0001
0100
,
0011
0100
0001
0010
1100
0001
1000
0001
1100
0010
0001
0100
1010
0001
1000
0100
,
1001
0010
0001
0100
1001
0010
0001
0100
0011
1000
0010
0100
1010
0001
0100
0010
,
0101
1000
0001
1000
0101
0010
0100
1000
0011
0100
0001
0100
1001
0010
0100
1000
,
0110
0000
0000
1010
0000
0000
1010
0000
0101
0000
1001
0000
0101
0000
0110
0000
,
1010
0001
1000
0001
0110
0001
0010
1000
0110
0001
0100
0001
0110
1000
0001
1000
,
0101
0010
0100
1000
0011
0100
0001
0100
0011
1000
0001
0100
0011
1000
0001
0100
,
0011
1000
0001
0100
1001
0010
1000
0001
1010
0001
0010
0100
1001
0010
0100
1000
,
0101
1000
0001
0100
1001
0100
0001
0010
1100
0010
0100
0010
1001
0010
0001
0100
,
0011
0100
0001
0010
1100
0001
1000
0001
1100
0010
0001
0100
1010
0001
1000
0100
,
1001
0010
0001
0100
1001
0010
0001
0100
0011
1000
0010
0100
1010
0001
0100
0010
,
0101
1000
0001
1000
0101
0010
0100
1000
0011
0100
0001
0100
1001
0010
0100
1000
,
0110
0001
0110
1000
0101
1000
0011
0100
,
1001
0100
0011
0100
1001
0010
1100
0010
,
1010
0001
0110
1000
0101
1000
0011
0100
,
1001
0100
0011
0100
1001
0010
1100
0010
,
1010
0001
0110
1000
0101
1000
0011
0100
,
1001
0100
0011
0100
1001
0010
1100
0010
,
1010
0001
0110
1000
0101
1000
0011
0100
,
1001
0100
0011
0100
1001
0010
1100
0010
,
1010
0100
0001
0000
0000
0000
0000
0000
;

//---------------dance-single - Copied from----------------
#NOTES:
     dance-single:
     Copied from:
     Hard:
     11:
     0.958,0.957,0.517,0.127,1.000,1524.000,130.000,32.000,0.000,0.000:
0000
0000
0000
0000
,
0000
0000
0000
0000
,
0000
0000
0000
0000
,
0000
0000
0000
0000
,
1000
0000
0001
0000
1000
0000
0100
0001
0010
0000
0100
0000
1000
0000
0010
0000
,
0100
0000
0001
0000
1000
0000
0100
0010
0001
0000
0001
0000
0100
0000
0010
0000
,
1000
0000
0100
0000
0001
0000
1000
0100
1000
0010
0100
0010
0000
0001
1000
0010
,
0001
1000
0100
0000
0001
0000
1000
0000
0001
0000
1000
1000
1000
0000
0001
0000
,
1000
0001
0100
0010
0100
1000
0001
0000
1000
0010
0100
1000
0001
0100
0010
1000
,
0010
0000
0101
0000
1100
0000
0100
0001
0100
1000
0010
0100
0000
0100
0001
1000
,
0000
0000
0101
0000
1000
0010
0001
0100
1000
0001
0100
0001
0000
0100
0010
0001
,
0000
0000
1100
0000
0001
0010
1000
0001
0010
1000
0100
0001
1000
0100
0001
0010
,
0100
0000
0101
0000
1010
0000
0100
0001
1000
0100
0001
0100
0000
0010
1000
0010
,
0000
0000
0110
0000
0001
0100
0001
0010
1000
0010
0001
0100
0000
0100
0001
0100
,
0000
0000
1100
0000
1000
0010
0001
0010
0001
1000
0100
0010
0100
0000
0100
0001
,
0100
0000
1001
0000
0010
0001
0010
0100
0001
0100
1000
0010
0001
1000
0010
0100
,
0000
0000
0101
0000
1100
0000
0100
0001
0100
1000
0010
0100
0000
0100
0001
1000
,
0000
0000
0101
0000
1000
0010
0001
0100
1000
0001
0100
0001
0000
0100
0010
0001
,
0000
0000
1100
0000
0001
0010
1000
0001
0010
1000
0100
0001
1000
0100
0001
0010
,
0100
0000
0101
0000
1010
0000
0100
0001
1000
0100
0001
0100
0000
0010
1000
0010
,
0000
0000
0110
0000
0001
0100
0001
0010
1000
0010
0001
0100
0000
0100
0001
0100
,
0000
0000
1100
0000
1000
0010
0001
0010
0001
1000
0100
0010
0100
0000
0100
0001
,
0100
0000
1001
0000
0010
0001
0010
0100
0001
0100
1000
0010
0001
1000
0010
0100
,
0000
0000
0101
0000
1100
0000
0100
0001
0100
1000
0010
0100
0000
0100
0001
1000
,
0000
0000
0101
0000
1000
0010
0001
0100
1000
0001
0100
0001
0000
0100
0010
0001
,
0000
0000
1100
0000
0001
0010
1000
0001
0010
1000
0100
0001
1000
0100
0001
0010
,
0100
0000
0101
0000
1010
0000
0100
0001
1000
0100
0001
0100
0000
0010
1000
0010
,
0000
0000
0110
0000
0001
0100
0001
0010
1000
0010
0001
0100
0000
0100
0001
0100
,
0000
0000
1100
0000
1000
0010
0001
0010
0001
1000
0100
0010
0100
0000
0100
0001
,
0100
0000
1001
0000
0010
0001
0010
0100
0001
0100
1000
0010
0001
1000
0010
0100
,
0000
0000
0101
0000
1100
0000
0100
0001
0100
1000
0010
0100
0000
0100
0001
1000
,
0000
0000
0101
0000
1000
0010
0001
0100
1000
0001
0100
0001
0000
0100
0010
0001
,
1100
0000
0000
1001
0000
0000
1001
0000
0000
0000
0101
0000
0000
0000
0001
0000
,
0100
0000
0001
0000
1000
0000
0100
0000
1000
0100
0001
0100
0010
0000
1000
0000
,
0001
0000
0100
0000
1001
0000
0000
1010
0000
0000
0101
0000
0000
0000
0101
0000
,
0000
0000
1000
0000
1000
0000
0001
0000
0010
1000
0100
0010
0100
0000
0100
0001
,
0100
0000
1001
0000
0011
0000
0000
1100
0000
0000
1010
0000
0000
0000
1010
0000
,
0100
0000
0011
0000
1000
0010
0000
1000
0010
0001
0000
0100
0000
0010
1000
0010
,
1001
0000
0000
0110
0000
0000
0101
0000
0000
0000
1010
0000
0000
0000
0010
0000
,
1000
0000
0101
0000
0100
0001
0000
1000
0100
0001
1000
0001
0100
0010
1000
0010
,
1001
0000
0000
1001
0000
0000
1001
0000
0000
0000
1001
0000
0000
0000
0000
0000
,
0000
0000
0000
0000
,
1001
0000
0000
1001
0000
0000
1001
0000
0000
0000
1001
0000
0000
0000
0000
0000
,
0000
0000
0000
0000
,
1001
0000
0000
1001
0000
0000
1001
0000
0000
0000
1001
0000
0000
0000
0000
0000
,
0000
0000
0000
0000
,
1001
0000
0000
1001
0000
0000
1001
0000
0000
0000
1001
0000
0000
0000
0000
0000
,
0000
0000
0000
0000
,
0000
0000
0000
2000
,
3002
2003
0000
0000
0000
3200
0000
0000
,
0000
0000
0000
0000
0000
0000
0000
0300
,
0000
0000
0000
0000
,
0002
0000
0000
0000
0000
0000
2003
0000
0000
0000
0000
0000
3002
0000
0000
0000
0000
0000
0000
0003
0002
0000
0000
0000
0000
0000
0000
0000
0000
0000
0000
0000
,
0000
0000
0000
0203
0000
0000
0000
2300
0000
0000
3200
0000
0000
0000
0320
0000
0000
0000
0000
0032
0000
0000
0000
0000
,
0203
0000
0000
0000
0000
2300
0000
0000
0000
0000
0000
0000
0000
3002
0000
0000
0000
0000
0000
0000
0000
0000
0000
0000
,
0000
0000
0000
0000
0003
0000
0000
0000
0000
0000
0000
0000
,
0000
0000
0000
2000
,
3002
2003
3200
0000
0320
0000
0000
0000
,
0000
0000
0000
0230
0000
0000
0000
0302
0000
0000
0000
0000
0000
0000
0000
0000
0000
0000
0000
2003
0000
0000
0000
0000
,
0000
0000
0000
0000
0000
0000
0000
3000
0000
0000
0000
0000
,
0000
0000
0000
0000
0000
0000
0000
0000
0000
0000
0020
0000
0000
0230
0000
0000
,
2300
0000
0000
0000
0000
3000
2000
0000
0000
0000
3002
0000
0000
0000
0000
0003
0002
0000
0000
0000
0203
0000
0000
0000
0000
0000
0000
0000
0000
0000
0000
0000
,
0000
0320
0000
0000
0000
0000
0000
0000
,
0000
0000
0000
0000
,
1030
0000
0000
0000
,
0000
0000
0000
0000
,
1010
0000
0000
0101
0000
0000
1001
0000
0000
0000
0101
0000
0100
0000
0100
0000
,
1000
0000
0000
1001
0000
0000
1010
0000
0000
0000
0101
0000
0001
0000
0001
0000
,
1000
0000
0000
1001
0000
0000
0101
0000
0000
0000
0101
0000
1000
0000
0001
0000
,
0001
0000
0000
1010
0000
0000
1010
0000
0000
0000
0101
0000
0001
0000
0001
0000
,
0100
0000
0000
1100
0000
0000
1010
0000
0000
0000
0101
0000
0010
0000
0100
0000
,
1000
0000
0000
0101
0000
0000
0101
0000
0000
0000
0101
0000
0100
0000
0100
0000
,
0010
0000
0000
1100
0000
0000
1010
0000
0000
0000
1100
0000
0001
0000
0100
0000
,
1000
0000
0000
0011
0000
0000
1010
0000
1001
0000
0101
0000
1001
0000
0101
0000
,
1000
0001
1000
0001
0100
0001
0010
1000
0010
0001
0100
0001
0010
1000
0001
1000
,
0001
0010
0100
1000
0001
0100
0001
0100
0010
1000
0001
0100
0010
1000
0001
0100
,
0001
1000
0001
0100
0001
0010
1000
0001
0010
0001
0010
0100
1000
0010
0100
1000
,
0001
1000
0001
0100
0001
0100
0001
0010
1000
0010
0100
0010
1000
0010
0001
0100
,
0001
0100
0001
0010
1000
0001
1000
0001
1000
0010
0001
0100
0010
0001
1000
0100
,
0001
0010
0001
0100
1000
0010
0001
0100
0001
1000
0010
0100
1000
0001
0100
0010
,
0001
1000
0001
1000
0001
0010
0100
1000
0001
0100
0001
0100
0001
0010
0100
1000
,
0110
0000
0000
1010
0000
0000
1010
0000
0101
0000
1001
0000
0101
0000
0110
0000
,
1000
0001
1000
0001
0100
0001
0010
1000
0010
0001
0100
0001
0010
1000
0001
1000
,
0001
0010
0100
1000
0001
0100
0001
0100
0010
1000
0001
0100
0010
1000
0001
0100
,
0001
1000
0001
0100
0001
0010
1000
0001
0010
0001
0010
0100
1000
0010
0100
1000
,
0001
1000
0001
0100
0001
0100
0001
0010
1000
0010
0100
0010
1000
0010
0001
0100
,
0001
0100
0001
0010
1000
0001
1000
0001
1000
0010
0001
0100
0010
0001
1000
0100
,
0001
0010
0001
0100
1000
0010
0001
0100
0001
1000
0010
0100
1000
0001
0100
0010
,
0001
1000
0001
1000
0001
0010
0100
1000
0001
0100
0001
0100
0001
0010
0100
1000
,
0110
0000
0000
1010
0000
0000
1010
0000
0101
0000
1001
0000
0101
0000
0110
0000
,
1000
0001
1000
0001
0100
0001
0010
1000
0010
0001
0100
0001
0010
1000
0001
1000
,
0001
0010
0100
1000
0001
0100
0001
0100
0010
1000
0001
0100
0010
1000
0001
0100
,
0001
1000
0001
0100
0001
0010
1000
0001
0010
0001
0010
0100
1000
0010
0100
1000
,
0001
1000
0001
0100
0001
0100
0001
0010
1000
0010
0100
0010
1000
0010
0001
0100
,
0001
0100
0001
0010
1000
0001
1000
0001
1000
0010
0001
0100
0010
0001
1000
0100
,
0001
0010
0001
0100
1000
0010
0001
0100
0001
1000
0010
0100
1000
0001
0100
0010
,
0001
1000
0001
1000
0001
0010
0100
1000
0001
0100
0001
0100
0001
0010
0100
1000
,
0110
0000
0000
1010
0000
0000
1010
0000
0101
0000
1001
0000
0101
0000
0110
0000
,
1000
0001
1000
0001
0100
0001
0010
1000
0010
0001
0100
0001
0010
1000
0001
1000
,
0001
0010
0100
1000
0001
0100
0001
0100
0010
1000
0001
0100
0010
1000
0001
0100
,
0001
1000
0001
0100
0001
0010
1000
0001
0010
0001
0010
0100
1000
0010
0100
1000
,
0001
1000
0001
0100
0001
0100
0001
0010
1000
0010
0100
0010
1000
0010
0001
0100
,
0001
0100
0001
0010
1000
0001
1000
0001
1000
0010
0001
0100
0010
0001
1000
0100
,
0001
0010
0001
0100
1000
0010
0001
0100
0001
1000
0010
0100
1000
0001
0100
0010
,
0001
1000
0001
1000
0001
0010
0100
1000
0001
0100
0001
0100
0001
0010
0100
1000
,
0100
0001
0100
0000
1000
0001
1000
0000
0001
0010
1000
0000
0001
1000
0010
0000
,
1000
0001
1000
0001
0100
0001
0010
1000
0010
0001
0100
0001
0010
1000
0001
1000
,
0001
0010
0100
1000
0001
0100
0001
0100
0010
1000
0001
0100
0010
1000
0001
0100
,
0001
1000
0001
0100
0001
0010
1000
0001
0010
0001
0010
0100
1000
0010
0100
1000
,
0001
1000
0001
0100
0001
0100
0001
0010
1000
0010
0100
0010
1000
0010
0001
0100
,
0001
0100
0001
0010
1000
0001
1000
0001
1000
0010
0001
0100
0010
0001
1000
0100
,
0001
0010
0001
0100
1000
0010
0001
0100
0001
1000
0010
0100
1000
0001
0100
0010
,
0001
1000
0001
1000
0001
0010
0100
1000
0001
0100
0001
0100
0001
0010
0100
1000
,
0110
0001
1000
0010
0001
1000
0001
0100
,
1000
0001
1000
0001
0100
0001
0010
1000
0010
0001
0100
0001
0010
1000
0001
1000
,
0001
0010
0100
1000
0001
0100
0001
0100
0010
1000
0001
0100
0010
1000
0001
0100
,
0001
1000
0001
0100
0001
0010
1000
0001
0010
0001
0010
0100
1000
0010
0100
1000
,
0001
1000
0001
0100
0001
0100
0001
0010
1000
0010
0100
0010
1000
0010
0001
0100
,
0001
0100
0001
0010
1000
0001
1000
0001
1000
0010
0001
0100
0010
0001
1000
0100
,
0001
0010
0001
0100
1000
0010
0001
0100
0001
1000
0010
0100
1000
0001
0100
0010
,
0001
1000
0001
1000
0001
0010
0100
1000
0001
0100
0001
0100
0001
0010
0100
1000
,
0110
0000
0000
1010
0000
0000
1010
0000
0101
0000
1001
0000
0101
0000
0110
0000
,
1000
0001
1000
0001
0100
0001
0010
1000
0010
0001
0100
0001
0010
1000
0001
1000
,
0001
0010
0100
1000
0001
0100
0001
0100
0010
1000
0001
0100
0010
1000
0001
0100
,
0001
1000
0001
0100
0001
0010
1000
0001
0010
0001
0010
0100
1000
0010
0100
1000
,
0001
1000
0001
0100
0001
0100
0001
0010
1000
0010
0100
0010
1000
0010
0001
0100
,
0001
0100
0001
0010
1000
0001
1000
0001
1000
0010
0001
0100
0010
0001
1000
0100
,
0001
0010
0001
0100
1000
0010
0001
0100
0001
1000
0010
0100
1000
0001
0100
0010
,
0001
1000
0001
1000
0001
0010
0100
1000
0001
0100
0001
0100
0001
0010
0100
1000
,
0110
0000
0000
1010
0000
0000
1010
0000
0101
0000
1001
0000
0101
0000
0110
0000
,
1000
0001
1000
0001
0100
0001
0010
1000
0010
0001
0100
0001
0010
1000
0001
1000
,
0001
0010
0100
1000
0001
0100
0001
0100
0010
1000
0001
0100
0010
1000
0001
0100
,
0001
1000
0001
0100
0001
0010
1000
0001
0010
0001
0010
0100
1000
0010
0100
1000
,
0001
1000
0001
0100
0001
0100
0001
0010
1000
0010
0100
0010
1000
0010
0001
0100
,
0001
0100
0001
0010
1000
0001
1000
0001
1000
0010
0001
0100
0010
0001
1000
0100
,
0001
0010
0001
0100
1000
0010
0001
0100
0001
1000
0010
0100
1000
0001
0100
0010
,
0001
1000
0001
1000
0001
0010
0100
1000
0001
0100
0001
0100
0001
0010
0100
1000
,
0110
0001
1000
0010
0001
1000
0001
0100
,
0001
0100
0001
0100
1000
0010
0100
0010
,
1000
0001
0100
1000
0001
1000
0010
0100
,
1000
0100
0010
0001
1000
0010
0001
1000
,
0001
0100
0001
0100
0001
0100
1000
0010
,
0100
0010
1000
0001
0100
1000
0001
1000
,
0010
0100
1000
0100
0010
0001
1000
0010
,
0001
1000
0001
0100
0001
0100
0001
0100
,
1000
0010
0100
0010
1000
0001
0100
1000
;
