#TITLE:IF YOU WERE HERE;
#SUBTITLE:(B4 ZA BEAT Mix);
#ARTIST:Jennifer;
#TITLETRANSLIT:;
#SUBTITLETRANSLIT:;
#ARTISTTRANSLIT:;
#CREDIT:;
#BANNER:;
#BACKGROUND:;
#LYRICSPATH:;
#CDTITLE:;
#MUSIC:(Jennifer) Dance Dance Revolution 4th MIX Original Soundtrack [22] IF YOU Were Here(B4 ZA Beat Mix).mp3;
#OFFSET:0.000;
#SAMPLESTART:41.000;
#SAMPLELENGTH:12.000;
#SELECTABLE:YES;
#BPMS:0.000=170.000;
#STOPS:;
#BGCHANGES:;
// cache tags:
#FIRSTBEAT:4.500;
#LASTBEAT:257.500;
#SONGFILENAME:Songs/IzzySM Keyboard Mega Pack/IF YOU WERE HERE(B4 ZA Beat Mix)/IF YOU WERE HERE(B4 ZA Beat Mix).sm;
#HASMUSIC:1;
#HASBANNER:0;
#MUSICLENGTH:91.506;
// end cache tags

//---------------dance-single - b4 za beat mix----------------
#NOTES:
     dance-single:
     b4 za beat mix:
     Hard:
     10:
     1.000,1.000,1.000,0.066,0.896,592.000,112.000,6.000,0.000,0.000:

0000
0000
0000
0000
,
0000
0000
0010
0000
1000
0100
0000
1000
0100
0000
0010
0000
0001
0100
0000
0001
,
0100
0000
0010
0000
1000
0100
0000
1000
0100
0000
0011
0000
0101
0000
1100
0000
,
1010
0000
0100
0000
0001
0010
0000
0001
0010
0000
0100
0000
1000
0010
0000
1000
,
0010
0000
0100
0010
1000
0001
1000
0000
0100
0000
1000
0001
1000
0001
2000
0000
,
0000
0000
3001
0000
0100
0000
0001
0000
0010
0001
0000
1001
0000
1000
0100
0010
,
0100
0000
1000
0000
0010
0000
1000
0000
0100
1000
0000
1001
0000
0001
0010
0100
,
1000
0000
0001
0000
0010
0000
0001
0000
0100
0001
0000
1001
0000
1000
0010
0100
,
0001
0000
1000
0100
1000
0000
0101
0000
1000
0100
0000
0011
0000
1010
0000
0100
,
0010
0000
0001
0000
0010
0000
1000
0000
0010
0001
0000
0110
0000
1000
0100
0001
,
0010
0000
0001
0000
0100
0000
1000
0000
0100
0001
0000
0110
0000
0001
0010
1000
,
0100
0000
1000
0000
0001
0000
1000
0000
0010
0100
0000
1001
0000
0001
0100
0010
,
1000
0000
0001
0100
0001
0000
1100
0000
0001
0100
0000
1010
0000
0011
0000
0100
,
0010
0000
1000
0010
0100
0000
0001
0000
1000
0000
0100
0010
0001
0000
0100
0000
,
0010
0000
0100
0001
0010
0000
0001
0000
1000
0000
0100
1000
0010
0000
1000
0000
,
0001
0000
0001
0010
0100
0000
1000
0100
0010
0000
0100
0010
0001
0000
0010
0100
,
1000
0000
0010
1000
0001
0000
1000
0001
0010
0000
0100
0000
0010
0000
0001
0000
,
0010
0000
0100
1000
0010
0000
0100
0000
0001
0000
1000
0100
0001
0000
0100
0000
,
1000
0000
0001
0100
1000
0000
0100
0000
0001
0000
0010
0001
0100
0000
0010
0000
,
1000
0000
0001
0010
1000
0000
1000
0100
0001
0000
0001
0010
1000
0000
1000
0100
,
0001
0000
1000
0010
0001
0100
1000
0000
0010
0000
0001
0000
1000
0000
1000
0000
,
1000
0001
1010
0011
1010
0011
0101
0011
,
0101
1100
0011
1100
0011
1010
0101
1010
,
0101
0000
1000
0100
0010
0001
0100
0010
1000
0000
0001
0010
0100
1000
0010
0100
,
0001
0000
1000
0010
0100
0001
0010
0100
1000
0000
0001
0100
0010
1000
0100
0010
,
0001
1000
0011
1010
0011
1010
1100
1010
,
1100
0101
1010
0101
1010
1100
0011
1100
,
0011
0000
0100
0010
0100
0010
0001
0100
0010
1000
0001
0010
0100
1000
0001
0100
,
0010
1000
0100
0010
0000
0000
0010
0001
0000
0000
0100
0010
0000
0000
0010
1000
,
0000
0001
0010
0100
0001
0100
0010
0001
,
1000
0001
0100
0010
0001
0010
0100
0001
,
0001
0001
1000
0000
0110
0000
1001
0000
,
0110
0000
1000
0010
0100
0000
0001
0010
,
0100
1000
0010
0100
1000
0100
0010
1000
,
0001
1000
0100
0010
1000
0010
0100
1000
,
1000
1000
0001
1000
1001
0000
0100
0110
,
1001
0000
0010
0110
1001
0000
0101
1100
,
0000
0000
0010
1000
0001
1000
0100
0000
0001
0100
0000
1001
0000
0100
0010
0001
,
1000
0000
0001
0010
0001
1000
0001
0000
0100
0010
0000
1001
0000
0100
0010
1000
,
0001
0000
0010
0001
0100
1000
0100
0000
0001
0010
0000
1001
0000
0100
1000
0010
,
0001
0000
0010
0100
0010
0000
1010
0000
1000
0100
0000
0011
0000
1100
0000
0010
,
0001
0100
0001
0010
0100
0010
0001
0000
1000
0010
0000
1001
0000
0010
1000
0001
,
0100
0000
0000
0000
0010
0000
0100
0000
0010
0000
0000
0000
1001
0000
0000
0000
1000
0100
0010
0001
1000
0000
0000
0000
0011
0000
0000
0000
1010
0000
0000
0000
,
1001
0000
1000
0010
0001
0010
1000
0000
0100
0001
0000
1001
0000
0100
1000
0010
,
0001
0000
0010
1000
0100
0001
0010
0001
0100
1000
0010
0001
0100
0001
0010
1000
,
0100
0001
0000
0000
0000
0000
0011
0000
1100
0000
0101
0000
1010
0000
0101
0000
,
1010
0101
1001
0110
1001
0110
1001
1100
,
0101
0000
0010
1000
0100
0010
0001
0100
0010
0000
1000
0010
0100
0001
1000
0100
,
0010
0000
0100
1000
0010
0100
0001
0010
0100
0000
0010
0001
0100
1000
0100
0001
,
0010
0100
1100
0011
1010
0101
1010
0101
,
1010
0110
1001
0110
1001
0110
0011
0101
,
1100
0000
0010
0100
0010
0100
0010
1000
0100
0010
0001
1000
0010
0100
0001
1000
,
0100
0010
0001
0100
0000
0000
0100
0010
0000
0000
1000
0100
0000
0000
0100
0010
,
0000
0001
0010
0100
1000
0100
0010
0001
,
1000
0010
0001
0010
1000
0010
0001
0010
,
0010
0010
0100
0000
1001
0000
0011
0000
,
1001
0000
1010
0100
1000
0001
0010
0100
,
0100
0100
0001
0100
1000
0001
0100
1000
,
0100
0001
0010
1000
0010
0001
0100
0010
,
0010
0010
1000
0001
1100
0000
0001
1000
,
0101
0000
0010
0110
1001
0000
1001
0110
,
0000
1002
0000
0103
0000
2001
0100
3200
,
0000
0010
0010
0010
0310
0110
0000
0110
,
0000
2002
0000
0000
0000
0000
0000
0000
,
0000
0000
0000
3003
0000
0000
0000
0000
,;
