#TITLE:Living Dead Beat;
#SUBTITLE:Are You Dead Yet? (2005);
#ARTIST:Children of Bodom;
#TITLETRANSLIT:;
#SUBTITLETRANSLIT:;
#ARTISTTRANSLIT:;
#CREDIT:;
#BANNER:living dead-banner.png;
#BACKGROUND:living dead-bg.png;
#LYRICSPATH:;
#CDTITLE:melonman67.png;
#MUSIC:Children of Bodom - Living Dead Beat.mp3;
#OFFSET:0.500;
#SAMPLESTART:33.584;
#SAMPLELENGTH:11.980;
#SELECTABLE:YES;
#BPMS:0.000=130.000;
#STOPS:;
#BGCHANGES:;
// cache tags:
#FIRSTBEAT:2.000;
#LASTBEAT:637.000;
#SONGFILENAME:Songs/Astronomic Metal Collection/Living dead (melonman67)/Living dead.sm;
#HASMUSIC:1;
#HASBANNER:1;
#MUSICLENGTH:320.243;
// end cache tags

//---------------dance-single - Copied from Blank----------------
#NOTES:
     dance-single:
     Copied from Blank:
     Challenge:
     11:
     1.000,1.000,0.656,0.422,1.000,2024.000,210.000,135.000,0.000,0.000:
0000
0000
0000
0000
1000
0100
0110
0100
,
1000
0100
0110
0100
1000
0100
0110
0100
,
1000
0100
0110
0010
0001
0010
0110
0010
,
0001
0010
0110
0010
0001
0100
0110
0100
,
0001
0100
0110
0100
0010
1000
1100
1000
,
0010
1000
1100
1000
0001
0100
0011
0100
,
0001
0100
0011
0001
0010
0010
0001
0001
,
0100
0100
0010
0010
1000
1000
0010
0010
,
1000
1000
0100
0100
0010
0010
0001
0001
,
0100
0100
0010
0010
1000
1000
0010
0010
,
0001
0001
0010
0010
1010
1010
0001
0001
,
0100
0100
0010
0010
1000
1000
0010
0010
,
1000
1000
0100
0100
0110
0110
0001
0001
,
0100
0100
0010
0010
1000
1000
0010
0010
,
0001
0000
0001
0000
0010
0000
0010
0000
0100
0001
0010
0100
0000
1000
0001
0100
,
0010
0010
0100
0100
0010
0010
1000
1000
,
0100
0000
0100
0000
0010
0000
0010
0000
0001
1000
0001
0010
0000
0100
1000
0001
,
0010
0100
0000
0000
0000
0000
0000
0000
1000
0100
0010
0100
1000
0100
0010
0100
,
0010
0001
0010
0100
0010
0001
0010
0001
1000
1000
0001
0001
0100
0100
0010
0010
,
1000
1000
0100
0100
0010
0010
0100
0100
1000
1000
0001
0001
0100
0100
0010
0010
,
0100
0100
0001
0001
0010
0010
0100
0100
1000
1000
0100
0100
0010
0010
0001
0001
,
1000
1000
0010
0010
0100
0100
0001
0001
0010
0010
0001
0001
1000
1000
0100
0010
,
0001
0001
1000
0100
0001
0100
1000
0001
1000
1000
0001
0001
0100
0100
0010
0010
,
1000
1000
0100
0100
0001
0001
0100
0100
1000
1000
0001
0001
0100
0100
0010
0010
,
0100
0100
0001
0001
0010
0010
0100
0100
1000
1000
0100
0100
0010
0010
0001
0001
,
1000
1000
0010
0010
0100
0100
0001
0001
0010
0010
0001
0001
1000
1000
0100
0010
,
0001
0001
1000
0100
0001
0100
1000
0001
1000
0000
0001
0200
0000
0310
2000
0000
,
3001
0010
0100
2000
0000
3100
0010
0000
0011
0000
0001
0201
0000
0310
2010
0000
,
3001
0010
0100
1000
0001
0100
0010
1000
0001
0000
1000
0200
0000
0310
0002
0000
,
1003
0001
0100
0020
0000
1030
0002
0000
1003
0001
0010
0100
0001
0100
1000
0010
,
0100
0001
0010
0001
1000
0010
0100
0001
0010
0000
0100
2000
0000
3100
0020
0000
,
0031
1000
0010
0200
0000
0301
0010
0000
0011
0000
0001
2001
0000
3010
0210
0000
,
0310
1000
0100
0010
0001
1000
0100
0010
0100
0000
1000
0002
0000
0103
0020
0000
,
1030
0100
0010
0200
0000
1300
0100
1000
0100
0001
0100
1000
0001
1000
0100
0001
,
0100
1000
0001
1000
0100
0001
0100
1000
0010
0010
0100
0001
0010
0100
1000
0100
,
0010
0001
0010
0000
0001
0100
0001
0000
0000
1000
0010
1000
0001
0100
0010
1000
,
0001
0010
0001
0000
1000
0001
0010
0100
1000
0001
1000
0010
0100
0001
1000
0001
,
1000
0010
0100
0000
0001
0010
0100
0000
0000
1000
0100
0010
0001
1000
0010
0100
,
0001
1000
0100
0000
0001
0001
0001
0001
0100
1000
0010
0100
0001
0010
0100
1000
,
0010
0100
0001
0000
0010
0100
1000
0000
0000
0100
0010
0100
0020
0000
0030
0010
,
0001
1000
0001
0000
0100
0001
0100
0000
0000
0001
1000
0010
0100
0001
1000
0001
,
1000
0010
0100
0000
0001
0010
0100
0000
0000
1000
0100
0010
0001
1000
0010
0100
,
0001
1000
0100
0000
0001
0001
0001
0001
0100
1000
0010
0100
0001
0010
0100
1000
,
0010
0100
0001
0000
0010
0100
1000
0000
0000
0100
0010
0100
0010
0000
0000
0001
,
1000
0000
0010
0000
0100
0001
0100
0010
1000
0000
0001
0200
0000
0310
2000
0000
,
3001
0010
0100
2000
0000
3100
0010
0000
0011
0000
0001
0201
0000
0310
2010
0000
,
3001
0010
0100
1000
0001
0100
0010
1000
0001
0000
1000
0200
0000
0310
0002
0000
,
1003
0001
0100
0020
0000
1030
0002
0000
1003
0001
0010
0100
0001
0100
1000
0010
,
0100
0001
0010
0000
0100
0000
1000
0001
1000
0000
0010
0000
0100
0000
0001
0000
0010
0000
0010
0000
0100
0000
1000
0000
0001
0000
1000
0000
0010
0000
0100
0000
,
0001
0001
0010
0000
0100
0100
1000
0000
0000
1000
1000
0010
0100
0001
1000
0010
,
1000
1000
0001
0000
0010
0010
0010
0010
0100
0100
1000
0010
0100
0001
0010
0100
,
1000
1000
0010
0000
0100
0100
0010
0000
0000
1000
0100
0010
0002
0000
0000
1003
,
0001
0100
0010
0000
1000
0010
1000
0000
1000
0000
1001
0000
0001
0101
0000
0000
,
1010
1000
0100
0000
0010
0001
1000
0000
0000
0001
0100
0010
1000
0001
0010
0100
,
1000
0001
1000
0000
0001
0001
0001
0001
1000
0010
0100
0001
0022
0000
0000
0033
,
0001
1000
0010
0000
0100
0001
1000
0000
0000
1000
0100
1000
0002
0000
0000
0003
,
1000
0010
0202
0303
0001
0010
2200
3300
2002
0000
0000
0000
3003
0000
1001
0000
,
2020
0000
0000
0000
3030
0000
1010
0000
1000
1000
0022
0033
1000
1000
0022
0033
,
1000
1000
0100
0010
0002
0000
0000
0003
2020
0000
0000
0000
3030
0000
1010
0000
,
2200
0000
0000
0000
3300
0000
1100
0000
1000
1000
0100
0010
0001
0001
0100
0010
,
1000
1000
0010
0100
0002
0003
0020
0030
2200
0000
0000
0000
3300
0000
1100
0000
,
0220
0000
0000
0000
0330
0000
0100
0000
1000
1000
0002
0000
1003
1000
0002
0000
,
1003
0100
1000
0100
0001
0001
0001
0001
0100
1000
0010
1000
0001
1000
0010
1000
,
0100
1000
0010
1000
0001
1000
0010
1000
0100
1000
0010
1000
0001
1000
0010
1000
,
0001
0010
0100
1000
0100
0001
0100
1000
1001
0000
1001
0000
1000
0010
0000
1000
,
1010
0000
1010
0000
1000
0001
0000
1000
1001
0000
1001
0000
1000
0100
0000
1000
,
0100
0010
0100
0002
0003
0100
1000
0001
1010
0000
1010
0000
1000
0010
0000
0010
,
0101
0000
0101
0000
0001
1000
0000
0001
1001
0000
1001
0000
1010
0101
0000
0101
,
0011
0000
0011
0000
1001
1100
0000
0110
1001
0000
1001
0000
1000
0010
0000
1000
,
1010
0000
1010
0000
1000
0100
0010
0100
1001
0000
1001
0000
1000
0100
0000
1000
,
0100
0010
0100
0002
0003
0100
1000
0001
1010
0000
1010
0000
1000
0010
0000
0010
,
0110
0000
0110
0000
0100
0001
0000
0001
1001
0000
1001
0000
1010
0101
0000
0101
,
0011
0000
0011
0000
1001
1100
0000
0000
1001
1000
0010
0010
0100
0100
0010
0010
,
1000
1000
0100
0100
0010
0010
0100
0100
1000
1000
0001
0001
0010
0010
0100
0100
,
0010
0010
0001
0001
1000
1000
0001
0001
0100
0100
0010
0010
1000
1000
0001
0001
,
0100
0100
0001
0001
0010
0010
0100
0100
1000
1000
0010
0010
1000
1000
0001
0001
,
0100
0100
0010
0010
1000
1000
0001
0001
0010
0010
0100
0100
0010
0010
0001
0010
,
0100
0100
1000
0100
0001
0100
1000
0001
1000
1000
0001
0001
0010
0010
0100
0100
,
0010
0010
0001
0001
1000
1000
0001
0001
0100
0100
0010
0010
1000
1000
0001
0001
,
0100
0100
0001
0001
0010
0010
0100
0100
1000
1000
0010
0010
1000
1000
0001
0001
,
0100
0100
0010
0010
1000
1000
0001
0001
0010
0010
0100
0100
0010
0010
0001
0010
,
0100
0100
1000
0100
0001
0100
1000
0001
0000
0000
1001
0000
0000
1001
0000
0000
,
1001
0001
0000
1000
0010
0100
0001
0000
0000
1000
0010
1000
0100
0010
0100
1000
,
0001
1000
0010
0000
0100
0100
0100
0100
0010
1000
0001
1000
0100
0001
0100
1000
,
0001
1000
0010
0000
0100
0001
1000
0000
0000
0001
1000
0001
1000
0000
0000
0000
,
1000
0100
0010
0000
0100
0010
0001
0000
1000
0000
0011
0000
0000
0110
0000
0000
,
1100
1000
0010
0000
0010
0100
0001
0000
0000
0001
1000
0100
1000
0010
0100
0001
,
0010
0100
1000
0000
0001
0001
0001
0001
1000
0001
0100
0010
0202
0000
0000
0303
,
0001
1000
0100
0000
0010
0100
1000
0000
0000
0100
0010
0001
2000
0000
0000
3000
,
1002
0003
1000
0100
0010
0100
0010
0001
1001
0000
1001
0000
0001
0010
0000
0001
,
0101
0000
0101
0000
0001
0010
0000
0001
1001
0000
1001
0000
0001
0010
0000
0001
,
0010
0100
0010
2000
3000
0010
0001
1000
0101
0000
0101
0000
0001
0100
0000
0100
,
1010
0000
1010
0000
1000
0001
0000
1000
1001
0000
1001
0000
0101
1010
0000
1010
,
1100
0000
1100
0000
1001
0011
0000
0110
1001
0000
1001
0000
0001
0100
0000
0001
,
0101
0000
0101
0000
0001
0010
0100
0010
1001
0000
1001
0000
0001
0010
0000
0001
,
0010
0100
0010
2000
3000
0010
0001
1000
0101
0000
0101
0000
0001
0100
0000
0100
,
0110
0000
0110
0000
0010
1000
0000
1000
1001
0000
1001
0000
0101
1010
0000
1010
,
1100
0000
1100
0000
1001
1100
0000
0000
1000
1000
0022
0033
1000
1000
0022
0033
,
1000
0100
0010
0100
0000
0000
0001
0100
1000
1000
0022
0033
1000
1000
0022
0033
,
1000
0100
0010
0100
0000
0000
0001
0100
1000
0100
0022
0033
1000
0100
0022
0033
,
1000
0100
0010
0100
1000
0100
0001
0100
1000
0010
0202
0303
1000
0010
0202
0303
,
1000
0010
0100
0010
1000
0010
0001
0010
1000
0001
0220
0330
1000
0001
0220
0330
,
1000
0001
0100
0001
1000
0001
0010
0001
1000
0100
0022
0033
1000
0100
0022
0033
,
1000
0100
0010
0100
1000
0100
0001
0100
1000
0001
0100
0010
0100
0001
0010
0100
,
0010
0001
0010
0100
1000
0100
0010
0001
1000
0010
0100
0010
1000
0010
0100
0001
,
0100
0010
0100
0001
0010
0100
1000
0010
0100
0001
0010
0100
1000
0001
1000
0001
,
0100
0010
0100
0001
1000
0010
1000
0001
0100
0001
0010
0100
1000
0100
1000
0001
,
0010
0001
1000
0001
0000
0000
1001
0000
0001
1000
0100
0010
0001
1000
0100
0010
,
0001
1000
0010
1000
0001
0010
0100
0010
0001
1000
0100
0010
0001
1000
0100
0010
,
0001
1000
0010
1000
0001
0010
0100
0010
0001
0010
0100
0010
0100
1000
0100
0010
,
0001
0100
0010
0100
0001
0010
0100
0010
0001
1000
0100
0010
0001
1000
0100
0010
,
0001
0010
0100
0000
0010
0100
1000
0000
0001
1000
0100
0010
0001
1000
0100
0010
,
0001
1000
0010
1000
0001
0010
0100
0010
0001
1000
0100
0010
0001
1000
0100
0010
,
0001
1000
0010
1000
0001
0010
0100
0010
0001
0010
0100
0010
0100
1000
0100
0010
,
0001
0100
0010
0100
0001
0010
0100
0010
0001
1000
0100
0010
0001
1000
0100
0010
,
0001
0000
0000
0010
0000
0000
0100
0000
0000
0000
0000
0000
0010
0000
0000
0100
0000
0000
1000
0000
0000
0000
0000
0000
0001
0000
0000
0010
0000
0000
0100
0000
0000
0000
0000
0000
0010
0000
0000
0100
0000
0000
1000
0000
0100
0000
0010
0000
,
0001
0010
0100
1000
0100
0010
0001
0010
0100
1000
0100
0010
0001
0010
0100
1000
0100
0010
0001
0010
0100
1000
0100
0010
,
0002
0000
0000
0000
0000
0000
0003
0000
1000
0100
0220
0330
0010
0001
2002
3003
,
0001
1000
0010
0100
0001
0010
0100
1000
0100
0010
0022
0033
0001
0100
0220
0330
,
0010
1000
0001
0010
0100
0010
0001
1000
0100
0010
0022
0033
0001
0100
0202
0303
,
0001
1000
0100
0010
0001
0010
0100
1000
0100
0010
0220
0330
0100
1000
2002
3003
,
0001
0000
0000
1000
0000
0000
0010
0000
0000
0100
0000
0000
0001
0000
0000
0010
0000
0000
0100
0000
0000
1000
0000
0000
0100
0000
0010
0000
0001
0000
1000
0000
0001
0000
0010
0000
0200
0000
0000
0000
0000
0000
1300
0000
0100
0000
0010
0000
,
0001
0010
0100
2000
0000
0000
3001
1000
0001
0100
0010
1000
0200
0000
0000
0310
0001
0010
0100
1000
0100
2000
0000
0000
,
3001
0100
0010
1000
0100
0010
0002
0000
0000
0000
0000
0000
1003
0010
0100
0001
0010
0100
1000
0001
0100
0010
1000
0100
,
0010
0000
0001
0000
1000
0000
0001
0000
0100
0000
0010
0000
1000
0000
0100
0000
0010
0000
0001
0000
0010
0000
0100
0000
1000
0000
0000
0000
0000
0000
0100
0000
0000
0010
0000
0000
0000
0000
0000
0001
0000
0000
0010
0000
0000
0000
0000
0000
,
0000
0000
0000
0200
0000
0000
0000
0000
0000
0000
0000
0000
0000
0000
0000
0000
0000
0000
0000
0000
0000
0000
0000
0000
1300
0000
0010
0000
0100
0000
0001
0000
0010
0000
0100
0000
1000
0000
0010
0000
0100
0000
0001
0000
0010
0000
0100
0000
,
0010
0001
1000
0001
0100
0010
1000
0010
0100
0001
0010
0100
1000
0001
0100
0010
1000
0100
0010
0001
0010
0200
0000
0000
,
0000
0000
0000
0000
0000
0000
2300
0000
0000
0000
0000
0000
0000
0000
0000
0001
0000
0000
0000
0000
0000
3000
0000
0000
0001
0000
0100
0000
0001
0000
0100
0000
0010
0000
0100
0000
0010
0000
1000
0000
0010
0000
1000
0000
0100
0000
1000
0000
,
0100
0010
0100
0010
0001
0010
0001
1000
0001
1000
0010
1000
0010
0100
0001
0010
0100
1000
0100
0010
0001
1000
0001
0100
,
0010
1000
0100
0010
0001
1000
0001
0100
0010
0100
0001
0010
0100
1000
0100
0010
0100
1000
0010
0100
0001
0010
0100
0010
,
0001
1000
0001
0100
0010
0001
1000
0010
0100
0001
0010
0100
0010
0100
1000
0010
0100
0001
0010
0001
1000
0100
1000
0010
,
0100
0001
1000
0001
0100
0001
0010
0001
0010
0100
1000
0100
0010
0001
1000
0010
1000
0001
1000
0100
1000
0010
0100
0001
,
0010
0100
0010
0001
1000
0001
0100
0010
1000
0010
0100
0001
0100
0010
1000
0100
0010
0001
0010
0100
0010
0001
1000
0100
,
0010
0000
0000
0001
0000
0000
1000
0000
0000
0010
0000
0000
0100
0000
0000
0001
0000
0000
0010
0000
0000
0100
0000
0000
2000
0000
0000
0000
0000
0000
0000
0000
0000
0000
0000
0000
3001
0000
0000
0000
0000
0000
0010
0000
0100
0000
1000
0000
,
0001
0000
0001
0000
0010
0100
1000
0100
0010
0001
0010
0100
0010
0001
1000
0010
,
0100
0000
0000
0001
0000
0000
0010
0000
0000
0100
0000
0000
1000
0000
0000
0001
0000
0000
0100
0000
0000
0010
0000
0000
1000
0000
0100
0000
0010
0000
0001
0000
0000
0010
0000
0000
0100
0000
0000
1000
0000
0000
0010
0000
0000
0100
0000
0000
,
0001
0010
0100
1000
0010
0100
0010
1000
0100
0010
0001
0010
1000
0010
0001
1000
,
0010
0100
0001
0010
0100
1000
0100
0010
0001
0000
0010
0000
0001
0000
0010
0000
,
0100
0000
1000
0000
0100
0000
1000
0000
0100
0100
0220
0330
0010
0010
0022
0033
,
0001
1000
0010
0100
0202
0000
0303
0000
0001
0000
0100
0000
0001
0000
0100
0000
,
0010
0000
1000
0000
0010
0000
1000
0000
0100
0100
0010
0001
1000
1000
0100
0010
,
0001
0001
1000
0100
0022
0033
2200
3300
0011
0000
0011
0000
0011
0000
0011
0000
,
1100
0000
1100
0000
1100
0000
1100
0000
1000
1000
0022
0033
1000
1000
0022
0033
,
1000
1000
0010
0100
0001
0001
0001
0001
0001
1000
0010
1000
0100
1000
0010
1000
,
0001
1000
0010
1000
0100
1000
0010
1000
0001
1000
0010
1000
0100
1000
0010
1000
,
0001
0010
0100
1000
0001
0100
0010
1000
1001
0000
1001
0000
1000
0100
0000
1000
,
1010
0000
1010
0000
1000
0100
0000
1000
1001
0000
1001
0000
1000
0100
0000
1000
,
0100
0010
0100
0002
0003
0100
1000
0001
1010
0000
1010
0000
1000
0010
0000
0010
,
0101
0000
0101
0000
0001
1000
0000
0001
1001
0000
1001
0000
1010
0101
0000
0101
,
0011
0000
0011
0000
1001
1100
0000
0110
1001
0000
1001
0000
1000
0010
0000
1000
,
1010
0000
1010
0000
1000
0100
0010
0100
1001
0000
1001
0000
1000
0100
0000
1000
,
0100
0010
0100
0002
0003
0100
1000
0001
1010
0000
1010
0000
1000
0010
0000
0010
,
0110
0000
0110
0000
0100
0001
0000
0001
1001
0000
1001
0000
1010
0101
0000
0101
,
0011
0000
0011
0000
1001
0011
0000
0000
1002
0000
1000
0000
0010
0000
0010
0000
,
0100
0100
1000
1000
0100
0100
0010
0010
,
1000
0000
1000
0000
0100
0000
0103
0000
1002
0003
1002
0003
0001
0000
0001
0000
,
0010
0000
0010
0000
0100
0000
0100
0000
1000
0001
1000
0010
0000
0100
0001
0010
,
0100
0220
0000
0000
0000
0000
0000
0000
0000
0000
0000
0000
0000
0000
0000
0000
,
0000
0000
0000
0000
,
0000
0330
0000
0000
;
