#TITLE:Respectful Potential;
#SUBTITLE:;
#ARTIST:X Kirby;
#TITLETRANSLIT:;
#SUBTITLETRANSLIT:;
#ARTISTTRANSLIT:;
#CREDIT:;
#BANNER:../banner.png;
#BACKGROUND:../bg.png;
#LYRICSPATH:;
#CDTITLE:;
#MUSIC:Respectful Potential.ogg;
#OFFSET:-0.843;
#SAMPLESTART:2.015;
#SAMPLELENGTH:19.400;
#SELECTABLE:YES;
#BPMS:0.000=200.005;
#STOPS:;
#BGCHANGES:;
// cache tags:
#FIRSTBEAT:4.000;
#LASTBEAT:460.000;
#SONGFILENAME:Songs/Cirque du Lykan/Respectful Potential - [Zaia]/Respectful Potential.sm;
#HASMUSIC:1;
#HASBANNER:1;
#MUSICLENGTH:141.270;
// end cache tags

//---------------dance-single - Zaia - 14(low-mid)----------------
#NOTES:
     dance-single:
     Zaia - 14(low-mid):
     Challenge:
     14:
     1.000,1.000,0.000,0.234,1.000,1296.000,0.000,33.000,0.000,0.000:
0000
0000
0000
0000
,
1000
0000
0001
0000
1000
0010
0100
0010
1000
0000
0001
0000
1000
0100
0010
0100
,
1000
0000
0010
0000
0100
0010
1000
0010
0100
0000
0001
0000
0010
0100
1000
0001
,
0100
0000
0010
0000
0100
0001
1000
0100
0010
0000
0001
0000
1000
0001
0010
0001
,
1000
0000
0010
0000
0100
0001
0010
0100
1000
0000
0001
0000
1000
0010
0100
0010
,
1000
0001
0010
0100
1000
0010
0100
0001
,
1000
0100
1000
0010
1000
0100
0010
0001
,
1000
0001
0100
0001
0010
0001
1000
0001
,
0010
0100
1000
0100
0010
0001
0100
0001
,
1000
0000
0001
0000
1000
0100
0010
0100
1000
0000
0001
0000
1000
0010
0100
0010
,
1000
0000
0100
0000
0010
0100
1000
0100
0010
0000
0001
0000
0100
0010
1000
0001
,
0010
0000
0100
0000
0010
0001
1000
0010
0100
0000
0001
0000
1000
0001
0100
0001
,
1000
0000
0100
0000
0010
0001
0100
0010
1000
0000
0001
0000
1000
0100
0010
0100
,
1000
0001
0100
0010
1000
0100
0010
0001
,
1000
0010
1000
0100
1000
0010
0100
0001
,
1000
0001
0010
0001
0100
0001
1000
0001
,
0100
0010
1000
0010
0100
0001
0010
0001
,
1000
0000
0200
0300
1000
0000
0002
0003
1000
0000
0020
0030
1000
0000
0002
0003
,
0200
0300
0001
0000
2000
3000
0001
0000
0020
0030
0001
0000
0200
0300
0001
0000
,
1000
0100
0010
0001
1000
0010
0100
0001
,
0010
0100
1000
0100
0010
0001
1000
0010
,
0200
0300
0001
0000
2000
3000
0001
0000
0020
0030
0001
0000
2000
3000
0100
0000
,
1000
0000
0002
0003
1000
0000
0020
0030
1000
0000
0200
0300
1000
0000
0002
0003
,
0100
0010
1000
0001
0010
0100
1000
0010
,
0100
0001
0100
0010
1000
0100
0010
0001
,
1000
0000
0020
0030
1000
0000
0002
0003
1000
0000
0200
0300
1000
0000
0002
0003
,
0020
0030
0001
0000
2000
3000
0001
0000
0200
0300
0001
0000
0020
0030
0001
0000
,
1000
0010
0100
0001
1000
0100
0010
0001
,
0100
0010
1000
0010
0100
0001
1000
0100
,
0020
0030
0001
0000
2000
3000
0001
0000
0200
0300
0001
0000
2000
3000
0010
0000
,
1000
0000
0002
0003
1000
0000
0200
0300
1000
0000
0020
0030
1000
0000
0002
0003
,
0010
0100
1000
0001
0100
0010
1000
0100
,
0010
0001
0100
0010
1000
0001
0010
0100
,
1000
0001
0010
0001
0100
0010
1000
0001
1000
0100
0010
0100
1000
0001
0100
0010
,
1000
0001
0100
0001
0010
0100
1000
0001
1000
0010
0100
0010
1000
0001
0010
0100
,
1000
0010
0100
0001
1000
0010
1000
0001
0010
0100
1000
0001
1000
0010
0100
0001
,
1000
0100
0010
0100
1000
0001
1000
0010
1000
0001
0010
0100
1000
0010
0100
0001
,
1000
0010
1000
0100
0010
0001
1000
0001
0100
0010
0100
0001
1000
0100
0010
0001
,
1000
0100
1000
0010
0100
0001
1000
0001
0010
0100
0010
0001
1000
0010
0100
0001
,
0010
0100
1000
0001
0010
0001
1000
0010
0100
0001
1000
0001
0010
0100
1000
0001
,
0100
0010
0100
0001
1000
0001
0010
0001
1000
0010
0100
0001
0010
0100
1000
0010
,
1000
0001
0100
0001
0010
0100
1000
0001
1000
0010
0100
0010
1000
0001
0010
0100
,
1000
0001
0010
0001
0100
0010
1000
0001
1000
0100
0010
0100
1000
0001
0100
0010
,
1000
0100
0010
0001
1000
0100
1000
0001
0100
0010
1000
0001
1000
0100
0010
0001
,
1000
0010
0100
0010
1000
0001
1000
0100
1000
0001
0100
0010
1000
0100
0010
0001
,
1000
0100
1000
0010
0100
0001
1000
0001
0010
0100
0010
0001
1000
0010
0100
0001
,
1000
0010
1000
0100
0010
0001
1000
0001
0100
0010
0100
0001
1000
0100
0010
0001
,
0100
0010
1000
0001
0100
0001
1000
0100
0010
0001
1000
0001
0100
0010
1000
0001
,
0010
0100
0010
0001
1000
0001
0100
0001
1000
0100
0010
0001
0100
0010
1000
0001
,
0100
0010
0100
0001
0100
0010
1000
0100
,
0010
0001
0010
0100
0010
0001
0010
0100
,
1000
0010
1000
0100
0010
0001
1000
0010
,
0100
0000
0001
0000
1000
0000
0100
0000
0010
0001
0100
0010
1000
0000
0000
0000
,
0010
1000
0001
1000
0100
1000
0010
1000
0001
0010
0100
1000
0100
0010
0001
0100
,
0001
1000
0001
0010
0001
0100
0001
1000
0010
0100
0001
0100
0010
1000
0001
0010
,
0100
1000
0001
1000
0100
1000
0010
1000
0001
0010
0100
1000
0100
0010
0001
0100
,
0001
1000
0001
0100
0001
0010
0100
1000
0010
0100
0001
0100
0010
1000
0001
1000
,
0100
0010
0001
0100
0010
1000
0100
0010
,
0001
1000
0010
0100
0001
0010
0100
1000
,
0001
0100
0010
1000
0100
0010
0001
1000
,
0010
0000
0100
0000
0001
0000
1000
0000
0100
0010
0001
1000
0010
0100
0001
1000
,
0100
0010
0001
1000
0001
0100
0010
1000
0100
0010
0001
0100
0010
0100
0001
0010
,
0100
0010
0001
1000
0001
0100
0010
1000
0100
0010
0001
0100
0010
1000
0001
0010
,
0100
0010
0001
1000
0100
0010
0001
1000
0010
0100
0001
1000
0001
0100
0010
1000
,
0001
0010
0001
0100
0010
1000
0001
0010
0001
1000
0100
1000
0010
0100
0001
1000
,
0001
0000
0010
0100
0010
0000
0001
0000
1000
0000
0010
0100
0010
0000
1000
0000
,
0001
0000
0010
0100
0010
0000
0001
0000
1000
0000
0010
0100
0010
0000
1000
0000
,
0001
0100
0010
1000
0100
0010
0100
1000
,
0001
0100
0010
1000
0001
0100
0001
0010
,
0100
0000
1000
0001
1000
0000
0010
0000
0100
0000
0001
1000
0001
0000
0010
0000
,
0100
0000
1000
0001
1000
0000
0010
0000
0100
0000
0001
1000
0001
0000
0010
0000
,
0100
0010
0001
0100
0010
1000
0001
0100
,
0001
0010
0100
1000
0001
0100
0010
1000
,
0100
0000
1000
0010
1000
0000
0100
0000
0010
0000
0001
0100
0001
0000
0010
0000
,
0100
0000
1000
0010
1000
0000
0100
0000
0010
0000
0001
0100
0001
0000
0010
0000
,
0100
1000
0010
0100
0001
1000
0100
0010
,
0001
0100
0010
1000
0100
1000
0010
0100
,
0001
0000
1000
0100
1000
0000
0010
0000
0100
0000
0001
0010
0001
0000
0100
0000
,
0010
0000
1000
0100
1000
0000
0010
0000
0100
0000
0001
0010
0001
0000
0100
0000
,
0010
1000
0100
0010
0001
1000
0010
0100
,
0001
0010
0100
1000
0010
1000
0100
0010
,
0001
1000
0010
1000
0001
0010
0001
1000
0100
0010
0001
1000
0001
0100
0010
1000
,
0001
0100
0001
1000
0010
1000
0001
1000
0001
0010
0100
0010
0001
1000
0001
0100
,
0010
1000
0010
0100
0001
1000
0001
0010
0100
0010
0001
1000
0001
0100
0010
1000
,
0001
0010
0001
1000
0001
1000
0100
0010
0100
1000
0001
1000
0001
0100
0010
1000
,
0001
0100
0001
1000
0001
1000
0100
1000
0010
0100
0001
1000
0100
1000
0001
0010
,
0001
0100
0010
1000
0001
1000
0100
0010
0001
1000
0001
0100
0010
1000
0001
0100
,
0001
1000
0001
1000
0010
0100
0010
1000
0001
0010
0001
0010
0100
1000
0100
1000
,
0001
0100
0010
1000
0001
0010
0100
0010
0001
0100
0010
1000
0001
1000
0001
0010
,
0001
1000
0100
0010
0001
1000
0010
0100
0001
1000
0100
0010
0100
1000
0001
1000
,
0010
0100
0001
0010
0001
0100
0010
1000
0100
1000
0001
1000
0100
0010
0001
0100
,
0010
1000
0100
0010
0001
0100
0010
0100
0001
1000
0001
0010
0100
1000
0001
1000
,
0010
0100
0001
1000
0010
1000
0001
1000
0001
0010
0001
1000
0100
0010
0001
1000
,
0010
0000
0100
0000
0010
0000
0100
0000
0010
1000
0100
0010
0001
0000
0100
0000
,
0010
1000
0100
1000
0001
0010
0001
0100
0010
1000
0100
1000
0001
0010
0001
0100
,
0010
1000
0100
0010
0100
1000
0010
0100
0001
0010
0001
0100
0010
1000
0100
1000
,
0001
0100
0010
1000
0001
0010
0001
1000
0010
0100
0001
0010
0001
1000
0100
0010
,
0001
0000
1000
0000
0001
0100
0010
0100
0001
0000
1000
0000
0001
0010
0100
0010
,
0001
0000
0100
0000
0010
0100
0001
0100
0010
0000
1000
0000
0100
0010
0001
1000
,
0010
0000
0100
0000
0010
1000
0001
0010
0100
0000
1000
0000
0001
1000
0100
1000
,
0001
0000
0100
0000
0010
1000
0100
0010
0001
0000
1000
0000
0001
0100
0010
0100
,
0001
1000
0100
0010
0001
0100
0010
1000
,
0001
0010
0001
0100
0001
0010
0100
1000
,
0001
1000
0010
1000
0100
1000
0001
1000
,
0100
0010
0001
0010
0100
1000
0010
1000
,
0001
0000
1000
0000
0001
0010
0100
0010
0001
0000
1000
0000
0001
0100
0010
0100
,
0001
0000
0010
0000
0100
0010
0001
0010
0100
0000
1000
0000
0010
0100
0001
1000
,
0100
0000
0010
0000
0100
1000
0001
0100
0010
0000
1000
0000
0001
1000
0010
1000
,
0001
0000
0010
0000
0100
1000
0010
0100
0001
0000
1000
0000
0001
0010
0100
0010
,
0001
1000
0010
0100
0001
0010
0100
1000
,
0001
0100
0001
0010
0001
0100
0010
1000
,
0001
1000
0100
1000
0010
1000
0001
1000
,
0010
0100
0001
0100
0010
1000
0100
1000
,
0002
0000
0000
0000
,
0000
0000
0000
0000
,
0003
0000
0000
0000
;

//---------------dance-single - Zaia - 12(high)----------------
#NOTES:
     dance-single:
     Zaia - 12(high):
     Hard:
     12:
     1.000,1.000,0.000,0.319,0.920,1145.000,0.000,45.000,0.000,0.000:
0000
0000
0000
0000
,
1000
0000
0001
0000
1000
0010
0100
0010
1000
0000
0001
0000
1000
0100
0010
0100
,
1000
0000
0010
0000
0100
0010
1000
0010
0100
0000
0001
0000
0010
0100
1000
0001
,
0100
0000
0010
0000
0100
0001
1000
0100
0010
0000
0001
0000
1000
0001
0010
0001
,
1000
0000
0010
0000
0100
0001
0010
0100
1000
0000
0001
0000
1000
0010
0100
0010
,
1000
0001
0010
0100
1000
0010
0100
0001
,
1000
0100
1000
0010
1000
0100
0010
0001
,
1000
0001
0100
0001
0010
0001
1000
0001
,
0010
0100
1000
0100
0010
0001
0100
0001
,
1000
0000
0001
0000
1000
0100
0010
0100
1000
0000
0001
0000
1000
0010
0100
0010
,
1000
0000
0100
0000
0010
0100
1000
0100
0010
0000
0001
0000
0100
0010
1000
0001
,
0010
0000
0100
0000
0010
0001
1000
0010
0100
0000
0001
0000
1000
0001
0100
0001
,
1000
0000
0100
0000
0010
0001
0100
0010
1000
0000
0001
0000
1000
0100
0010
0100
,
1000
0001
0100
0010
1000
0100
0010
0001
,
1000
0010
1000
0100
1000
0010
0100
0001
,
1000
0001
0010
0001
0100
0001
1000
0001
,
0100
0010
1000
0010
0100
0001
0010
0001
,
1000
0000
0200
0300
1000
0000
0002
0003
1000
0000
0020
0030
1000
0000
0002
0003
,
0200
0300
0001
0000
2000
3000
0001
0000
0020
0030
0001
0000
0200
0300
0001
0000
,
1000
0100
0010
0001
1000
0010
0100
0001
,
0010
0100
1000
0100
0010
0001
1000
0010
,
0200
0300
0001
0000
2000
3000
0001
0000
0020
0030
0001
0000
2000
3000
0100
0000
,
1000
0000
0002
0003
1000
0000
0020
0030
1000
0000
0200
0300
1000
0000
0002
0003
,
0100
0010
1000
0001
0010
0100
1000
0010
,
0100
0001
0100
0010
1000
0100
0010
0001
,
1000
0000
0020
0030
1000
0000
0002
0003
1000
0000
0200
0300
1000
0000
0002
0003
,
0020
0030
0001
0000
2000
3000
0001
0000
0200
0300
0001
0000
0020
0030
0001
0000
,
1000
0010
0100
0001
1000
0100
0010
0001
,
0100
0010
1000
0010
0100
0001
1000
0100
,
0020
0030
0001
0000
2000
3000
0001
0000
0200
0300
0001
0000
2000
3000
0010
0000
,
1000
0000
0002
0003
1000
0000
0200
0300
1000
0000
0020
0030
1000
0000
0002
0003
,
0010
0100
1000
0001
0100
0010
1000
0100
,
0010
0001
0100
0010
1000
0001
0010
0100
,
1000
0001
0010
0001
0100
0010
1000
0001
1000
0100
0010
0100
1000
0001
0100
0010
,
1000
0001
0100
0001
0010
0100
1000
0001
1000
0010
0100
0010
1000
0001
0010
0100
,
1000
0010
0100
0001
1000
0010
1000
0001
0010
0100
1000
0001
1000
0010
0100
0001
,
1000
0100
0010
0100
1000
0001
1000
0010
1000
0001
0010
0100
1000
0010
0100
0001
,
1000
0100
1000
0001
0100
0010
1000
0100
,
0010
0001
1000
0010
1000
0100
0010
0100
,
1000
0001
0100
0010
0100
0001
1000
0001
,
0010
0100
1000
0010
1000
0001
0010
0001
,
1000
0001
0100
0001
0010
0100
1000
0001
1000
0010
0100
0010
1000
0001
0010
0100
,
1000
0001
0010
0001
0100
0010
1000
0001
1000
0100
0010
0100
1000
0001
0100
0010
,
1000
0100
0010
0001
1000
0100
1000
0001
0100
0010
1000
0001
1000
0100
0010
0001
,
1000
0010
0100
0010
1000
0001
1000
0100
1000
0001
0100
0010
1000
0100
0010
0001
,
1000
0010
1000
0001
0010
0100
1000
0010
,
0100
0001
1000
0100
1000
0010
0100
0010
,
1000
0001
0010
0100
0010
0001
1000
0001
,
0100
0010
1000
0100
1000
0001
0100
0001
,
1000
0010
0100
0001
0100
0010
1000
0100
,
0010
0001
0010
0100
0010
0001
0010
0100
,
1000
0010
1000
0100
0010
0001
1000
0010
,
0100
0000
0001
0000
1000
0000
0100
0000
0010
0001
0100
0010
1000
0000
0000
0000
,
0010
0000
0100
0000
0001
0100
0001
0000
1000
0001
1000
0000
0100
1000
0100
0000
,
0010
0000
0001
0000
1000
0010
1000
0000
0001
0010
0001
0000
0010
0100
0010
0000
,
0001
0000
0100
0000
0010
1000
0010
0000
1000
0001
1000
0000
0001
0010
0001
0000
,
1000
0000
0100
0000
0010
0001
0010
0000
0001
1000
0001
0000
0100
0001
1000
0000
,
0100
0010
0001
0100
0010
1000
0100
0010
,
0001
1000
0010
0100
0001
0010
0100
1000
,
0001
0100
0010
1000
0100
0010
0001
1000
,
0010
0100
0001
1000
0100
0010
0001
1000
,
0010
0100
0001
0100
0010
0100
0001
0010
,
0100
1000
0001
1000
0100
1000
0001
1000
,
0100
0010
0001
1000
0100
0010
0001
1000
0010
0100
0001
1000
0001
0100
0010
1000
,
0001
0010
0001
0100
0010
1000
0001
0010
0001
1000
0100
1000
0010
0100
0001
1000
,
0001
0000
0010
0100
0010
0000
0001
0000
1000
0000
0010
0100
0010
0000
1000
0000
,
0001
0000
0010
0100
0010
0000
0001
0000
1000
0000
0010
0100
0010
0000
1000
0000
,
0001
0100
0010
1000
0100
0010
0100
1000
,
0001
0100
0010
1000
0001
0100
0001
0010
,
0100
0000
1000
0001
1000
0000
0010
0000
0100
0000
0001
1000
0001
0000
0010
0000
,
0100
0000
1000
0001
1000
0000
0010
0000
0100
0000
0001
1000
0001
0000
0010
0000
,
0100
0010
0001
0100
0010
1000
0001
0100
,
0001
0010
0100
1000
0001
0100
0010
1000
,
0100
0000
1000
0010
1000
0000
0100
0000
0010
0000
0001
0100
0001
0000
0010
0000
,
0100
0000
1000
0010
1000
0000
0100
0000
0010
0000
0001
0100
0001
0000
0010
0000
,
0100
1000
0010
0100
0001
1000
0100
0010
,
0001
0100
0010
1000
0100
1000
0010
0100
,
0001
0000
1000
0100
1000
0000
0010
0000
0100
0000
0001
0010
0001
0000
0100
0000
,
0010
0000
1000
0100
1000
0000
0010
0000
0100
0000
0001
0010
0001
0000
0100
0000
,
0010
1000
0100
0010
0001
1000
0010
0100
,
0001
0010
0100
1000
0010
1000
0100
0010
,
0001
1000
0010
1000
0001
0010
0001
1000
0100
0010
0001
1000
0001
0100
0010
1000
,
0001
0100
0001
1000
0010
1000
0001
1000
0001
0010
0100
0010
0001
1000
0001
0100
,
0010
1000
0010
0100
0001
1000
0001
0010
0100
0010
0001
1000
0001
0100
0010
1000
,
0001
0010
0001
1000
0001
1000
0100
0010
0100
1000
0001
1000
0001
0100
0010
1000
,
0001
0010
0100
1000
0002
0000
0203
0000
,
0310
1000
0010
0100
0002
0000
2003
0000
,
3200
0000
0310
0002
0000
2003
0000
3020
,
0000
0000
2030
3002
0023
0000
0230
0000
,
1300
0001
0010
0100
1000
0001
0100
0010
1000
0001
0010
0100
0010
0001
1000
0001
,
0100
0010
1000
0100
1000
0010
0100
0001
0010
0001
1000
0001
0010
0100
1000
0010
,
0100
0001
0010
0100
1000
0010
0100
0010
1000
0001
1000
0100
0010
0001
1000
0001
,
0100
0010
1000
0001
0100
0001
1000
0001
1000
0100
1000
0001
0010
0100
1000
0001
,
0100
0000
0010
0000
0100
0000
0010
0000
0100
0001
0010
0100
1000
0000
0010
0000
,
0100
0001
0010
0001
1000
0100
1000
0010
0100
0001
0010
0001
1000
0100
1000
0010
,
0100
0001
0100
0000
0010
1000
0010
0000
1000
0001
1000
0000
0001
0010
0001
0000
,
1000
0100
0010
0001
1000
0100
0010
0001
1000
0010
0100
0001
1000
0010
0100
0001
,
1000
0000
0001
0000
1000
0010
0100
0010
1000
0000
0001
0000
1000
0100
0010
0100
,
1000
0000
0010
0000
0100
0010
1000
0010
0100
0000
0001
0000
0010
0100
1000
0001
,
0100
0000
0010
0000
0100
0001
1000
0100
0010
0000
0001
0000
1000
0001
0010
0001
,
1000
0000
0010
0000
0100
0001
0010
0100
1000
0000
0001
0000
1000
0010
0100
0010
,
1000
0001
0010
0100
1000
0010
0100
0001
,
1000
0100
1000
0010
1000
0100
0010
0001
,
1000
0001
0100
0001
0010
0001
1000
0001
,
0010
0100
1000
0100
0010
0001
0100
0001
,
1000
0000
0001
0000
1000
0100
0010
0100
1000
0000
0001
0000
1000
0010
0100
0010
,
1000
0000
0100
0000
0010
0100
1000
0100
0010
0000
0001
0000
0100
0010
1000
0001
,
0010
0000
0100
0000
0010
0001
1000
0010
0100
0000
0001
0000
1000
0001
0100
0001
,
1000
0000
0100
0000
0010
0001
0100
0010
1000
0000
0001
0000
1000
0100
0010
0100
,
1000
0001
0100
0010
1000
0100
0010
0001
,
1000
0010
1000
0100
1000
0010
0100
0001
,
1000
0001
0010
0001
0100
0001
1000
0001
,
0100
0010
1000
0010
0100
0001
0010
0001
,
2000
0000
0000
0000
,
0000
0000
0000
0000
,
3000
0000
0000
0000
;

//---------------dance-single - Zaia - 11(low)----------------
#NOTES:
     dance-single:
     Zaia - 11(low):
     Medium:
     11:
     1.000,1.000,0.000,0.389,0.354,970.000,0.000,55.000,0.000,0.000:
0000
0000
0000
0000
,
1000
0000
0001
0000
1000
0010
0100
0010
1000
0000
0001
0000
1000
0100
0010
0100
,
1000
0000
0010
0000
0100
0010
1000
0010
0100
0000
0001
0000
0010
0100
1000
0001
,
0100
0000
0010
0000
0100
0001
1000
0100
0010
0000
0001
0000
1000
0001
0010
0001
,
1000
0000
0010
0000
0100
0001
0010
0100
1000
0000
0001
0000
1000
0010
0100
0010
,
1000
0001
0010
0100
1000
0010
0100
0001
,
1000
0100
1000
0010
1000
0100
0010
0001
,
1000
0001
0100
0001
0010
0001
1000
0001
,
0010
0100
1000
0100
0010
0001
0100
0001
,
1000
0000
0001
0000
1000
0100
0010
0100
1000
0000
0001
0000
1000
0010
0100
0010
,
1000
0000
0100
0000
0010
0100
1000
0100
0010
0000
0001
0000
0100
0010
1000
0001
,
0010
0000
0100
0000
0010
0001
1000
0010
0100
0000
0001
0000
1000
0001
0100
0001
,
1000
0000
0100
0000
0010
0001
0100
0010
1000
0000
0001
0000
1000
0100
0010
0100
,
1000
0001
0100
0010
1000
0100
0010
0001
,
1000
0010
1000
0100
1000
0010
0100
0001
,
1000
0001
0010
0001
0100
0001
1000
0001
,
0100
0010
1000
0010
0100
0001
0010
0001
,
1000
0000
0200
0300
1000
0000
0002
0003
1000
0000
0020
0030
1000
0000
0002
0003
,
0200
0300
0001
0000
2000
3000
0001
0000
0020
0030
0001
0000
0200
0300
0001
0000
,
1000
0100
0010
0001
1000
0010
0100
0001
,
0010
0100
1000
0100
0010
0001
1000
0010
,
0200
0300
0001
0000
2000
3000
0001
0000
0020
0030
0001
0000
2000
3000
0100
0000
,
1000
0000
0002
0003
1000
0000
0020
0030
1000
0000
0200
0300
1000
0000
0002
0003
,
0100
0010
1000
0001
0010
0100
1000
0010
,
0100
0001
0100
0010
1000
0100
0010
0001
,
1000
0000
0020
0030
1000
0000
0002
0003
1000
0000
0200
0300
1000
0000
0002
0003
,
0020
0030
0001
0000
2000
3000
0001
0000
0200
0300
0001
0000
0020
0030
0001
0000
,
1000
0010
0100
0001
1000
0100
0010
0001
,
0100
0010
1000
0010
0100
0001
1000
0100
,
0020
0030
0001
0000
2000
3000
0001
0000
0200
0300
0001
0000
2000
3000
0010
0000
,
1000
0000
0002
0003
1000
0000
0200
0300
1000
0000
0020
0030
1000
0000
0002
0003
,
0010
0100
1000
0001
0100
0010
1000
0100
,
0010
0001
0100
0010
1000
0001
0010
0100
,
1000
0001
0100
0001
0010
0100
1000
0001
,
0010
0001
0100
0010
1000
0100
1000
0001
,
1000
0100
0010
0100
1000
0001
1000
0010
,
0100
0001
1000
0100
1000
0001
0100
0010
,
1000
0100
1000
0001
0100
0010
1000
0100
,
0010
0001
1000
0010
1000
0100
0010
0100
,
1000
0001
0100
0010
0100
0001
1000
0001
,
0010
0100
1000
0010
1000
0001
0010
0001
,
1000
0001
0010
0001
0100
0010
1000
0001
,
0100
0001
0010
0100
1000
0010
1000
0001
,
1000
0010
0100
0010
1000
0001
1000
0100
,
0010
0001
1000
0010
1000
0001
0010
0100
,
1000
0010
1000
0001
0010
0100
1000
0010
,
0100
0001
1000
0100
1000
0010
0100
0010
,
1000
0001
0010
0100
0010
0001
1000
0001
,
0100
0010
1000
0100
1000
0001
0100
0001
,
1000
0010
0100
0001
0100
0010
1000
0100
,
0010
0001
0010
0100
0010
0001
0010
0100
,
1000
0010
1000
0100
0010
0001
1000
0010
,
0100
0000
0001
0000
1000
0000
0100
0000
0010
0001
0100
0010
1000
0000
0000
0000
,
0010
0000
0100
0000
0001
0100
0001
0000
1000
0001
1000
0000
0100
1000
0100
0000
,
0010
0000
0001
0000
1000
0010
1000
0000
0001
0010
0001
0000
0010
0100
0010
0000
,
0001
0000
0100
0000
0010
1000
0010
0000
1000
0001
1000
0000
0001
0010
0001
0000
,
1000
0000
0100
0000
0010
0001
0010
0000
0001
1000
0001
0000
0100
0001
1000
0000
,
0100
0010
0001
0100
0010
1000
0100
0010
,
0001
1000
0010
0100
0001
0010
0100
1000
,
0001
0100
0010
1000
0100
0010
0001
1000
,
0010
0100
0001
1000
0100
0010
0001
1000
,
0010
0100
0001
0100
0010
0100
0001
0010
,
0100
1000
0001
1000
0100
1000
0001
1000
,
0100
0010
0100
0010
0001
0010
0001
0010
,
0100
1000
0010
1000
0100
0010
0001
0100
,
0001
0000
0010
0100
0010
0000
0001
0000
1000
0000
0010
0100
0010
0000
1000
0000
,
0001
0000
0010
0100
0010
0000
0001
0000
1000
0000
0010
0100
0010
0000
1000
0000
,
0001
0100
0010
1000
0100
0010
0100
1000
,
0001
0100
0010
1000
0001
0100
0001
0010
,
0100
0000
1000
0001
1000
0000
0010
0000
0100
0000
0001
1000
0001
0000
0010
0000
,
0100
0000
1000
0001
1000
0000
0010
0000
0100
0000
0001
1000
0001
0000
0010
0000
,
0100
0010
0001
0100
0010
1000
0001
0100
,
0001
0010
0100
1000
0001
0100
0010
1000
,
0100
0000
1000
0010
1000
0000
0100
0000
0010
0000
0001
0100
0001
0000
0010
0000
,
0100
0000
1000
0010
1000
0000
0100
0000
0010
0000
0001
0100
0001
0000
0010
0000
,
0100
1000
0010
0100
0001
1000
0100
0010
,
0001
0100
0010
1000
0100
1000
0010
0100
,
0001
0000
1000
0100
1000
0000
0010
0000
0100
0000
0001
0010
0001
0000
0100
0000
,
0010
0000
1000
0100
1000
0000
0010
0000
0100
0000
0001
0010
0001
0000
0100
0000
,
0010
1000
0100
0010
0001
1000
0010
0100
,
0001
0010
0100
1000
0010
1000
0100
0010
,
0001
0000
0001
0000
1000
0000
0010
0200
,
0000
0000
0302
0000
2003
0000
3100
0010
,
0002
0000
0023
0000
0230
0000
2300
3002
,
0000
0000
0203
0000
0310
2000
0000
0000
,
3001
0010
0100
1000
0002
0000
0203
0000
,
0310
1000
0010
0100
0002
0000
2003
0000
,
3200
0000
0310
0002
0000
2003
0000
3020
,
0000
0000
2030
3002
0023
0000
0230
0000
,
1300
0010
0100
0001
1000
0100
0010
0001
,
1000
0001
0010
0001
1000
0010
1000
0001
,
1000
0100
0010
0100
1000
0001
0100
0010
,
0100
0001
1000
0100
1000
0001
0010
0001
,
0100
0000
0010
0000
0100
0000
0010
0000
0100
0001
0010
0100
1000
0000
0010
0000
,
0100
0001
1000
0010
1000
0100
1000
0010
,
0100
0001
0100
0000
0010
1000
0010
0000
1000
0001
1000
0000
0001
0010
0001
0000
,
1000
0100
0010
0001
1000
0010
0100
0001
,
1000
0000
0001
0000
1000
0010
0100
0010
1000
0000
0001
0000
1000
0100
0010
0100
,
1000
0000
0010
0000
0100
0010
1000
0010
0100
0000
0001
0000
0010
0100
1000
0001
,
0100
0000
0010
0000
0100
0001
1000
0100
0010
0000
0001
0000
1000
0001
0010
0001
,
1000
0000
0010
0000
0100
0001
0010
0100
1000
0000
0001
0000
1000
0010
0100
0010
,
1000
0001
0010
0100
1000
0010
0100
0001
,
1000
0100
1000
0010
1000
0100
0010
0001
,
1000
0001
0100
0001
0010
0001
1000
0001
,
0010
0100
1000
0100
0010
0001
0100
0001
,
1000
0000
0001
0000
1000
0100
0010
0100
1000
0000
0001
0000
1000
0010
0100
0010
,
1000
0000
0100
0000
0010
0100
1000
0100
0010
0000
0001
0000
0100
0010
1000
0001
,
0010
0000
0100
0000
0010
0001
1000
0010
0100
0000
0001
0000
1000
0001
0100
0001
,
1000
0000
0100
0000
0010
0001
0100
0010
1000
0000
0001
0000
1000
0100
0010
0100
,
1000
0001
0100
0010
1000
0100
0010
0001
,
1000
0010
1000
0100
1000
0010
0100
0001
,
1000
0001
0010
0001
0100
0001
1000
0001
,
0100
0010
1000
0010
0100
0001
0010
0001
,
2000
0000
0000
0000
,
0000
0000
0000
0000
,
3000
0000
0000
0000
;
