#TITLE:Zelda Dungeon Remix;
#SUBTITLE:;
#ARTIST:DJ Tracer;
#TITLETRANSLIT:;
#SUBTITLETRANSLIT:;
#ARTISTTRANSLIT:;
#CREDIT:;
#BANNER:zelda-banner.png;
#BACKGROUND:zelda-bg.png;
#LYRICSPATH:;
#CDTITLE:cdtitle.jpg;
#MUSIC:Zelda.mp3;
#OFFSET:-0.069;
#SAMPLESTART:78.168;
#SAMPLELENGTH:20.440;
#SELECTABLE:YES;
#BPMS:0.000=178.000;
#STOPS:;
#BGCHANGES:;
// cache tags:
#FIRSTBEAT:0.000;
#LASTBEAT:291.750;
#SONGFILENAME:Songs/zelda et megaman/Zelda/Zelda.sm;
#HASMUSIC:1;
#HASBANNER:1;
#MUSICLENGTH:102.535;
// end cache tags

//---------------dance-single - Copied from----------------
#NOTES:
     dance-single:
     Copied from:
     Hard:
     12:
     1.000,1.000,1.000,0.312,0.668,687.000,125.000,32.000,0.000,0.000:
2100
0010
3001
0010
0100
0010
0001
0010
,
0102
0000
0010
0003
0100
0000
0001
0000
2100
0000
0010
3000
0100
0000
0001
0000
,
0210
0000
0010
0300
0001
0000
0010
0000
1020
0000
0100
0030
0010
0000
0001
0000
,
1000
0100
0010
0001
0010
0100
1000
0100
,
0201
0000
0010
0300
0001
0000
0010
0000
0100
0000
1000
0000
0100
0000
0010
0000
,
0001
0000
1000
0000
0001
0000
2010
0000
0100
3000
0010
0000
0210
0000
0001
0300
,
1002
0000
1000
0003
0100
0000
0010
0000
2001
0000
0100
3000
0010
0000
0001
0000
,
0010
0100
1000
0100
0010
0100
0010
0100
,
1010
0000
0101
0000
2010
0000
0100
3000
0010
0000
0001
0000
0010
0000
0100
0000
,
0120
0000
1000
0030
0100
0000
0201
0000
0001
0300
0010
0000
1002
0000
0010
0003
,
0101
1010
0101
0010
1000
0010
0100
0010
,
0201
0000
0001
0300
0010
0000
1002
0000
0100
0003
1000
0000
0020
0000
0100
0030
,
1100
0101
1010
0110
1001
0101
1010
0110
,
1001
1010
0101
0110
0101
0011
1001
0110
,
0011
1100
1010
0101
1010
0100
0010
0001
,
0010
0100
1000
0100
1001
0010
0100
1001
,
0010
0100
1001
0010
1001
0010
1000
0001
,
1000
0000
0001
0000
0010
0000
0100
0000
0010
0000
0001
0000
0010
0000
1000
0001
,
1000
0010
0110
0100
1001
0100
0010
0001
,
0010
0000
0100
0000
1000
0000
0010
0000
1100
0000
0100
0010
0100
0000
0001
0000
,
0010
1001
0100
0001
1010
0100
0010
0101
,
1000
0000
0100
0000
0010
0000
1001
0000
0100
0000
0110
0000
0001
0001
0100
0000
,
0010
1000
0010
0000
1000
0000
0110
0000
0001
0000
1000
0000
0110
0000
0001
0000
,
0010
0000
0100
0000
1000
0000
0100
0000
0021
0000
0001
0030
0100
0000
2100
0000
,
0010
3000
0001
0000
0011
0100
0010
0000
2010
0000
0100
3000
0101
0000
0010
0000
,
0100
0000
1000
0000
0100
0000
0010
0000
0021
0000
0001
0030
1000
0000
2100
0000
,
0010
3000
1000
0100
0010
0001
0010
0001
0100
0000
1010
0000
0010
0100
0010
0000
,
1000
0100
0010
0100
0000
0010
0100
0010
0001
0000
0110
1000
0001
0000
0001
1000
,
0100
0010
0100
1000
0000
0000
0001
0010
0100
0010
0100
0010
0000
0001
1000
0100
,
0010
0000
0100
0010
0100
0000
0010
0000
1100
0000
0010
0000
0100
0000
0010
0000
,
0011
0000
0010
1000
0100
0000
0100
0000
0011
0000
1000
0100
0000
0100
0010
0001
,
0010
0000
0010
0100
1000
0000
0100
0000
0011
0000
0100
0000
0010
0000
0001
0000
,
0010
0000
0001
1000
0001
0000
0010
0000
0110
0000
1000
0100
0010
0100
0010
0100
,
0010
0000
0001
1000
0001
0000
0010
0000
1001
0000
0010
0000
0100
0000
1000
0100
,
1000
0000
0010
0001
0010
0000
0001
0000
1010
0000
0100
0000
0010
0000
0100
0000
,
1000
0100
1000
0100
0010
0001
0010
0100
1000
0001
1000
0000
0100
0010
0000
0100
,
0010
0000
0001
1000
0001
0000
0010
0000
1001
0000
0010
0000
0100
0000
1000
0000
,
1000
0010
1000
0010
0000
0000
0010
0100
0010
0001
0010
0001
0010
0000
1010
0000
,
1000
0100
1000
0000
0100
0000
0011
0000
0010
0000
1000
0000
0100
0010
0100
0000
,
1100
0000
0010
0001
0010
0001
0010
0000
0101
0000
0011
0000
0100
0000
0010
0000
,
0110
0110
0000
0000
0110
0110
0000
0000
,
1000
0100
1000
0100
0010
0001
0010
0001
0010
0100
0000
0100
0010
0000
0000
0000
,
1000
0001
1000
0001
1000
0001
1000
0001
0010
0100
0010
0100
1000
0001
1000
0001
,
0010
0100
0010
0100
1001
0100
0010
0001
,
1010
0000
0100
0000
0010
0000
0001
0000
0010
0000
0100
0000
1000
0000
0100
0010
,
0100
0000
0010
0000
0100
0000
0010
0100
0010
0100
1000
0100
0010
0000
0100
0000
,
0010
0000
0001
0000
0010
0000
0100
0000
0010
0000
0100
0000
0010
0000
1000
0100
,
0010
0010
0010
0000
0001
0000
1100
0000
0100
1000
0100
1000
0100
0000
0010
0000
,
1000
0000
0100
0000
0010
0000
0100
0000
1010
0000
0100
0000
0010
0000
0000
0010
,
0000
0010
0000
0000
1000
0100
1000
0100
1000
0100
0010
0001
0010
0100
0010
0001
,
0000
0001
0010
0000
1010
0000
0100
0000
1000
0010
0100
0000
0100
0010
0100
0000
,
0100
0000
0100
0000
1000
0100
0000
0100
1000
0100
0000
0100
0000
0000
0100
0010
,
0100
0000
1000
0000
0100
0000
0010
0000
0001
1000
0001
0000
0110
0000
1000
0010
,
0100
0010
0000
1000
0100
0010
0001
0000
0000
0000
0110
0000
0000
1001
0000
0000
,
1001
0000
0000
1001
0010
0100
0010
0100
0010
0000
0000
0000
0010
0001
0010
0000
,
0110
0000
0000
0000
1000
0100
0010
0001
0100
0010
0100
0010
0100
0001
0010
0100
,
1000
0010
1000
0010
0100
0001
0100
0010
0100
0001
0010
0100
0010
0001
1000
0010
,
0100
0001
0100
0001
0010
0100
1000
0100
1000
0010
1000
0001
0010
0100
1000
0010
,
2000
0000
0010
0000
0001
0000
0010
3000
0100
0000
1000
0000
0100
0000
0010
0000
,
0110
0100
1000
0100
1001
0100
0001
0010
,
1002
0000
0100
0000
0010
0000
1000
0003
0100
0000
0010
0000
1001
0000
0010
0000
,
1001
0000
1000
0000
0100
0000
0010
0000
0001
0000
0010
0000
1000
0001
1000
0001
,
0120
0000
0100
0000
1000
0000
0100
0030
1000
0000
0100
0000
0010
0000
0001
0000
,
0110
0001
0110
1000
0110
0001
0110
1000
,
0102
0000
0010
0000
1000
0000
0100
0003
0010
0000
0001
0000
1010
0000
0100
0000
,
0011
0100
0100
0011
0011
0100
0100
0100
,
0001
0010
0100
1000
0010
0100
0010
0100
0001
0100
0000
0010
0001
1000
0000
0010
,
0100
0010
0100
0000
0010
1000
0100
0010
0100
0000
0000
0100
0000
0000
1001
0000
,
0120
0000
0100
0000
1000
0000
0100
0030
0010
0000
0001
0000
0010
0000
0100
0000
,
2100
0000
0100
3000
0010
0000
0012
0000
0010
0003
0010
0000
2100
0000
3100
0000
,
1010
0100
0011
0100
1001
0010
0101
0010
,
1010
0100
1001
0010
0110
0110
1001
1001
,
0010
0100
0010
0000
1001
0000
0000
0000
2002
0000
0000
0000
0000
0000
0000
3003
;
