#TITLE:Boom Boom Fire;
#SUBTITLE:;
#ARTIST:D.Essex;
#TITLETRANSLIT:;
#SUBTITLETRANSLIT:;
#ARTISTTRANSLIT:;
#CREDIT:;
#BANNER:BoomBoomFire-bn.png;
#BACKGROUND:BoomBoomFire-bg.png;
#LYRICSPATH:;
#CDTITLE:!joeCDtitle.png;
#MUSIC:D.Essex - Boom Boom Fire.mp3;
#OFFSET:0.040;
#SAMPLESTART:62.640;
#SAMPLELENGTH:12.000;
#SELECTABLE:YES;
#BPMS:0.000=154.100;
#STOPS:;
#BGCHANGES:;
// cache tags:
#FIRSTBEAT:9.000;
#LASTBEAT:268.000;
#SONGFILENAME:Songs/Fresh Flock of Fantastic Files F4/(-joe-) Boom Boom Fire/BoomBoomFire.sm;
#HASMUSIC:1;
#HASBANNER:1;
#MUSICLENGTH:104.698;
// end cache tags

//---------------dance-single - ----------------
#NOTES:
     dance-single:
     :
     Hard:
     11:
     1.000,1.000,1.000,0.172,0.931,556.000,164.000,18.000,0.000,0.000:
0000
0000
0000
0000
,
0000
0000
0000
0000
,
0000
0000
0000
0000
0011
0000
0110
0000
1100
0000
0001
1000
0000
0110
0000
1001
,
0000
0010
1000
0010
0101
0000
1010
0000
1100
0000
0001
1000
0000
0011
0000
1100
,
0000
2002
0000
0000
0000
0000
0000
0000
3003
0000
0000
0000
0000
0000
0000
0000
,
0000
0000
0000
0000
1000
0100
1000
0100
,
1000
0000
0100
0000
1010
0000
1001
0000
0101
0000
1000
0001
0000
0101
0000
1010
,
0000
1000
0001
0100
1010
0000
1001
0000
0110
0000
1000
0001
0000
1100
0000
0101
,
0000
2002
0000
0000
0000
0000
0000
0000
3003
0000
0000
0000
0000
0000
0000
0000
,
0000
0000
0000
0000
0010
0001
0010
0001
,
0010
0000
0001
0000
0011
0000
1100
0000
0110
0000
0001
1000
0000
0001
0000
0010
,
0000
0100
0000
0000
1000
0000
0100
0000
0010
0000
0001
0010
0000
0100
0000
1000
,
0000
0001
0000
0000
0000
0000
0001
0000
0000
0000
0010
0000
0100
1000
0000
1000
,
0000
0010
0000
0000
0100
0000
0000
0000
0001
0000
0010
0000
0100
0000
1000
0000
,
0100
0000
0010
0000
0001
0000
0010
0000
0100
0000
0001
1000
0000
0100
0000
1000
,
0000
1000
0000
0000
0100
0000
0010
0000
0100
0000
0001
1000
0000
0001
0000
1000
,
0000
0001
0000
0000
0000
0000
1000
0000
0000
0000
0010
0000
0100
0000
0000
1000
,
0000
0100
1001
0000
0001
0010
1000
0001
,
2002
3003
0010
0000
0001
0100
0010
1000
0001
0100
0010
1000
0001
0010
0100
0010
,
0000
1000
0001
0000
1000
0100
1000
0010
0100
0010
0100
0001
0010
0001
1000
0010
,
0000
0100
0001
0000
1000
0010
0100
0001
0010
0001
0000
1000
0100
1000
0010
0100
,
0001
1000
0000
0100
0011
0000
0011
0000
0110
0000
0110
0000
1100
0000
1100
0000
,
1001
0000
1001
0000
0001
0010
0001
0100
0010
0100
0010
1000
0100
1000
0010
0100
,
0000
0001
1000
0000
1000
0010
0100
0001
0010
0001
1000
0100
1000
0010
0100
0001
,
0000
1000
0001
0000
0100
0001
0100
0001
0100
0001
0000
1000
0010
1000
0010
1000
,
0010
1000
0000
0010
0101
0000
0101
0000
0110
0000
0110
0000
1010
0000
1010
0000
,
1001
0000
1001
0000
0001
0000
0010
0000
0100
0000
1000
0000
0010
0100
0000
0001
,
0000
0000
1001
0001
0101
0001
0011
0001
,
1001
0000
0101
0000
1001
0000
1100
0000
0110
0000
0001
1000
0010
1000
0001
0100
,
0001
1000
0010
0100
0001
0100
0010
1000
0010
0100
0001
1000
0001
0010
0100
1000
,
0100
0010
0001
0000
1010
0000
0001
0000
0110
0000
1001
0000
0001
1000
0000
0001
,
0000
0000
0110
0100
1100
0100
0101
0100
,
0110
0000
1001
0000
0110
0000
1010
0000
1001
0000
0100
0010
0000
0000
1000
0000
,
0010
0000
1000
0000
0001
1000
0100
0010
0001
1000
0100
0010
0100
1000
0001
0010
,
0100
1000
0011
0000
0110
0000
1100
0000
0110
0000
0011
0000
1100
0000
0110
0000
,
1100
0011
0110
0011
0110
2200
0000
0000
,
3300
0000
0101
1010
0101
1001
0101
1010
,
0101
1001
1001
1010
0101
2002
0000
0000
,
3003
0000
1001
0101
0011
0101
1001
1010
,
1100
0110
0011
0110
1100
2002
0000
0000
,
3003
0000
0011
0011
0011
0011
0110
0110
,
0110
0110
1100
1100
1100
1100
2002
3003
,
1001
0000
0000
0000
1100
0000
0011
0000
0110
0000
1000
0001
0000
1000
0000
0100
,
0000
0010
0000
0000
1001
0000
0011
0000
0110
0000
1000
0100
0000
0010
0000
0001
,
0000
1000
0000
0000
0000
0000
1000
0000
0000
0000
0100
0000
0010
0001
0000
0001
,
0000
0100
0000
0000
0010
0000
0000
0000
0001
0000
0010
0000
0100
0000
1000
0000
,
0100
0000
0010
0000
1001
0000
0110
0000
0101
0000
0001
1000
0000
0100
0000
1000
,
0000
1000
0000
0000
0101
0000
1010
0000
0110
0000
0001
1000
0000
0001
0000
1000
,
0000
0001
0000
0000
0000
0000
0100
0000
0000
0000
0010
0000
0101
0000
0000
1010
,
0000
0110
1001
0000
0001
0010
1000
0010
,
0100
0000
0010
0000
0101
0000
1010
0000
1001
0000
0100
0010
0000
0100
0000
0001
,
0000
1000
0000
0000
0011
0000
1100
0000
0011
0000
0100
0001
0000
1000
0000
0010
,
0000
0100
0000
0000
0000
0000
0001
0000
0000
0000
0001
0000
1000
0010
0000
0010
,
0000
0001
0000
0000
1000
0000
0000
0000
0100
0000
0001
0000
1000
0000
0010
0000
,
1000
0000
0001
0000
1100
0000
0011
0000
1001
0000
0100
0010
0000
1000
0000
0010
,
0000
0010
0000
0000
1100
0000
0011
0000
1100
0000
0010
1000
0000
0001
0000
1000
,
0000
0001
0000
0000
0000
0000
1001
0000
0000
0000
0110
0000
1100
0000
0000
0011
,
0000
0000
1100
0000
2002
0000
3003
0000
0100
0001
1000
0010
0100
0001
1000
0010
,
0100
0001
1000
0000
0001
0100
0010
1000
0001
0100
0001
1000
0001
1000
0010
0100
,
0000
0001
1000
0000
0001
0100
0001
1000
0010
1000
0001
0100
0001
1000
0010
1000
,
0000
0001
0100
0000
1000
0010
0001
0010
1000
0001
0000
0010
1000
0100
0001
0100
,
0010
0100
0000
0010
0101
0000
0101
0000
1001
0000
1001
0000
1010
0000
1010
0000
,
0110
0000
0110
0000
0001
0100
0010
1000
0001
1000
0001
0100
0010
1000
0001
1000
,
0000
0010
0100
0000
0001
0100
0010
0100
0010
1000
0010
1000
0100
1000
0010
1000
,
0000
0010
1000
0000
0100
0010
0100
0001
1000
0010
0000
1000
0001
0100
0010
0100
,
0001
1000
0000
0100
0011
0000
0101
0000
0110
0000
1010
0000
0110
0000
0101
0000
,
1100
1001
2002
0000
0000
0000
0000
0000
,
3003
0000
0000
0000
;
