#TITLE:[F-Boss] Type 7 Dumpstream;
#SUBTITLE:;
#ARTIST:Kommisar;
#TITLETRANSLIT:;
#SUBTITLETRANSLIT:;
#ARTISTTRANSLIT:;
#CREDIT:;
#BANNER:../Beast 4 - bn.png;
#BACKGROUND:../Beast 4 - bg.png;
#LYRICSPATH:;
#CDTITLE:;
#MUSIC:Type 7 Dumpstream.ogg;
#OFFSET:-0.033;
#SAMPLESTART:33.904;
#SAMPLELENGTH:12.000;
#SELECTABLE:YES;
#BPMS:0.000=255.000;
#STOPS:;
#BGCHANGES:;
// cache tags:
#FIRSTBEAT:32.000;
#LASTBEAT:512.000;
#SONGFILENAME:Songs/Beast Aoreo BEAST! 4/Type 7 Dumpstream - [Aoreo]/Type 7 Dumpstream.sm;
#HASMUSIC:1;
#HASBANNER:1;
#MUSICLENGTH:125.204;
// end cache tags

//---------------dance-single - J. Nero----------------
#NOTES:
     dance-single:
     J. Nero:
     Challenge:
     22:
     1.000,1.000,0.008,0.335,1.000,1279.000,1.000,42.000,0.000,0.000:
0000
0000
0000
0000
,
0000
0000
0000
0000
,
0000
0000
0000
0000
,
0000
0000
0000
0000
,
0000
0000
0000
0000
,
0000
0000
0000
0000
,
0000
0000
0000
0000
,
0000
0000
0000
0000
,
0002
0103
0100
0020
,
1030
1000
0200
0310
,
0002
1003
1000
0020
,
0130
0100
0002
0013
,
0200
0000
0000
2300
,
0000
0000
0000
0000
,
3002
0000
0000
0203
,
0000
0000
0320
0000
,
2030
3100
0100
0020
,
0031
0001
0200
0310
,
2000
3100
0100
2000
,
3010
0010
0200
0301
,
0020
0000
0000
0230
,
0000
0000
0000
0000
,
2300
0000
0000
3002
,
0000
0000
0203
0000
,
0320
1030
1000
0200
,
0310
0010
0002
0103
,
0020
1030
1000
0200
,
0310
0010
0002
0103
,
0020
0000
0000
0230
,
0000
0000
0000
0000
,
0302
0000
0000
2003
,
0000
0000
3200
0000
,
1300
0010
0100
0010
1000
0001
0010
0100
,
1000
0001
0100
0010
0100
0001
1000
0100
,
0010
0100
1000
0010
0100
0001
1000
0001
,
0010
0100
1000
0001
0100
0010
0100
0001
,
0010
0100
1000
0001
0100
0001
1000
0010
,
0100
0010
1000
0001
0010
0100
1000
0010
,
0100
0001
1000
0100
1000
0001
0100
0010
,
0100
0001
1000
0100
0010
0001
1000
0001
,
1000
0001
0010
0100
1000
0001
1000
0010
0100
0001
1000
0001
0010
0100
1000
0001
,
0100
0010
0100
0001
1000
0001
0010
0100
0010
0001
1000
0001
0100
0010
0100
0001
,
1000
0100
0010
0001
1000
0001
0100
0010
1000
0001
1000
0100
0010
0001
1000
0010
,
0100
0010
1000
0001
1000
0100
0010
0100
1000
0001
1000
0010
0100
0001
1000
0100
,
1000
0001
0100
0010
1000
0001
1000
0100
0010
0001
1000
0001
0100
0010
1000
0001
,
0010
0100
0010
0001
1000
0001
0100
0010
0100
0001
1000
0001
0010
0100
0010
0001
,
1000
0010
0100
0001
1000
0001
0010
0100
1000
0001
1000
0010
0100
0001
1000
0100
,
0010
0100
1000
0001
1000
0010
0100
0010
1000
0001
1000
0100
0010
0001
1000
0010
,
1000
0001
0010
0100
1000
0001
1000
0010
0100
0001
1000
0001
0010
0100
1000
0001
,
0100
0010
0100
0001
1000
0001
0010
0100
0010
0001
1000
0001
0100
0010
0100
0001
,
1000
0100
0010
0001
1000
0001
0100
0010
1000
0001
1000
0100
0010
0001
1000
0010
,
0100
0010
1000
0001
1000
0100
0010
0100
1000
0001
1000
0010
0100
0001
1000
0100
,
1000
0001
0100
0010
1000
0001
1000
0100
0010
0001
1000
0001
0100
0010
1000
0001
,
0010
0100
0010
0001
1000
0001
0100
0010
0100
0001
1000
0001
0010
0100
0010
0001
,
1000
0010
0100
0001
1000
0001
0010
0100
1000
0001
1000
0010
0100
0001
1000
0100
,
0010
0100
1000
0001
1000
0010
0100
0010
1000
0001
1000
0100
0010
0100
1000
0010
,
1000
0001
0010
0100
0010
0001
0100
0001
1000
0100
0010
0100
1000
0010
1000
0001
,
0100
0001
1000
0010
1000
0100
1000
0001
0100
0001
1000
0100
0010
0100
1000
0001
,
1000
0010
0100
0010
1000
0100
1000
0001
0100
0010
0100
0001
0010
0001
1000
0100
,
1000
0001
0010
0001
0100
0001
1000
0100
1000
0001
0100
0010
0100
0001
1000
0100
,
0010
0001
0010
0100
1000
0010
1000
0001
0010
0100
0010
0001
0100
0001
1000
0010
,
1000
0001
0100
0001
0010
0001
1000
0010
1000
0001
0010
0100
0010
0001
1000
0001
,
0100
0010
0100
0001
0010
0001
1000
0010
0100
0010
1000
0100
1000
0001
0010
0001
,
1000
0100
1000
0010
1000
0001
0010
0001
1000
0010
0100
0010
1000
0001
1000
0100
,
1000
0001
0100
0010
0100
0001
0010
0001
1000
0010
0100
0010
1000
0100
1000
0001
,
0010
0001
1000
0100
1000
0010
1000
0001
0010
0001
1000
0010
0100
0010
1000
0001
,
1000
0100
0010
0100
1000
0010
1000
0001
0010
0100
0010
0001
0100
0001
1000
0010
,
1000
0001
0100
0001
0010
0001
1000
0010
1000
0001
0010
0100
0010
0001
1000
0010
,
0100
0001
0100
0010
1000
0100
1000
0001
0100
0010
0100
0001
0010
0001
1000
0100
,
1000
0001
0010
0001
0100
0001
1000
0100
1000
0001
0100
0010
0100
0001
1000
0001
,
0010
0001
0100
0010
0100
0001
1000
0100
1000
0010
0100
0010
1000
0001
0010
0001
,
1000
0100
0010
0100
1000
0010
0100
0001
1000
0001
0010
0100
0010
0001
0100
0010
,
1000
0100
1000
0010
1000
0001
0100
0001
0010
0001
1000
0100
0010
0001
1000
0001
,
1000
0100
1000
0010
1000
0001
0100
0001
0010
0001
1000
0100
0010
0001
1000
0010
,
1000
0001
0100
0001
0010
0001
1000
0100
1000
0010
1000
0001
0010
0100
1000
0010
,
1000
0001
0100
0001
0010
0001
1000
0100
1000
0010
1000
0001
0010
0100
1000
0001
,
0100
0001
1000
0100
1000
0010
1000
0001
0100
0001
0010
0001
1000
0100
0010
0001
,
1000
0100
1000
0010
1000
0001
0100
0001
0010
0001
1000
0100
1000
0001
0100
0010
,
1000
0001
0010
0100
1000
0001
1000
0010
0100
0001
1000
0100
0010
0001
1000
0001
,
0100
0001
0010
0100
1000
0010
0100
0001
1000
0100
0010
0100
1000
0010
0100
0001
,
1000
0100
1000
0010
1000
0001
0100
0001
0010
0001
1000
0100
0010
0001
1000
0001
,
1000
0100
1000
0010
1000
0001
0100
0001
0010
0001
1000
0100
0010
0001
1000
0010
,
1000
0001
0100
0001
0010
0001
1000
0100
1000
0010
1000
0001
0010
0100
1000
0010
,
1000
0001
0100
0001
0010
0001
1000
0100
1000
0010
1000
0001
0010
0100
1000
0001
,
0100
0001
1000
0100
1000
0010
1000
0001
0100
0001
0010
0001
1000
0100
0010
0001
,
1000
0100
1000
0010
1000
0001
0100
0001
0010
0001
1000
0100
1000
0001
0100
0010
,
1000
0001
0010
0100
1000
0001
1000
0010
0100
0001
1000
0100
0010
0001
1000
0001
,
0100
0001
0010
0100
1000
0010
0100
0001
1000
0100
0010
0100
1000
0010
0100
0001
,
4000
0004
0000
0000
0000
0000
0000
0000
,
0000
0000
0000
0000
,
0000
0000
0000
0000
,
0000
0000
0000
3003
,
2000
0000
3001
0010
0200
0000
1300
0001
,
0020
0000
0130
1000
0002
0000
0103
0010
,
1000
0100
0010
0100
1000
0100
0010
0100
,
1000
0100
0010
0100
1000
0100
0010
0100
,
1000
0001
1000
0100
1000
0001
1000
0100
,
1000
0001
1000
0100
1000
0001
1000
0100
,
1000
0001
0100
0001
0010
0001
0100
0001
,
0010
0001
0100
0001
0010
0001
0100
0001
,
2000
0000
3001
0010
0200
0000
1300
0001
,
0020
0000
0130
1000
0002
0000
0103
0010
,
1000
0100
0010
0100
1000
0001
0100
0010
,
0100
0001
1000
0100
0010
0100
1000
0010
,
0100
0001
1000
0001
0010
0100
1000
0001
,
0100
0010
0100
0001
1000
0100
0010
0001
,
1000
0100
1000
0001
0100
0010
0100
0001
,
0010
0100
0010
0001
1000
0010
0100
0010
,
1000
0001
0010
0100
0010
0001
0100
0001
1000
0100
0010
0100
1000
0010
1000
0001
,
0100
0010
0100
0001
1000
0100
0010
0001
1000
0001
0100
0010
1000
0100
1000
0001
,
0100
0010
0100
0001
1000
0100
1000
0010
0100
0001
0100
0010
1000
0001
1000
0100
,
0010
0100
1000
0010
1000
0001
0010
0100
0010
0001
0100
0001
1000
0010
0100
0001
,
1000
0100
1000
0010
0100
0010
1000
0100
1000
0001
0010
0001
0100
0010
0100
0001
,
1000
0100
1000
0001
0100
0010
0100
0001
0010
0001
1000
0100
0010
0001
1000
0001
,
0100
0001
0010
0100
0010
0001
1000
0010
1000
0100
0010
0100
1000
0001
0100
0010
,
0100
0001
0010
0001
1000
0100
1000
0010
0100
0010
1000
0001
0100
0010
1000
0100
,
1000
0001
0100
0010
0100
0001
0010
0001
1000
0010
0100
0010
1000
0100
1000
0001
,
0010
0100
0010
0001
1000
0010
0100
0001
1000
0001
0010
0100
1000
0010
1000
0001
,
0010
0100
0010
0001
1000
0010
1000
0100
0010
0001
0010
0100
1000
0001
1000
0010
,
0100
0010
1000
0100
1000
0001
0100
0010
0100
0001
0010
0001
1000
0100
0010
0001
,
1000
0010
1000
0100
0010
0100
1000
0010
1000
0001
0100
0001
0010
0100
0010
0001
,
1000
0010
1000
0001
0010
0100
0010
0001
0100
0001
1000
0010
0100
0001
1000
0001
,
0010
0001
0100
0010
0100
0001
1000
0100
1000
0010
0100
0010
1000
0001
0010
0100
,
0010
0001
0100
0001
1000
0010
1000
0100
0010
0100
1000
0001
0100
0001
1000
0000
,
0000
0000
0000
0000
0000
0000
0000
0000
0001
0100
0001
0100
0010
1000
0001
0010
,
0200
0000
0000
0000
,
0000
0000
0000
0000
,
0000
0000
0000
0000
,
0300
0000
0000
0000
;

//---------------dance-single - J. Nero----------------
#NOTES:
     dance-single:
     J. Nero:
     Hard:
     21:
     1.000,1.000,0.008,0.335,1.000,1215.000,1.000,42.000,0.000,0.000:
0000
0000
0000
0000
,
0000
0000
0000
0000
,
0000
0000
0000
0000
,
0000
0000
0000
0000
,
0000
0000
0000
0000
,
0000
0000
0000
0000
,
0000
0000
0000
0000
,
0000
0000
0000
0000
,
0002
0103
0100
0020
,
1030
1000
0200
0310
,
0002
1003
1000
0020
,
0130
0100
0002
0013
,
0200
0000
0000
2300
,
0000
0000
0000
0000
,
3002
0000
0000
0203
,
0000
0000
0320
0000
,
2030
3100
0100
0020
,
0031
0001
0200
0310
,
2000
3100
0100
2000
,
3010
0010
0200
0301
,
0020
0000
0000
0230
,
0000
0000
0000
0000
,
2300
0000
0000
3002
,
0000
0000
0203
0000
,
0320
1030
1000
0200
,
0310
0010
0002
0103
,
0020
1030
1000
0200
,
0310
0010
0002
0103
,
0020
0000
0000
0230
,
0000
0000
0000
0000
,
0302
0000
0000
2003
,
0000
0000
3200
0000
,
1300
0010
0100
0010
1000
0001
0010
0100
,
1000
0001
0100
0010
0100
0001
1000
0100
,
0010
0100
1000
0010
0100
0001
1000
0001
,
0010
0100
1000
0001
0100
0010
0100
0001
,
0010
0100
1000
0001
0100
0001
1000
0010
,
0100
0010
1000
0001
0010
0100
1000
0010
,
0100
0001
1000
0100
1000
0001
0100
0010
,
0100
0001
1000
0100
0010
0001
1000
0001
,
1000
0001
0010
0100
1000
0001
1000
0010
0100
0001
1000
0001
0010
0100
1000
0001
,
0100
0001
0010
0001
0100
0010
1000
0100
,
1000
0100
0010
0001
1000
0001
0100
0010
1000
0001
1000
0100
0010
0001
1000
0010
,
0100
0001
0010
0001
0100
0010
1000
0100
,
1000
0001
0100
0010
1000
0001
1000
0100
0010
0001
1000
0001
0100
0010
1000
0001
,
0010
0001
1000
0100
1000
0010
0100
0010
,
1000
0010
0100
0001
1000
0001
0010
0100
1000
0001
1000
0010
0100
0001
1000
0100
,
0010
0001
1000
0100
1000
0010
0100
0001
,
1000
0001
0010
0100
1000
0001
1000
0010
0100
0001
1000
0001
0010
0100
1000
0001
,
0100
0001
0010
0001
0100
0010
1000
0100
,
1000
0100
0010
0001
1000
0001
0100
0010
1000
0001
1000
0100
0010
0001
1000
0010
,
0100
0001
0010
0001
0100
0010
1000
0100
,
1000
0001
0100
0010
1000
0001
1000
0100
0010
0001
1000
0001
0100
0010
1000
0001
,
0010
0001
1000
0100
1000
0010
0100
0001
,
1000
0010
0100
0001
1000
0001
0010
0100
1000
0001
1000
0010
0100
0001
1000
0100
,
0010
0001
1000
0100
1000
0010
0100
0001
,
1000
0001
0010
0100
0010
0001
0100
0001
1000
0100
0010
0100
1000
0010
1000
0001
,
0100
0001
1000
0010
1000
0100
1000
0001
0100
0001
1000
0100
0010
0100
1000
0001
,
1000
0010
0100
0010
1000
0100
1000
0001
0100
0010
0100
0001
0010
0001
1000
0100
,
1000
0001
0010
0001
0100
0001
1000
0100
1000
0001
0100
0010
0100
0001
1000
0100
,
0010
0001
0010
0100
1000
0010
1000
0001
0010
0100
0010
0001
0100
0001
1000
0010
,
1000
0001
0100
0001
0010
0001
1000
0010
1000
0001
0010
0100
0010
0001
1000
0001
,
0100
0010
0100
0001
0010
0001
1000
0010
0100
0010
1000
0100
1000
0001
0010
0001
,
1000
0100
1000
0010
1000
0001
0010
0001
1000
0010
0100
0010
1000
0001
1000
0100
,
1000
0001
0100
0010
0100
0001
0010
0001
1000
0010
0100
0010
1000
0100
1000
0001
,
0010
0001
1000
0100
1000
0010
1000
0001
0010
0001
1000
0010
0100
0010
1000
0001
,
1000
0100
0010
0100
1000
0010
1000
0001
0010
0100
0010
0001
0100
0001
1000
0010
,
1000
0001
0100
0001
0010
0001
1000
0010
1000
0001
0010
0100
0010
0001
1000
0010
,
0100
0001
0100
0010
1000
0100
1000
0001
0100
0010
0100
0001
0010
0001
1000
0100
,
1000
0001
0010
0001
0100
0001
1000
0100
1000
0001
0100
0010
0100
0001
1000
0001
,
0010
0001
0100
0010
0100
0001
1000
0100
1000
0010
0100
0010
1000
0001
0010
0001
,
1000
0100
0010
0100
1000
0010
0100
0001
1000
0001
0010
0100
0010
0001
0100
0010
,
1000
0100
1000
0010
1000
0001
0100
0001
0010
0001
1000
0100
0010
0001
1000
0001
,
1000
0100
1000
0010
1000
0001
0100
0001
0010
0001
1000
0100
0010
0001
1000
0010
,
1000
0001
0100
0001
0010
0001
1000
0100
1000
0010
1000
0001
0010
0100
1000
0010
,
1000
0001
0100
0001
0010
0001
1000
0100
1000
0010
1000
0001
0010
0100
1000
0001
,
0100
0001
1000
0100
1000
0010
1000
0001
0100
0001
0010
0001
1000
0100
0010
0001
,
1000
0100
1000
0010
1000
0001
0100
0001
0010
0001
1000
0100
1000
0001
0100
0010
,
1000
0001
0010
0100
1000
0001
1000
0010
0100
0001
1000
0100
0010
0001
1000
0001
,
0100
0001
0010
0100
1000
0010
0100
0001
1000
0100
0010
0100
1000
0010
0100
0001
,
1000
0100
1000
0010
1000
0001
0100
0001
0010
0001
1000
0100
0010
0001
1000
0001
,
1000
0100
1000
0010
1000
0001
0100
0001
0010
0001
1000
0100
0010
0001
1000
0010
,
1000
0001
0100
0001
0010
0001
1000
0100
1000
0010
1000
0001
0010
0100
1000
0010
,
1000
0001
0100
0001
0010
0001
1000
0100
1000
0010
1000
0001
0010
0100
1000
0001
,
0100
0001
1000
0100
1000
0010
1000
0001
0100
0001
0010
0001
1000
0100
0010
0001
,
1000
0100
1000
0010
1000
0001
0100
0001
0010
0001
1000
0100
1000
0001
0100
0010
,
1000
0001
0010
0100
1000
0001
1000
0010
0100
0001
1000
0100
0010
0001
1000
0001
,
0100
0001
0010
0100
1000
0010
0100
0001
1000
0100
0010
0100
1000
0010
0100
0001
,
4000
0004
0000
0000
0000
0000
0000
0000
,
0000
0000
0000
0000
,
0000
0000
0000
0000
,
0000
0000
0000
3003
,
2000
0000
3001
0010
0200
0000
1300
0001
,
0020
0000
0130
1000
0002
0000
0103
0010
,
1000
0100
0010
0100
1000
0100
0010
0100
,
1000
0100
0010
0100
1000
0100
0010
0100
,
1000
0001
1000
0100
1000
0001
1000
0100
,
1000
0001
1000
0100
1000
0001
1000
0100
,
1000
0001
0100
0001
0010
0001
0100
0001
,
0010
0001
0100
0001
0010
0001
0100
0001
,
2000
0000
3001
0010
0200
0000
1300
0001
,
0020
0000
0130
1000
0002
0000
0103
0010
,
1000
0100
0010
0100
1000
0001
0100
0010
,
0100
0001
1000
0100
0010
0100
1000
0010
,
0100
0001
1000
0001
0010
0100
1000
0001
,
0100
0010
0100
0001
1000
0100
0010
0001
,
1000
0100
1000
0001
0100
0010
0100
0001
,
0010
0100
0010
0001
1000
0010
0100
0010
,
1000
0001
0010
0100
0010
0001
0100
0001
1000
0100
0010
0100
1000
0010
1000
0001
,
0100
0010
0100
0001
1000
0100
0010
0001
1000
0001
0100
0010
1000
0100
1000
0001
,
0100
0010
0100
0001
1000
0100
1000
0010
0100
0001
0100
0010
1000
0001
1000
0100
,
0010
0100
1000
0010
1000
0001
0010
0100
0010
0001
0100
0001
1000
0010
0100
0001
,
1000
0100
1000
0010
0100
0010
1000
0100
1000
0001
0010
0001
0100
0010
0100
0001
,
1000
0100
1000
0001
0100
0010
0100
0001
0010
0001
1000
0100
0010
0001
1000
0001
,
0100
0001
0010
0100
0010
0001
1000
0010
1000
0100
0010
0100
1000
0001
0100
0010
,
0100
0001
0010
0001
1000
0100
1000
0010
0100
0010
1000
0001
0100
0010
1000
0100
,
1000
0001
0100
0010
0100
0001
0010
0001
1000
0010
0100
0010
1000
0100
1000
0001
,
0010
0100
0010
0001
1000
0010
0100
0001
1000
0001
0010
0100
1000
0010
1000
0001
,
0010
0100
0010
0001
1000
0010
1000
0100
0010
0001
0010
0100
1000
0001
1000
0010
,
0100
0010
1000
0100
1000
0001
0100
0010
0100
0001
0010
0001
1000
0100
0010
0001
,
1000
0010
1000
0100
0010
0100
1000
0010
1000
0001
0100
0001
0010
0100
0010
0001
,
1000
0010
1000
0001
0010
0100
0010
0001
0100
0001
1000
0010
0100
0001
1000
0001
,
0010
0001
0100
0010
0100
0001
1000
0100
1000
0010
0100
0010
1000
0001
0010
0100
,
0010
0001
0100
0001
1000
0010
1000
0100
0010
0100
1000
0001
0100
0001
1000
0000
,
0000
0000
0000
0000
0000
0000
0000
0000
0001
0100
0001
0100
0010
1000
0001
0010
,
0200
0000
0000
0000
,
0000
0000
0000
0000
,
0000
0000
0000
0000
,
0300
0000
0000
0000
;

//---------------dance-single - J. Nero----------------
#NOTES:
     dance-single:
     J. Nero:
     Medium:
     19:
     1.000,1.000,0.008,0.591,1.000,1055.000,1.000,74.000,0.000,0.000:
0000
0000
0000
0000
,
0000
0000
0000
0000
,
0000
0000
0000
0000
,
0000
0000
0000
0000
,
0000
0000
0000
0000
,
0000
0000
0000
0000
,
0000
0000
0000
0000
,
0000
0000
0000
0000
,
0002
0103
0100
0020
,
1030
1000
0200
0310
,
0002
1003
1000
0020
,
0130
0100
0002
0013
,
0200
0000
0000
2300
,
0000
0000
0000
0000
,
3002
0000
0000
0203
,
0000
0000
0320
0000
,
2030
3100
0100
0020
,
0031
0001
0200
0310
,
2000
3100
0100
2000
,
3010
0010
0200
0301
,
0020
0000
0000
0230
,
0000
0000
0000
0000
,
2300
0000
0000
3002
,
0000
0000
0203
0000
,
0320
1030
1000
0200
,
0310
0010
0002
0103
,
0020
1030
1000
0200
,
0310
0010
0002
0103
,
0020
0000
0000
0230
,
0000
0000
0000
0000
,
0302
0000
0000
2003
,
0000
0000
3200
0000
,
1300
0010
0100
0010
1000
0001
0010
0100
,
1000
0001
0100
0010
0100
0001
1000
0100
,
0010
0100
1000
0010
0100
0001
1000
0001
,
0010
0100
1000
0001
0100
0010
0100
0001
,
0010
0100
1000
0001
0100
0001
1000
0010
,
0100
0010
1000
0001
0010
0100
1000
0010
,
0100
0001
1000
0100
1000
0001
0100
0010
,
0100
0001
1000
0100
0010
0001
1000
0001
,
1000
0001
0010
0100
1000
0001
1000
0010
0100
0001
1000
0001
0010
0100
1000
0001
,
0100
0001
0010
0001
0100
0010
1000
0100
,
1000
0100
0010
0001
1000
0001
0100
0010
1000
0001
1000
0100
0010
0001
1000
0010
,
0100
0001
0010
0001
0100
0010
1000
0100
,
1000
0001
0100
0010
1000
0001
1000
0100
0010
0001
1000
0001
0100
0010
1000
0001
,
0010
0001
1000
0100
1000
0010
0100
0010
,
1000
0010
0100
0001
1000
0001
0010
0100
1000
0001
1000
0010
0100
0001
1000
0100
,
0010
0001
1000
0100
1000
0010
0100
0001
,
1000
0001
0010
0100
1000
0001
1000
0010
0100
0001
1000
0001
0010
0100
1000
0001
,
0100
0001
0010
0001
0100
0010
1000
0100
,
1000
0100
0010
0001
1000
0001
0100
0010
1000
0001
1000
0100
0010
0001
1000
0010
,
0100
0001
0010
0001
0100
0010
1000
0100
,
1000
0001
0100
0010
1000
0001
1000
0100
0010
0001
1000
0001
0100
0010
1000
0001
,
0010
0001
1000
0100
1000
0010
0100
0001
,
1000
0010
0100
0001
1000
0001
0010
0100
1000
0001
1000
0010
0100
0001
1000
0100
,
0010
0001
1000
0100
1000
0010
0100
0001
,
1000
0001
0010
0100
0010
0001
0100
0001
1000
0100
0010
0100
1000
0010
1000
0001
,
0100
0001
1000
0010
1000
0100
1000
0001
0100
0001
1000
0100
0010
0100
1000
0001
,
1000
0010
0100
0010
1000
0100
1000
0001
0100
0010
0100
0001
0010
0001
1000
0100
,
1000
0001
0010
0001
0100
0001
1000
0100
1000
0001
0100
0010
0100
0001
1000
0100
,
0020
0032
0000
0000
,
2003
3020
0000
0000
,
0230
0302
0023
0230
,
2300
0000
0000
0000
3020
0000
0000
0000
0230
0000
0000
0000
0302
0000
0000
0003
,
1000
0001
0100
0010
0100
0001
0010
0001
1000
0010
0100
0010
1000
0100
1000
0001
,
0010
0001
1000
0100
1000
0010
1000
0001
0010
0001
1000
0010
0100
0010
1000
0001
,
1000
0100
0010
0100
1000
0010
1000
0001
0010
0100
0010
0001
0100
0001
1000
0010
,
1000
0001
0100
0001
0010
0001
1000
0010
1000
0001
0010
0100
0010
0001
1000
0010
,
0200
0302
0000
0000
,
2003
3200
0000
0000
,
2300
3020
0230
0302
,
2003
3200
0320
0032
,
1003
0100
1000
0010
1000
0001
0100
0001
0010
0001
1000
0100
0010
0001
1000
0001
,
1000
0100
1000
0010
1000
0001
0100
0001
0010
0001
1000
0100
0010
0001
1000
0010
,
1000
0001
0100
0001
0010
0001
1000
0100
1000
0010
1000
0001
0010
0100
1000
0010
,
1000
0001
0100
0001
0010
0001
1000
0100
1000
0010
1000
0001
0010
0100
1000
0001
,
0200
0302
0000
0000
,
2003
3020
0000
0000
,
1030
0001
0010
0100
1000
0001
1000
0010
0100
0001
1000
0100
0010
0001
1000
0001
,
0100
0001
0010
0100
1000
0010
0100
0001
1000
0100
0010
0100
1000
0010
0100
0001
,
1000
0100
1000
0010
1000
0001
0100
0001
0010
0001
1000
0100
0010
0001
1000
0001
,
1000
0100
1000
0010
1000
0001
0100
0001
0010
0001
1000
0100
0010
0001
1000
0010
,
1000
0001
0100
0001
0010
0001
1000
0100
1000
0010
1000
0001
0010
0100
1000
0010
,
1000
0001
0100
0001
0010
0001
1000
0100
1000
0010
1000
0001
0010
0100
1000
0001
,
0200
0302
0000
0000
,
2003
3200
0000
0000
,
1300
0001
0010
0100
1000
0001
1000
0010
0100
0001
1000
0100
0010
0001
1000
0001
,
0100
0001
0010
0100
1000
0010
0100
0001
1000
0100
0010
0100
1000
0010
0100
0001
,
4000
0004
0000
0000
0000
0000
0000
0000
,
0000
0000
0000
0000
,
0000
0000
0000
0000
,
0000
0000
0000
3003
,
2000
0000
3001
0010
0200
0000
1300
0001
,
0020
0000
0130
1000
0002
0000
0103
0010
,
1000
0100
0010
0100
1000
0100
0010
0100
,
1000
0100
0010
0100
1000
0100
0010
0100
,
1000
0001
1000
0100
1000
0001
1000
0100
,
1000
0001
1000
0100
1000
0001
1000
0100
,
1000
0001
0100
0001
0010
0001
0100
0001
,
0010
0001
0100
0001
0010
0001
0100
0001
,
2000
0000
3001
0010
0200
0000
1300
0001
,
0020
0000
0130
1000
0002
0000
0103
0010
,
1000
0100
0010
0100
1000
0001
0100
0010
,
0100
0001
1000
0100
0010
0100
1000
0010
,
0100
0001
1000
0001
0010
0100
1000
0001
,
0100
0010
0100
0001
1000
0100
0010
0001
,
1000
0100
1000
0001
0100
0010
0100
0001
,
0010
0100
0010
0001
1000
0010
0100
0010
,
1000
0001
0010
0100
0010
0001
0100
0001
1000
0100
0010
0100
1000
0010
1000
0001
,
0100
0010
0100
0001
1000
0100
0010
0001
1000
0001
0100
0010
1000
0100
1000
0001
,
0100
0010
0100
0001
1000
0100
1000
0010
0100
0001
0100
0010
1000
0001
1000
0100
,
0010
0100
1000
0010
1000
0001
0010
0100
0010
0001
0100
0001
1000
0010
0100
0001
,
1000
0100
1000
0010
0100
0010
1000
0100
1000
0001
0010
0001
0100
0010
0100
0001
,
1000
0100
1000
0001
0100
0010
0100
0001
0010
0001
1000
0100
0010
0001
1000
0001
,
0100
0001
0010
0100
0010
0001
1000
0010
1000
0100
0010
0100
1000
0001
0100
0010
,
0100
0001
0010
0001
1000
0100
1000
0010
0100
0010
1000
0001
0100
0010
1000
0100
,
1000
0001
0100
0010
0100
0001
0010
0001
1000
0010
0100
0010
1000
0100
1000
0001
,
0010
0100
0010
0001
1000
0010
0100
0001
1000
0001
0010
0100
1000
0010
1000
0001
,
0010
0100
0010
0001
1000
0010
1000
0100
0010
0001
0010
0100
1000
0001
1000
0010
,
0100
0010
1000
0100
1000
0001
0100
0010
0100
0001
0010
0001
1000
0100
0010
0001
,
1000
0010
1000
0100
0010
0100
1000
0010
1000
0001
0100
0001
0010
0100
0010
0001
,
1000
0010
1000
0001
0010
0100
0010
0001
0100
0001
1000
0010
0100
0001
1000
0001
,
0010
0001
0100
0010
0100
0001
1000
0100
1000
0010
0100
0010
1000
0001
0010
0100
,
0010
0001
0100
0001
1000
0010
1000
0100
0010
0100
1000
0001
0100
0001
1000
0000
,
0000
0000
0000
0000
0000
0000
0000
0000
0001
0100
0001
0100
0010
1000
0001
0010
,
0200
0000
0000
0000
,
0000
0000
0000
0000
,
0000
0000
0000
0000
,
0300
0000
0000
0000
;

//---------------dance-single - J. Nero----------------
#NOTES:
     dance-single:
     J. Nero:
     Easy:
     18:
     1.000,1.000,0.008,0.655,1.000,999.000,1.000,82.000,0.000,0.000:
0000
0000
0000
0000
,
0000
0000
0000
0000
,
0000
0000
0000
0000
,
0000
0000
0000
0000
,
0000
0000
0000
0000
,
0000
0000
0000
0000
,
0000
0000
0000
0000
,
0000
0000
0000
0000
,
0002
0103
0100
0020
,
1030
1000
0200
0310
,
0002
1003
1000
0020
,
0130
0100
0002
0013
,
0200
0000
0000
2300
,
0000
0000
0000
0000
,
3002
0000
0000
0203
,
0000
0000
0320
0000
,
2030
3100
0100
0020
,
0031
0001
0200
0310
,
2000
3100
0100
2000
,
3010
0010
0200
0301
,
0020
0000
0000
0230
,
0000
0000
0000
0000
,
2300
0000
0000
3002
,
0000
0000
0203
0000
,
0320
1030
1000
0200
,
0310
0010
0002
0103
,
0020
1030
1000
0200
,
0310
0010
0002
0103
,
0020
0000
0000
0230
,
0000
0000
0000
0000
,
0302
0000
0000
2003
,
0000
0000
3200
0000
,
1300
0010
0100
0010
1000
0001
0010
0100
,
1000
0001
0100
0010
0100
0001
1000
0100
,
0010
0100
1000
0010
0100
0001
1000
0001
,
0010
0100
1000
0001
0100
0010
0100
0001
,
0010
0100
1000
0001
0100
0001
1000
0010
,
0100
0010
1000
0001
0010
0100
1000
0010
,
0100
0001
1000
0100
1000
0001
0100
0010
,
0100
0001
1000
0100
0010
0001
1000
0001
,
1000
0001
0010
0100
1000
0001
1000
0010
0100
0001
1000
0001
0010
0100
1000
0001
,
0100
0001
0010
0001
0100
0010
1000
0100
,
1000
0100
0010
0001
1000
0001
0100
0010
1000
0001
1000
0100
0010
0001
1000
0010
,
0100
0001
0010
0001
0100
0010
1000
0100
,
1000
0001
0100
0010
1000
0001
1000
0100
0010
0001
1000
0001
0100
0010
1000
0001
,
0010
0001
1000
0100
1000
0010
0100
0010
,
1000
0010
0100
0001
1000
0001
0010
0100
1000
0001
1000
0010
0100
0001
1000
0100
,
0010
0001
1000
0100
1000
0010
0100
0001
,
1000
0001
0010
0100
1000
0001
1000
0010
0100
0001
1000
0001
0010
0100
1000
0001
,
0100
0001
0010
0001
0100
0010
1000
0100
,
1000
0100
0010
0001
1000
0001
0100
0010
1000
0001
1000
0100
0010
0001
1000
0010
,
0100
0001
0010
0001
0100
0010
1000
0100
,
1000
0001
0100
0010
1000
0001
1000
0100
0010
0001
1000
0001
0100
0010
1000
0001
,
0010
0001
1000
0100
1000
0010
0100
0001
,
1000
0010
0100
0001
1000
0001
0010
0100
1000
0001
1000
0010
0100
0001
1000
0100
,
0010
0001
1000
0100
1000
0010
0100
0001
,
1000
0001
0010
0100
0010
0001
0100
0001
1000
0100
0010
0100
1000
0010
1000
0001
,
0100
0001
1000
0010
1000
0100
1000
0001
0100
0001
1000
0100
0010
0100
1000
0001
,
1000
0010
0100
0010
1000
0100
1000
0001
0100
0010
0100
0001
0010
0001
1000
0100
,
1000
0001
0010
0001
0100
0001
1000
0100
1000
0001
0100
0010
0100
0001
1000
0100
,
0020
0032
0000
0000
,
2003
3020
0000
0000
,
0230
0302
0023
0230
,
2300
0000
0000
0000
3020
0000
0000
0000
0230
0000
0000
0000
0302
0000
0000
0003
,
1000
0001
0100
0010
0100
0001
0010
0001
1000
0010
0100
0010
1000
0100
1000
0001
,
0010
0001
1000
0100
1000
0010
1000
0001
0010
0001
1000
0010
0100
0010
1000
0001
,
1000
0100
0010
0100
1000
0010
1000
0001
0010
0100
0010
0001
0100
0001
1000
0010
,
1000
0001
0100
0001
0010
0001
1000
0010
1000
0001
0010
0100
0010
0001
1000
0010
,
0200
0302
0000
0000
,
2003
3200
0000
0000
,
2300
3020
0230
0302
,
2003
3200
0320
0032
,
1003
0100
1000
0010
1000
0001
0100
0001
0010
0001
1000
0100
0010
0001
1000
0001
,
1000
0100
1000
0010
1000
0001
0100
0001
0010
0001
1000
0100
0010
0001
1000
0010
,
1000
0001
0100
0001
0010
0001
1000
0100
1000
0010
1000
0001
0010
0100
1000
0010
,
1000
0001
0100
0001
0010
0001
1000
0100
1000
0010
1000
0001
0010
0100
1000
0001
,
0200
0302
0000
0000
,
2003
3020
0000
0000
,
1030
0001
0010
0100
1000
0001
1000
0010
0100
0001
1000
0100
0010
0001
1000
0001
,
0100
0001
0010
0100
1000
0010
0100
0001
1000
0100
0010
0100
1000
0010
0100
0001
,
1000
0100
1000
0010
1000
0001
0100
0001
0010
0001
1000
0100
0010
0001
1000
0001
,
1000
0100
1000
0010
1000
0001
0100
0001
0010
0001
1000
0100
0010
0001
1000
0010
,
1000
0001
0100
0001
0010
0001
1000
0100
1000
0010
1000
0001
0010
0100
1000
0010
,
1000
0001
0100
0001
0010
0001
1000
0100
1000
0010
1000
0001
0010
0100
1000
0001
,
0200
0302
0000
0000
,
2003
3200
0000
0000
,
1300
0001
0010
0100
1000
0001
1000
0010
0100
0001
1000
0100
0010
0001
1000
0001
,
0100
0001
0010
0100
1000
0010
0100
0001
1000
0100
0010
0100
1000
0010
0100
0001
,
4000
0004
0000
0000
0000
0000
0000
0000
,
0000
0000
0000
0000
,
0000
0000
0000
0000
,
0000
0000
0000
3003
,
2000
0000
3001
0010
0200
0000
1300
0001
,
0020
0000
0130
1000
0002
0000
0103
0010
,
1000
0100
0010
0100
1000
0100
0010
0100
,
1000
0100
0010
0100
1000
0100
0010
0100
,
1000
0001
1000
0100
1000
0001
1000
0100
,
1000
0001
1000
0100
1000
0001
1000
0100
,
1000
0001
0100
0001
0010
0001
0100
0001
,
0010
0001
0100
0001
0010
0001
0100
0001
,
2000
0000
3001
0010
0200
0000
1300
0001
,
0020
0000
0130
1000
0002
0000
0103
0010
,
1000
0100
0010
0100
1000
0001
0100
0010
,
0100
0001
1000
0100
0010
0100
1000
0010
,
0100
0001
1000
0001
0010
0100
1000
0001
,
0100
0010
0100
0001
1000
0100
0010
0001
,
1000
0100
1000
0001
0100
0010
0100
0001
,
0010
0100
0010
0001
1000
0010
0100
0010
,
1000
0001
0010
0100
0010
0001
0100
0001
1000
0100
0010
0100
1000
0010
1000
0001
,
0100
0010
0100
0001
1000
0100
0010
0001
1000
0001
0100
0010
1000
0100
1000
0001
,
0100
0010
0100
0001
1000
0100
1000
0010
0100
0001
0100
0010
1000
0001
1000
0100
,
0010
0100
1000
0010
1000
0001
0010
0100
0010
0001
0100
0001
1000
0010
0100
0001
,
2000
3020
0000
0000
,
0230
0000
0000
0000
0302
0000
0000
0000
0000
0000
0000
0000
0000
0000
0000
0003
,
0100
0001
0010
0100
0010
0001
1000
0010
1000
0100
0010
0100
1000
0001
0100
0010
,
0100
0001
0010
0001
1000
0100
1000
0010
0100
0010
1000
0001
0100
0010
1000
0100
,
1000
0001
0100
0010
0100
0001
0010
0001
1000
0010
0100
0010
1000
0100
1000
0001
,
0010
0100
0010
0001
1000
0010
0100
0001
1000
0001
0010
0100
1000
0010
1000
0001
,
0010
0100
0010
0001
1000
0010
1000
0100
0010
0001
0010
0100
1000
0001
1000
0010
,
0100
0010
1000
0100
1000
0001
0100
0010
0100
0001
0010
0001
1000
0100
0010
0001
,
2000
3002
0000
0000
,
0203
0320
0000
0000
,
1030
0001
0100
0010
0100
0001
1000
0100
1000
0010
0100
0010
1000
0001
0010
0100
,
0010
0001
0100
0001
1000
0010
1000
0100
0010
0100
1000
0001
0100
0001
1000
0000
,
0000
0000
0000
0000
0000
0000
0000
0000
0001
0100
0001
0100
0010
1000
0001
0010
,
0200
0000
0000
0000
,
0000
0000
0000
0000
,
0000
0000
0000
0000
,
0300
0000
0000
0000
;

//---------------dance-single - J. Nero----------------
#NOTES:
     dance-single:
     J. Nero:
     Beginner:
     17:
     1.000,1.000,0.008,0.911,1.000,904.000,1.000,114.000,0.000,0.000:
0000
0000
0000
0000
,
0000
0000
0000
0000
,
0000
0000
0000
0000
,
0000
0000
0000
0000
,
0000
0000
0000
0000
,
0000
0000
0000
0000
,
0000
0000
0000
0000
,
0000
0000
0000
0000
,
0002
0103
0100
0020
,
1030
1000
0200
0310
,
0002
1003
1000
0020
,
0130
0100
0002
0013
,
0200
0000
0000
2300
,
0000
0000
0000
0000
,
3002
0000
0000
0203
,
0000
0000
0320
0000
,
2030
3100
0100
0020
,
0031
0001
0200
0310
,
2000
3100
0100
2000
,
3010
0010
0200
0301
,
0020
0000
0000
0230
,
0000
0000
0000
0000
,
2300
0000
0000
3002
,
0000
0000
0203
0000
,
0320
1030
1000
0200
,
0310
0010
0002
0103
,
0020
1030
1000
0200
,
0310
0010
0002
0103
,
0020
0000
0000
0230
,
0000
0000
0000
0000
,
0302
0000
0000
2003
,
0000
0000
3200
0000
,
1300
0010
0100
0010
1000
0001
0010
0100
,
1000
0001
0100
0010
0100
0001
1000
0100
,
0010
0100
1000
0010
0100
0001
1000
0001
,
0010
0100
1000
0001
0100
0010
0100
0001
,
0010
0100
1000
0001
0100
0001
1000
0010
,
0100
0010
1000
0001
0010
0100
1000
0010
,
0100
0001
1000
0100
1000
0001
0100
0010
,
0100
0001
1000
0100
0010
0001
1000
0001
,
1000
0001
0010
0100
1000
0001
1000
0010
0100
0001
1000
0001
0010
0100
1000
0001
,
0100
0001
0010
0001
0100
0010
1000
0100
,
1000
0100
0010
0001
1000
0001
0100
0010
1000
0001
1000
0100
0010
0001
1000
0010
,
0100
0001
0010
0001
0100
0010
1000
0100
,
1000
0001
0100
0010
1000
0001
1000
0100
0010
0001
1000
0001
0100
0010
1000
0001
,
0010
0001
1000
0100
1000
0010
0100
0010
,
1000
0010
0100
0001
1000
0001
0010
0100
1000
0001
1000
0010
0100
0001
1000
0100
,
0010
0001
1000
0100
1000
0010
0100
0001
,
1000
0001
0010
0100
1000
0001
1000
0010
0100
0001
1000
0001
0010
0100
1000
0001
,
0100
0001
0010
0001
0100
0010
1000
0100
,
1000
0100
0010
0001
1000
0001
0100
0010
1000
0001
1000
0100
0010
0001
1000
0010
,
0100
0001
0010
0001
0100
0010
1000
0100
,
1000
0001
0100
0010
1000
0001
1000
0100
0010
0001
1000
0001
0100
0010
1000
0001
,
0010
0001
1000
0100
1000
0010
0100
0001
,
1000
0010
0100
0001
1000
0001
0010
0100
1000
0001
1000
0010
0100
0001
1000
0100
,
0010
0001
1000
0100
1000
0010
0100
0001
,
1000
0001
0010
0100
0010
0001
0100
0001
1000
0100
0010
0100
1000
0010
1000
0001
,
0100
0001
1000
0010
1000
0100
1000
0001
0100
0001
1000
0100
0010
0100
1000
0001
,
1000
0010
0100
0010
1000
0100
1000
0001
0100
0010
0100
0001
0010
0001
1000
0100
,
1000
0001
0010
0001
0100
0001
1000
0100
1000
0001
0100
0010
0100
0001
1000
0100
,
0020
0032
0000
0000
,
2003
3020
0000
0000
,
0230
0302
0023
0230
,
2300
0000
0000
0000
3020
0000
0000
0000
0230
0000
0000
0000
0302
0000
0000
0003
,
1000
0001
0100
0010
0100
0001
0010
0001
1000
0010
0100
0010
1000
0100
1000
0001
,
0010
0001
1000
0100
1000
0010
1000
0001
0010
0001
1000
0010
0100
0010
1000
0001
,
1000
0100
0010
0100
1000
0010
1000
0001
0010
0100
0010
0001
0100
0001
1000
0010
,
1000
0001
0100
0001
0010
0001
1000
0010
1000
0001
0010
0100
0010
0001
1000
0010
,
0200
0302
0000
0000
,
2003
3200
0000
0000
,
2300
3020
0230
0302
,
2003
3200
0320
0032
,
1003
0100
1000
0010
1000
0001
0100
0001
0010
0001
1000
0100
0010
0001
1000
0001
,
1000
0100
1000
0010
1000
0001
0100
0001
0010
0001
1000
0100
0010
0001
1000
0010
,
1000
0001
0100
0001
0010
0001
1000
0100
1000
0010
1000
0001
0010
0100
1000
0010
,
1000
0001
0100
0001
0010
0001
1000
0100
1000
0010
1000
0001
0010
0100
1000
0001
,
0200
0302
0000
0000
,
2003
3020
0000
0000
,
2030
3000
0200
0300
0020
0030
0200
0300
2000
3000
0020
0030
0200
0300
0002
0003
,
0040
0030
0000
0000
0400
0300
0000
0000
4000
3000
0000
0000
0040
0030
0000
0000
0400
0300
0000
0000
0004
0003
0000
0000
4000
3000
0000
0000
0400
0300
0000
0000
,
1000
0100
1000
0010
1000
0001
0100
0001
0010
0001
1000
0100
0010
0001
1000
0001
,
1000
0100
1000
0010
1000
0001
0100
0001
0010
0001
1000
0100
0010
0001
1000
0010
,
1000
0001
0100
0001
0010
0001
1000
0100
1000
0010
1000
0001
0010
0100
1000
0010
,
1000
0001
0100
0001
0010
0001
1000
0100
1000
0010
1000
0001
0010
0100
1000
0001
,
0200
0302
0000
0000
,
2003
3200
0000
0000
,
2300
3000
0020
0030
0200
0300
0020
0030
2000
3000
0200
0300
2000
3000
0002
0003
,
0040
0030
0000
0000
0400
0300
0000
0000
4000
3000
0000
0000
0040
0030
0000
0000
0400
0300
0000
0000
0004
0003
0000
0000
0040
0030
0000
0000
0400
0300
0000
0000
,
4000
0004
0000
0000
0000
0000
0000
0000
,
0000
0000
0000
0000
,
0000
0000
0000
0000
,
0000
0000
0000
3003
,
2000
0000
3001
0010
0200
0000
1300
0001
,
0020
0000
0130
1000
0002
0000
0103
0010
,
1000
0100
0010
0100
1000
0100
0010
0100
,
1000
0100
0010
0100
1000
0100
0010
0100
,
1000
0001
1000
0100
1000
0001
1000
0100
,
1000
0001
1000
0100
1000
0001
1000
0100
,
1000
0001
0100
0001
0010
0001
0100
0001
,
0010
0001
0100
0001
0010
0001
0100
0001
,
2000
0000
3001
0010
0200
0000
1300
0001
,
0020
0000
0130
1000
0002
0000
0103
0010
,
1000
0100
0010
0100
1000
0001
0100
0010
,
0100
0001
1000
0100
0010
0100
1000
0010
,
0100
0001
1000
0001
0010
0100
1000
0001
,
0100
0010
0100
0001
1000
0100
0010
0001
,
1000
0100
1000
0001
0100
0010
0100
0001
,
0010
0100
0010
0001
1000
0010
0100
0010
,
1000
0001
0010
0100
0010
0001
0100
0001
1000
0100
0010
0100
1000
0010
1000
0001
,
0100
0010
0100
0001
1000
0100
0010
0001
1000
0001
0100
0010
1000
0100
1000
0001
,
0100
0010
0100
0001
1000
0100
1000
0010
0100
0001
0100
0010
1000
0001
1000
0100
,
0010
0100
1000
0010
1000
0001
0010
0100
0010
0001
0100
0001
1000
0010
0100
0001
,
2000
3020
0000
0000
,
0230
0000
0000
0000
0302
0000
0000
0000
0000
0000
0000
0000
0000
0000
0000
0003
,
0200
0300
0020
0030
0200
0300
0002
0003
0020
0030
0200
0300
0020
0030
0002
0003
,
4000
3000
0000
0000
0400
0300
0000
0000
4000
3000
0000
0000
0040
0030
0000
0000
0400
0300
0000
0000
0004
0003
0000
0000
0040
0030
0000
0000
0400
0300
0000
0000
,
1000
0001
0100
0010
0100
0001
0010
0001
1000
0010
0100
0010
1000
0100
1000
0001
,
0010
0100
0010
0001
1000
0010
0100
0001
1000
0001
0010
0100
1000
0010
1000
0001
,
0010
0100
0010
0001
1000
0010
1000
0100
0010
0001
0010
0100
1000
0001
1000
0010
,
0100
0010
1000
0100
1000
0001
0100
0010
0100
0001
0010
0001
1000
0100
0010
0001
,
2000
3002
0000
0000
,
0203
0320
0000
0000
,
2030
3000
0200
0300
2000
3000
0020
0030
0200
0300
0002
0003
0020
0030
0200
0300
,
4000
3000
0000
0000
0040
0030
0000
0000
0400
0300
0000
0000
0004
0003
0000
0000
0040
0030
0000
0000
0004
0003
0000
0000
4000
3000
0000
0000
0004
0003
0000
0000
,
0000
0000
0000
0000
0000
0000
0000
0000
1000
0100
1000
0001
0010
0100
1000
0001
,
0200
0000
0000
0000
,
0000
0000
0000
0000
,
0000
0000
0000
0000
,
0300
0000
0000
0000
;
